xxx toy story 4 2019 HINDI john wick 3 childs play 2019 the handmaids tale ethd ddr shazam 2019 stuber 2019 captain marvel 2019 godzilla king of the monsters 2019 annabelle comes home 2019 instinct s02e03 evo the rook wwe shaft 2019 2.0 (2018) formula 1 brightburn 2019 i got the hook up 2 2019 chernobyl Ettv instinct alita battle angel 2019 the secret life of pets 2 2019 aladdin 2019 city on a hill s01e05 claws s03e06 john wick chapter 3 – parabellum 2019 Stranger Things spider man far from home 2019 harrow etrg euphoria s01e05 rocketman 2019 big little lies big little lies s02e06 Swamp thing hellboy 2019 fear the walking dead s05e07 men in black international 2019 anna 2019 etmovies DDR fear the walking dead 0 once upon a time in hollywood 2019 the intruder 2019 dark phoenix 2019 the rook s01e03 Euphoria yts big bang theory español ma 2019 crawl 2019 pokemon detective pikachu 2019 avengers endgame us 2019 little 2019 avengers endgame 2019 kabir singh alita midsommar 2019 arrow español dumbo 2019 yesterday 2019 dc week the lion king 2019 nascar endgame john wick 
Warning! Use a VPN When Downloading Torrents!
Your IP Address is 18.209.104.7. Location is United States
Your Internet Provider is tracking your torrent activity! Hide your IP ADDRESS with a VPN!
We strongly recommend using ExpressVPN to anonymize your torrenting. 30 Day Money Back Guarantee!
Try it Now!
ETTV Recommended TV Shows
Big.Little.Lies.S02E06.WEB.h264-TBS[ettv] torrent
Instinct.US.S02E03.720p.HDTV.x264-AVS[ettv] torrent
WWE Extreme Rules 2019 PPV WEB h264-HEEL [TJET] torrent
Dark.Money.S01E03.HDTV.x264-MTB[ettv] torrent

ETTV Recommended SD
The.Intruder.2019.HDRip.AC3.x264-CMRG[EtMovies] torrent
SGT.Will.Gardner.2019.BRRip.XviD.AC3-EVO torrent
The.Cleansing.2019.HDRip.AC3.x264-CMRG[EtMovies] torrent
Hellboy.2019.BDRip.XviD.AC3-EVO[EtMovies] torrent

ETTV Recommended HD
John Wick Chapter 2 (2017)-Keanu Reeves-1080p-H264-AC 3 (DolbyDigital-5.1) & nickarad torrent
Alita.Battle.Angel.2019.Multi.1080p.Blu-ray.HEVC.DTS-HD.MA.7.1-DDR[EtHD] torrent
Poms.2019.1080p.NF.WEB-DL.DDP5.1.x264-NTG[EtHD] torrent
Hellboy.2019.1080p.Bluray.X264-EVO[EtHD] torrent

ETTV Recommended UHD
Shazam! 2019.Multi.UHD.BluRay.2160p.HDR.HEVC.Atmos.7.1[En+Hindi++]-DDR torrent
Hulk 2003.MULTi.Blu-ray.2160.HDR.HEVC.DTS-X.7.1-DDR torrent
Water World 1995.MULTi.Blu-ray.2160p.HEVC.HDR.DTS-X.7.1-DDR torrent
Alita Battle Angel 2019.MULTi.UHD.BluRay.2160p.HDR.Atmos.7.1.HEVC[EN+Hindi++]-DDR.mkv torrent

ETTV Recommended Cam
Yesterday 2019 720p HDCAM-1XBET torrent
Spider-Man Far From Home 2019 NEW 720p HD-TC NO ADS-1XBET torrent
Crawl 2019 720p HDCAM-1XBET torrent
Stuber 2019 720p HDCAM-1XBET torrent

ETTV Recommended Foreign
Sophia.Antipolis.2018.1080p.FRA.WEB-Rip.AAC2.0.HEVC-DDR[EtHD] torrent
Alita: Battle Angel - Alita: Angelo della battaglia (2019).720p.H264.ita.eng.Ac3-5.1.sub.ita.eng-MIRCrew torrent
Devi.2016.1080p.WEB-DL.AVC.AAC.DDR torrent
Kalakalappu 2.2018.1080p.WEB-DL.AVC.AAC.ESub.DDR torrent


Download Torrent "Wicked City (1987) 1080p BDRip x265 DTS-HD MA 5.1 Goki [SEV]"

IMDB Details
Description:

Two agents - a lady-killer human and a voluptuous demon - attempt to protect a signatory to a peace ceremony between the human world and the "Black World" from radicalized demons.

Genre:

Animation, Fantasy, Horror, Sci-Fi

Download Torrent (Magnet)
Download Torrent (File)
Seeds: 104
Leechers: 91
Completed: 168 
Last Checked: 13-05-2019 14:45:50


Loading...
Details
Title:Wicked City (1987) 1080p BDRip x265 DTS-HD MA 5.1 Goki [SEV]
Description:




Screenshots





Media Information

Unique ID                                : 54282743325437744813508191821638624071 (0x28D679E099F25E459BD9AD98A51B6347)
Complete name                            : Wicked City (1987) 1080p BDRip x265 DTS-HD MA 5.1 Goki [SEV].mkv
Format                                   : Matroska
Format version                           : Version 4
File size                                : 3.76 GiB
Duration                                 : 1 h 22 min
Overall bit rate mode                    : Variable
Overall bit rate                         : 6 544 kb/s
Movie name                               : Wicked City (1987) 1080p BDRip x265 DTS-HD MA 5.1 Goki [SEV]
Encoded date                             : UTC 2019-05-13 10:37:08
Writing application                      : mkvmerge v28.2.0 ('The Awakening') 64-bit
Writing library                          : libebml v1.3.6 + libmatroska v1.4.9 / Lavf57.73.100
Writing application                      : Internet Friendly Media Encoder v7.7 ('Prism Ark')
Writing library                          : IFME v7.7 amd64 windows

Video
ID                                       : 1
Format                                   : HEVC
Format/Info                              : High Efficiency Video Coding
Format profile                           : Main [email protected]@Main
Codec ID                                 : V_MPEGH/ISO/HEVC
Duration                                 : 1 h 22 min
Bit rate                                 : 2 585 kb/s
Width                                    : 1 920 pixels
Height                                   : 1 080 pixels
Display aspect ratio                     : 16:9
Frame rate mode                          : Constant
Frame rate                               : 23.976 (24000/1001) FPS
Color space                              : YUV
Chroma subsampling                       : 4:2:0
Bit depth                                : 10 bits
Bits/(Pixel*Frame)                       : 0.052
Stream size                              : 1.49 GiB (39%)
Writing library                          : x265 2.9+8-27d8424c799d:[Windows][MSVC 1915][64 bit] 10bit
Encoding settings                        : cpuid=1111039 / frame-threads=2 / numa-pools=4 / wpp / no-pmode / no-pme / no-psnr / no-ssim / log-level=2 / input-csp=1 / input-res=1920x1080 / interlace=0 / total-frames=0 / level-idc=0 / high-tier=1 / uhd-bd=0 / ref=4 / no-allow-non-conformance / no-repeat-headers / annexb / no-aud / no-hrd / info / hash=0 / no-temporal-layers / open-gop / min-keyint=23 / keyint=250 / gop-lookahead=0 / bframes=8 / b-adapt=2 / b-pyramid / bframe-bias=0 / rc-lookahead=100 / lookahead-slices=4 / scenecut=40 / radl=0 / no-intra-refresh / ctu=64 / min-cu-size=8 / no-rect / no-amp / max-tu-size=32 / tu-inter-depth=2 / tu-intra-depth=2 / limit-tu=4 / rdoq-level=2 / dynamic-rd=0.00 / no-ssim-rd / signhide / no-tskip / nr-intra=0 / nr-inter=0 / no-constrained-intra / no-strong-intra-smoothing / max-merge=3 / limit-refs=2 / limit-modes / me=3 / subme=5 / merange=57 / temporal-mvp / weightp / weightb / no-analyze-src-pics / deblock=0:0 / sao / no-sao-non-deblock / rd=6 / no-early-skip / rskip / no-fast-intra / no-tskip-fast / no-cu-lossless / b-intra / no-splitrd-skip / rdpenalty=0 / psy-rd=1.30 / psy-rdoq=2.00 / no-rd-refine / no-lossless / cbqpoffs=0 / crqpoffs=0 / rc=crf / crf=18.0 / qcomp=0.60 / qpstep=4 / stats-write=0 / stats-read=0 / ipratio=1.40 / pbratio=1.30 / aq-mode=2 / aq-strength=1.10 / cutree / zone-count=0 / no-strict-cbr / qg-size=32 / no-rc-grain / qpmax=69 / qpmin=0 / no-const-vbv / sar=1 / overscan=0 / videoformat=5 / range=0 / colorprim=2 / transfer=2 / colormatrix=2 / chromaloc=0 / display-window=0 / max-cll=0,0 / min-luma=0 / max-luma=1023 / log2-max-poc-lsb=8 / vui-timing-info / vui-hrd-info / slices=1 / no-opt-qp-pps / no-opt-ref-list-length-pps / no-multi-pass-opt-rps / scenecut-bias=0.05 / no-opt-cu-delta-qp / no-aq-motion / no-hdr / no-hdr-opt / no-dhdr10-opt / no-idr-recovery-sei / analysis-reuse-level=5 / scale-factor=0 / refine-intra=0 / refine-inter=0 / refine-mv=0 / no-limit-sao / ctu-info=0 / no-lowpass-dct / refine-mv-type=0 / copy-pic=1 / max-ausize-factor=1.0 / no-dynamic-refine / no-single-sei
Language                                 : English
Default                                  : Yes
Forced                                   : No

Audio #1
ID                                       : 2
Format                                   : DTS XLL
Format/Info                              : Digital Theater Systems
Commercial name                          : DTS-HD Master Audio
Codec ID                                 : A_DTS
Duration                                 : 1 h 22 min
Bit rate mode                            : Variable
Bit rate                                 : 2 419 kb/s
Channel(s)                               : 6 channels
Channel layout                           : C L R Ls Rs LFE
Sampling rate                            : 48.0 kHz
Frame rate                               : 93.750 FPS (512 SPF)
Bit depth                                : 16 bits
Compression mode                         : Lossless
Stream size                              : 1.39 GiB (37%)
Title                                    : Surround 5.1
Language                                 : English
Default                                  : Yes
Forced                                   : No

Audio #2
ID                                       : 3
Format                                   : PCM
Format settings                          : Little / Signed
Codec ID                                 : A_PCM/INT/LIT
Duration                                 : 1 h 22 min
Bit rate mode                            : Constant
Bit rate                                 : 1 536 kb/s
Channel(s)                               : 2 channels
Sampling rate                            : 48.0 kHz
Frame rate                               : 30.000 FPS (1600 SPF)
Bit depth                                : 16 bits
Stream size                              : 904 MiB (23%)
Title                                    : Stereo
Language                                 : Japanese
Default                                  : No
Forced                                   : No

Text
ID                                       : 4
Format                                   : UTF-8
Codec ID                                 : S_TEXT/UTF8
Codec ID/Info                            : UTF-8 Plain Text
Duration                                 : 1 h 19 min
Bit rate                                 : 44 b/s
Count of elements                        : 712
Stream size                              : 25.9 KiB (0%)
Language                                 : English
Default                                  : No
Forced                                   : No

Menu
00:00:00.000                             : ja:Chapter 01
00:02:39.492                             : ja:Chapter 02
00:06:39.482                             : ja:Chapter 03
00:11:34.485                             : ja:Chapter 04
00:16:27.277                             : ja:Chapter 05
00:21:24.741                             : ja:Chapter 06
00:26:40.223                             : ja:Chapter 07
00:32:03.046                             : ja:Chapter 08
00:35:24.956                             : ja:Chapter 09
00:39:59.188                             : ja:Chapter 10
00:45:27.349                             : ja:Chapter 11
00:49:12.950                             : ja:Chapter 12
00:55:01.965                             : ja:Chapter 13
00:59:42.829                             : ja:Chapter 14
01:03:58.709                             : ja:Chapter 15
01:07:07.356                             : ja:Chapter 16
01:10:23.844                             : ja:Chapter 17
01:19:20.505                             : ja:Chapter 18


Source Information

Unique ID                                : 195294965521717501688397945908515075263 (0x92EC713495C8B3FA0E185CEFE5BC74BF)
Complete name                            : Wicked City (1987) 1080p BluRay REMUX AVC LPCM 2.0 Dual Audio-ZR-.mkv
Format                                   : Matroska
Format version                           : Version 2
File size                                : 17.0 GiB
Duration                                 : 1 h 22 min
Overall bit rate mode                    : Variable
Overall bit rate                         : 29.7 Mb/s
Encoded date                             : UTC 2019-01-26 20:01:55
Writing application                      : MakeMKV v1.12.0 win(x64-release)
Writing library                          : libmakemkv v1.12.0 (1.3.5/1.4.7) win(x64-release)

Video
ID                                       : 1
ID in the original source medium         : 4113 (0x1011)
Format                                   : AVC
Format/Info                              : Advanced Video Codec
Format profile                           : [email protected]
Format settings                          : CABAC / 4 Ref Frames
Format settings, CABAC                   : Yes
Format settings, RefFrames               : 4 frames
Codec ID                                 : V_MPEG4/ISO/AVC
Duration                                 : 1 h 22 min
Bit rate mode                            : Variable
Bit rate                                 : 24.2 Mb/s
Maximum bit rate                         : 39.0 Mb/s
Width                                    : 1 920 pixels
Height                                   : 1 080 pixels
Display aspect ratio                     : 16:9
Frame rate mode                          : Constant
Frame rate                               : 23.976 (24000/1001) FPS
Color space                              : YUV
Chroma subsampling                       : 4:2:0
Bit depth                                : 8 bits
Scan type                                : Progressive
Bits/(Pixel*Frame)                       : 0.486
Stream size                              : 13.9 GiB (81%)
Language                                 : English
Default                                  : No
Forced                                   : No
Original source medium                   : Blu-ray

Audio #1
ID                                       : 2
ID in the original source medium         : 4352 (0x1100)
Format                                   : PCM
Format settings                          : Little / Signed
Codec ID                                 : A_PCM/INT/LIT
Duration                                 : 1 h 22 min
Bit rate mode                            : Constant
Bit rate                                 : 1 536 kb/s
Channel(s)                               : 2 channels
Sampling rate                            : 48.0 kHz
Frame rate                               : 30.000 FPS (1600 SPF)
Bit depth                                : 16 bits
Stream size                              : 904 MiB (5%)
Title                                    : Stereo
Language                                 : Japanese
Default                                  : Yes
Forced                                   : No
Original source medium                   : Blu-ray

Audio #2
ID                                       : 3
ID in the original source medium         : 4353 (0x1101)
Format                                   : PCM
Format settings                          : Little / Signed
Codec ID                                 : A_PCM/INT/LIT
Duration                                 : 1 h 22 min
Bit rate mode                            : Constant
Bit rate                                 : 1 536 kb/s
Channel(s)                               : 2 channels
Sampling rate                            : 48.0 kHz
Frame rate                               : 30.000 FPS (1600 SPF)
Bit depth                                : 16 bits
Stream size                              : 904 MiB (5%)
Title                                    : Stereo
Language                                 : English
Default                                  : No
Forced                                   : No
Original source medium                   : Blu-ray

Audio #3
ID                                       : 4
ID in the original source medium         : 4354 (0x1102)
Format                                   : DTS XLL
Format/Info                              : Digital Theater Systems
Commercial name                          : DTS-HD Master Audio
Codec ID                                 : A_DTS
Duration                                 : 1 h 22 min
Bit rate mode                            : Variable
Bit rate                                 : 2 419 kb/s
Channel(s)                               : 6 channels
Channel layout                           : C L R Ls Rs LFE
Sampling rate                            : 48.0 kHz
Frame rate                               : 93.750 FPS (512 SPF)
Bit depth                                : 16 bits
Compression mode                         : Lossless
Stream size                              : 1.39 GiB (8%)
Title                                    : Surround 5.1
Language                                 : English
Default                                  : No
Forced                                   : No
Original source medium                   : Blu-ray

Menu
00:00:00.000                             : ja:Chapter 01
00:02:39.492                             : ja:Chapter 02
00:06:39.482                             : ja:Chapter 03
00:11:34.485                             : ja:Chapter 04
00:16:27.277                             : ja:Chapter 05
00:21:24.741                             : ja:Chapter 06
00:26:40.223                             : ja:Chapter 07
00:32:03.046                             : ja:Chapter 08
00:35:24.956                             : ja:Chapter 09
00:39:59.188                             : ja:Chapter 10
00:45:27.349                             : ja:Chapter 11
00:49:12.950                             : ja:Chapter 12
00:55:01.965                             : ja:Chapter 13
00:59:42.829                             : ja:Chapter 14
01:03:58.709                             : ja:Chapter 15
01:07:07.356                             : ja:Chapter 16
01:10:23.844                             : ja:Chapter 17
01:19:20.505                             : ja:Chapter 18


.........................................................................................................................................

We have no issue with individuals posting or re-uploading our torrents on a platform we aren't on. However, if this is something you'd like to do, please do so in a 'as-is' format. We ask that you do not create a new torrent, include all descriptions you see above including the SEV logo, tags, notes and screenshots. If you'd like to become a permanent poster on a website we don't post to, feel free to get in contact with a Sublime Encoded Video member.


We are recruiting/training new members for SEV & seedbox providers as well as people to help out with subtitles.
As you already know, we deliver quality, so you know the standard.
If you're interested, feel free to contact any of the team members.
Category:Anime > Dubbed/Subbed
Lang:English  English
Total Size:3.76 GB
Info Hash:93d9dfd1067449d570a159b03e72a1eec3780b0c
Added By:Goki
Date Added:13-05-2019 14:45:42

Files

File List: 
 File Size
Wicked City (1987) 1080p BDRip x265 DTS-HD MA 5.1 Goki [SEV]-clearlogo.png75.13 kB
Wicked City (1987) 1080p BDRip x265 DTS-HD MA 5.1 Goki [SEV]-disc.png1 MB
Wicked City (1987) 1080p BDRip x265 DTS-HD MA 5.1 Goki [SEV]-fanart.jpg137.22 kB
Wicked City (1987) 1080p BDRip x265 DTS-HD MA 5.1 Goki [SEV]-logo.png75.13 kB
Wicked City (1987) 1080p BDRip x265 DTS-HD MA 5.1 Goki [SEV]-poster.jpg94.40 kB
Wicked City (1987) 1080p BDRip x265 DTS-HD MA 5.1 Goki [SEV].mkv3.76 GB
Wicked City (1987) 1080p BDRip x265 DTS-HD MA 5.1 Goki [SEV].nfo4.84 kB



Loading...
Comments

There are currently no comments. Be the first one to write something !