2.0 (2018) toy story 4 peaky blinders s05e05 men in black international 2019 萝莉 big bang theory español dark phoenix 2019 ready or not 2019 ethd Last Week Tonight anal fast furious presents hobbs shaw 2019 the lion king 2019 ddr proper kabir singh ettv scary stories to tell in the dark 2019 Anna  spider man far from home 2019 ballers anna 2019 avengers endgame 2019 godzilla king of the monsters 2019 0 it chapter two 2019 Titans s02e02 angel has fallen 2019 joker 2019 HINDI it 2017 47 meters down uncaged 2019 ad astra 2019 spiderman Succession love hip hop hollywood s06e07 wwe yesterday 2019 preacher toy story 4 2019 Fear The Walking Dead once upon a time in hollywood 2019 hustlers 2019 the deuce etmovies Survivor power s06e03 幼女 preacher s04e08 xxx etrg good boys 2019 aladdin 2019 ballers s05e04 far from home john wick chapter 3 – parabellum 2019 titans spider man far from home spiderman far from home power s06e04 yts fear the walking dead s05e14 evo ma 2019 peaky blinders childs play 2019 the secret life of pets 2 2019 dream girl  Crawl 2019 
Warning! Use a VPN When Downloading Torrents!
Your IP Address is 3.93.75.30. Location is United States
Your Internet Provider is tracking your torrent activity! Hide your IP ADDRESS with a VPN!
We strongly recommend using ExpressVPN to anonymize your torrenting. 30 Day Money Back Guarantee!
Try it Now!
ETTV Recommended TV Shows
Mayans.M.C.S02E03.WEB.H264-iNSiDiOUS[ettv] torrent
Bachelor.In.Paradise.S06E13.WEB.x264-TBS[ettv] torrent
Mr.Mercedes.S03E02.Madness.720p.AMZN.WEB-DL.DDP5.1.H.264-NTb[ettv] torrent
WWE SmackDown Live 2019 09 17 HDTV x264-NWCHD [TJET] torrent

ETTV Recommended SD
Mayday.2019.HDRip.XviD.AC3-EVO[EtMovies] torrent
Annabelle Comes Home.2019.HDRip.XViD-ETRG torrent
Rogue.Cell.2019.HDRip.XviD.AC3-EVO torrent
Spider-Man Far from Home.2019.BRRip.XviD.AC3-EVO[EtMovies] torrent

ETTV Recommended HD
A.Score.to.Settle.2019.1080p.BluRay.x264-ROVERS[EtHD] torrent
Annabelle Comes Home.2019.1080p.WEB-DL.H264.AC3-EVO[EtHD] torrent
Live.By.Night.2016.BDRip.1080p.x264.Multilang.TrueHD.DTS.DD5.1.Gerald torrent
Spider-Man.Far.from.Home.2019.1080p.BluRay.x264-SPARKS[EtHD] torrent

ETTV Recommended UHD
Power Rangers 2017.MULTi.UHD.Blu-ray.2160p.HDR.Atmos.7.1.HEVC-DDR torrent
Smurfs - The Lost Village 2017.MULTi.UHD.Blu-ray.2160p.HDR.Atmos.7.1.HEVC-DDR torrent
Resident Evil Vendetta 2017.MULTi.UHD.Blu-ray.2160p.HDR.Atmos.7.1.HEVC-DDR torrent
Rough Night.2017.MULTi.UHD.Blu-ray.2160p.HDR.Atmos.7.1.HEVC-DDR torrent

ETTV Recommended Cam
Ready or Not 2019 HDCAM x264 AC3-ETRG torrent
It Chapter Two 2019.HDCAM.x264.AC3-ETRG torrent
Downton Abbey 2019 720p HDCAM-GETB8 torrent
Hustlers 2019 HDCAM x264 AC3-ETRG torrent

ETTV Recommended Foreign
U Turn (2018) 720p UNCUT HDRip x264 Eng Subs [Dual Audio] [Hindi DD 2.0 - Telugu 5.1] Exclusive By -=!Dr.STAR!=- torrent
The Golden Glove (2019) HDRip 720p [Hindi-Dub] x264 - KatmovieHD torrent
Dream Girl 2019 Hindi 720p Pre-DVD Rip x264 AAC { TaRa }.mkv torrent
Jin-Roh.The.Wolf.Brigade.1999.BDRip 1080p Ita Jap x265-NAHOM torrent


Download Torrent "Thor Ragnarok (2017) (2160p BluRay x265 HEVC 10bit AAC 7.1 Joy) [UTR]"

IMDB Details
Description:

N/A

Genre:

N/A

Download Torrent (Magnet)
Download Torrent (File)
Seeds: 479
Leechers: 215
Completed: 3,189 
Last Checked: 06-06-2019 17:23:21


Loading...
Details
Title:Thor Ragnarok (2017) (2160p BluRay x265 HEVC 10bit AAC 7.1 Joy) [UTR]
Description:



Media Information
General
Format                                   : Matroska
Format version                           : Version 4 / Version 2
File size                                : 6.19 GiB
Duration                                 : 2 h 10 min
Overall bit rate                         : 6 781 kb/s
Movie name                               : Thor Ragnarok 2017  (2160p x265 10bit S85 Joy)[UTR]
Encoded date                             : UTC 2018-04-05 15:38:52
Writing application                      : mkvmerge v21.0.0 ('Tardigrades Will Inherit The Earth') 64-bit
Writing library                          : libebml v1.3.5 + libmatroska v1.4.8
Cover                                    : Yes
Attachments                              : cover.jpg
Writing frontend                         : StaxRip v1.7.0.6

Video
ID                                       : 1
Format                                   : HEVC
Format/Info                              : High Efficiency Video Coding
Format profile                           : Main [email protected]@Main
Codec ID                                 : V_MPEGH/ISO/HEVC
Duration                                 : 2 h 10 min
Bit rate                                 : 6 001 kb/s
Width                                    : 3 840 pixels
Height                                   : 1 600 pixels
Display aspect ratio                     : 2.40:1
Frame rate mode                          : Constant
Frame rate                               : 23.976 (24000/1001) FPS
Color space                              : YUV
Chroma subsampling                       : 4:2:0
Bit depth                                : 10 bits
Bits/(Pixel*Frame)                       : 0.041
Stream size                              : 5.47 GiB (88%)
Writing library                          : x265 2.7+2-22c127ff05d5:[Windows][MSVC 1900][64 bit] 10bit
Encoding settings                        : cpuid=1173503 / frame-threads=3 / numa-pools=8 / wpp / no-pmode / no-pme / no-psnr / ssim / log-level=2 / input-csp=1 / input-res=3840x1600 / interlace=0 / total-frames=187749 / level-idc=0 / high-tier=1 / uhd-bd=0 / ref=3 / no-allow-non-conformance / no-repeat-headers / annexb / no-aud / no-hrd / info / hash=0 / no-temporal-layers / open-gop / min-keyint=23 / keyint=250 / gop-lookahead=0 / bframes=4 / b-adapt=2 / b-pyramid / bframe-bias=0 / rc-lookahead=20 / lookahead-slices=8 / scenecut=40 / radl=0 / no-intra-refresh / ctu=64 / min-cu-size=8 / no-rect / no-amp / max-tu-size=32 / tu-inter-depth=1 / tu-intra-depth=1 / limit-tu=0 / rdoq-level=1 / dynamic-rd=0.00 / ssim-rd / signhide / no-tskip / nr-intra=0 / nr-inter=0 / no-constrained-intra / strong-intra-smoothing / max-merge=2 / limit-refs=3 / no-limit-modes / me=1 / subme=2 / merange=57 / temporal-mvp / weightp / weightb / no-analyze-src-pics / deblock=0:0 / sao / sao-non-deblock / rd=5 / no-early-skip / rskip / no-fast-intra / no-tskip-fast / no-cu-lossless / no-b-intra / no-splitrd-skip / rdpenalty=0 / psy-rd=5.00 / psy-rdoq=0.00 / no-rd-refine / no-lossless / cbqpoffs=0 / crqpoffs=0 / rc=abr / bitrate=6000 / qcomp=0.60 / qpstep=4 / stats-write=0 / stats-read=2 / cplxblur=20.0 / qblur=0.5 / ipratio=1.40 / pbratio=1.30 / aq-mode=3 / aq-strength=1.00 / cutree / zone-count=0 / no-strict-cbr / qg-size=32 / no-rc-grain / qpmax=69 / qpmin=0 / no-const-vbv / sar=0 / overscan=0 / videoformat=5 / range=0 / colorprim=2 / transfer=2 / colormatrix=2 / chromaloc=0 / display-window=0 / max-cll=0,0 / min-luma=0 / max-luma=1023 / log2-max-poc-lsb=8 / vui-timing-info / vui-hrd-info / slices=1 / no-opt-qp-pps / no-opt-ref-list-length-pps / multi-pass-opt-rps / scenecut-bias=0.05 / no-opt-cu-delta-qp / no-aq-motion / no-hdr / no-hdr-opt / no-dhdr10-opt / analysis-reuse-level=5 / scale-factor=0 / refine-intra=0 / refine-inter=0 / refine-mv=0 / limit-sao / ctu-info=0 / no-lowpass-dct / refine-mv-type=0 / copy-pic=1
Default                                  : Yes
Forced                                   : No

Audio #1
ID                                       : 2
Format                                   : AAC
Format/Info                              : Advanced Audio Codec
Format profile                           : LC
Codec ID                                 : A_AAC
Duration                                 : 2 h 10 min
Bit rate                                 : 515 kb/s
Channel(s)                               : 7 channels
Channel(s)_Original                      : 8 channels
Channel positions                        : Front: L C R, Side: L R, Back: L R, LFE
Sampling rate                            : 48.0 kHz
Frame rate                               : 46.875 FPS (1024 spf)
Compression mode                         : Lossy
Delay relative to video                  : 9 ms
Stream size                              : 481 MiB (8%)
Language                                 : English
Default                                  : No
Forced                                   : No

Audio #2
ID                                       : 3
Format                                   : AAC
Format/Info                              : Advanced Audio Codec
Format profile                           : LC
Codec ID                                 : A_AAC
Duration                                 : 2 h 10 min
Bit rate                                 : 88.4 kb/s
Channel(s)                               : 2 channels
Channel positions                        : Front: L R
Sampling rate                            : 48.0 kHz
Frame rate                               : 46.875 FPS (1024 spf)
Compression mode                         : Lossy
Delay relative to video                  : 9 ms
Stream size                              : 82.5 MiB (1%)
Language                                 : Spanish
Default                                  : No
Forced                                   : No

Audio #3
ID                                       : 4
Format                                   : AAC
Format/Info                              : Advanced Audio Codec
Format profile                           : LC
Codec ID                                 : A_AAC
Duration                                 : 2 h 10 min
Bit rate                                 : 86.4 kb/s
Channel(s)                               : 2 channels
Channel positions                        : Front: L R
Sampling rate                            : 48.0 kHz
Frame rate                               : 46.875 FPS (1024 spf)
Compression mode                         : Lossy
Delay relative to video                  : 9 ms
Stream size                              : 80.7 MiB (1%)
Language                                 : French
Default                                  : No
Forced                                   : No

Audio #4
ID                                       : 18
Format                                   : AAC
Format/Info                              : Advanced Audio Codec
Format profile                           : HE-AAC / LC
Codec ID                                 : A_AAC
Duration                                 : 2 h 10 min
Bit rate                                 : 48.0 kb/s
Channel(s)                               : 2 channels
Channel positions                        : Front: L R
Sampling rate                            : 48.0 kHz / 24.0 kHz
Frame rate                               : 23.438 FPS (1024 spf)
Compression mode                         : Lossy
Delay relative to video                  : 31 ms
Stream size                              : 43.5 MiB (1%)
Title                                    : Commentary by Director Taika Waititi
Language                                 : English
Default                                  : No
Forced                                   : No

Subtitle #1
ID                                       : 5
Format                                   : PGS
Muxing mode                              : zlib
Codec ID                                 : S_HDMV/PGS
Codec ID/Info                            : Picture based subtitle format used on BDs/HD-DVDs
Duration                                 : 2 h 10 min
Bit rate                                 : 37.9 kb/s
Count of elements                        : 4164
Stream size                              : 35.3 MiB (1%)
Language                                 : English
Default                                  : No
Forced                                   : No

Subtitle #2
ID                                       : 6
Format                                   : VobSub
Muxing mode                              : zlib
Codec ID                                 : S_VOBSUB
Codec ID/Info                            : Picture based subtitle format used on DVDs
Duration                                 : 2 h 9 min
Bit rate                                 : 8 296 b/s
Count of elements                        : 1592
Stream size                              : 7.68 MiB (0%)
Language                                 : French
Default                                  : No
Forced                                   : No

Subtitle #3
ID                                       : 7
Format                                   : VobSub
Muxing mode                              : zlib
Codec ID                                 : S_VOBSUB
Codec ID/Info                            : Picture based subtitle format used on DVDs
Duration                                 : 2 h 9 min
Bit rate                                 : 8 474 b/s
Count of elements                        : 1572
Stream size                              : 7.85 MiB (0%)
Language                                 : Spanish
Default                                  : No
Forced                                   : No

Subtitle #4
ID                                       : 8
Format                                   : VobSub
Muxing mode                              : zlib
Codec ID                                 : S_VOBSUB
Codec ID/Info                            : Picture based subtitle format used on DVDs
Duration                                 : 2 h 9 min
Bit rate                                 : 4 542 b/s
Count of elements                        : 1569
Stream size                              : 4.21 MiB (0%)
Language                                 : Chinese
Default                                  : No
Forced                                   : No

Subtitle #5
ID                                       : 9
Format                                   : VobSub
Muxing mode                              : zlib
Codec ID                                 : S_VOBSUB
Codec ID/Info                            : Picture based subtitle format used on DVDs
Duration                                 : 2 h 9 min
Bit rate                                 : 7 074 b/s
Count of elements                        : 1564
Stream size                              : 6.55 MiB (0%)
Language                                 : French
Default                                  : No
Forced                                   : No

Subtitle #6
ID                                       : 10
Format                                   : VobSub
Muxing mode                              : zlib
Codec ID                                 : S_VOBSUB
Codec ID/Info                            : Picture based subtitle format used on DVDs
Duration                                 : 2 h 9 min
Bit rate                                 : 9 183 b/s
Count of elements                        : 1567
Stream size                              : 8.51 MiB (0%)
Language                                 : German
Default                                  : No
Forced                                   : No

Subtitle #7
ID                                       : 11
Format                                   : VobSub
Muxing mode                              : zlib
Codec ID                                 : S_VOBSUB
Codec ID/Info                            : Picture based subtitle format used on DVDs
Duration                                 : 2 h 9 min
Bit rate                                 : 5 548 b/s
Count of elements                        : 1479
Stream size                              : 5.14 MiB (0%)
Language                                 : Japanese
Default                                  : No
Forced                                   : No

Subtitle #8
ID                                       : 12
Format                                   : VobSub
Muxing mode                              : zlib
Codec ID                                 : S_VOBSUB
Codec ID/Info                            : Picture based subtitle format used on DVDs
Duration                                 : 2 h 9 min
Bit rate                                 : 4 970 b/s
Count of elements                        : 1556
Stream size                              : 4.60 MiB (0%)
Language                                 : Korean
Default                                  : No
Forced                                   : No

Subtitle #9
ID                                       : 13
Format                                   : VobSub
Muxing mode                              : zlib
Codec ID                                 : S_VOBSUB
Codec ID/Info                            : Picture based subtitle format used on DVDs
Duration                                 : 2 h 9 min
Bit rate                                 : 5 243 b/s
Count of elements                        : 1623
Stream size                              : 4.86 MiB (0%)
Language                                 : Chinese
Default                                  : No
Forced                                   : No

Subtitle #10
ID                                       : 14
Format                                   : VobSub
Muxing mode                              : zlib
Codec ID                                 : S_VOBSUB
Codec ID/Info                            : Picture based subtitle format used on DVDs
Duration                                 : 2 h 10 min
Bit rate                                 : 75 b/s
Count of elements                        : 24
Stream size                              : 72.2 KiB (0%)
Language                                 : French
Default                                  : No
Forced                                   : No

Subtitle #11
ID                                       : 15
Format                                   : VobSub
Muxing mode                              : zlib
Codec ID                                 : S_VOBSUB
Codec ID/Info                            : Picture based subtitle format used on DVDs
Duration                                 : 2 h 10 min
Bit rate                                 : 18 b/s
Count of elements                        : 6
Stream size                              : 18.0 KiB (0%)
Language                                 : Spanish
Default                                  : No
Forced                                   : No

Subtitle #12
ID                                       : 16
Format                                   : VobSub
Muxing mode                              : zlib
Codec ID                                 : S_VOBSUB
Codec ID/Info                            : Picture based subtitle format used on DVDs
Duration                                 : 2 h 10 min
Bit rate                                 : 11 b/s
Count of elements                        : 5
Stream size                              : 10.9 KiB (0%)
Language                                 : French
Default                                  : No
Forced                                   : No

Subtitle #13
ID                                       : 17
Format                                   : VobSub
Muxing mode                              : zlib
Codec ID                                 : S_VOBSUB
Codec ID/Info                            : Picture based subtitle format used on DVDs
Duration                                 : 2 h 10 min
Bit rate                                 : 10 b/s
Count of elements                        : 5
Stream size                              : 9.78 KiB (0%)
Language                                 : Japanese
Default                                  : No
Forced                                   : No

Subtitle #14
ID                                       : 19
Format                                   : UTF-8
Codec ID                                 : S_TEXT/UTF8
Codec ID/Info                            : UTF-8 Plain Text
Duration                                 : 2 h 10 min
Bit rate                                 : 69 b/s
Count of elements                        : 1254
Stream size                              : 66.2 KiB (0%)
Language                                 : Arabic
Default                                  : No
Forced                                   : No

Subtitle #15
ID                                       : 20
Format                                   : UTF-8
Codec ID                                 : S_TEXT/UTF8
Codec ID/Info                            : UTF-8 Plain Text
Duration                                 : 2 h 9 min
Bit rate                                 : 43 b/s
Count of elements                        : 1121
Stream size                              : 41.0 KiB (0%)
Language                                 : Danish
Default                                  : No
Forced                                   : No

Subtitle #16
ID                                       : 21
Format                                   : UTF-8
Codec ID                                 : S_TEXT/UTF8
Codec ID/Info                            : UTF-8 Plain Text
Duration                                 : 2 h 9 min
Bit rate                                 : 45 b/s
Count of elements                        : 967
Stream size                              : 42.9 KiB (0%)
Language                                 : Dutch
Default                                  : No
Forced                                   : No

Subtitle #17
ID                                       : 22
Format                                   : UTF-8
Codec ID                                 : S_TEXT/UTF8
Codec ID/Info                            : UTF-8 Plain Text
Duration                                 : 2 h 10 min
Bit rate                                 : 83 b/s
Count of elements                        : 1576
Stream size                              : 79.8 KiB (0%)
Language                                 : Persian
Default                                  : No
Forced                                   : No

Subtitle #18
ID                                       : 23
Format                                   : UTF-8
Codec ID                                 : S_TEXT/UTF8
Codec ID/Info                            : UTF-8 Plain Text
Duration                                 : 2 h 9 min
Bit rate                                 : 46 b/s
Count of elements                        : 1567
Stream size                              : 44.5 KiB (0%)
Language                                 : Finnish
Default                                  : No
Forced                                   : No

Subtitle #19
ID                                       : 24
Format                                   : UTF-8
Codec ID                                 : S_TEXT/UTF8
Codec ID/Info                            : UTF-8 Plain Text
Duration                                 : 2 h 9 min
Bit rate                                 : 52 b/s
Count of elements                        : 1564
Stream size                              : 49.7 KiB (0%)
Language                                 : German
Default                                  : No
Forced                                   : No

Subtitle #20
ID                                       : 25
Format                                   : UTF-8
Codec ID                                 : S_TEXT/UTF8
Codec ID/Info                            : UTF-8 Plain Text
Duration                                 : 2 h 3 min
Bit rate                                 : 93 b/s
Count of elements                        : 1382
Stream size                              : 84.3 KiB (0%)
Language                                 : Greek
Default                                  : No
Forced                                   : No

Subtitle #21
ID                                       : 26
Format                                   : UTF-8
Codec ID                                 : S_TEXT/UTF8
Codec ID/Info                            : UTF-8 Plain Text
Duration                                 : 2 h 9 min
Bit rate                                 : 69 b/s
Count of elements                        : 1570
Stream size                              : 65.8 KiB (0%)
Language                                 : Hebrew
Default                                  : No
Forced                                   : No

Subtitle #22
ID                                       : 27
Format                                   : UTF-8
Codec ID                                 : S_TEXT/UTF8
Codec ID/Info                            : UTF-8 Plain Text
Duration                                 : 2 h 10 min
Bit rate                                 : 103 b/s
Count of elements                        : 1764
Stream size                              : 99.2 KiB (0%)
Language                                 : Malay
Default                                  : No
Forced                                   : No

Subtitle #23
ID                                       : 28
Format                                   : UTF-8
Codec ID                                 : S_TEXT/UTF8
Codec ID/Info                            : UTF-8 Plain Text
Duration                                 : 2 h 9 min
Bit rate                                 : 44 b/s
Count of elements                        : 1566
Stream size                              : 41.8 KiB (0%)
Language                                 : Norwegian
Default                                  : No
Forced                                   : No

Subtitle #24
ID                                       : 29
Format                                   : UTF-8
Codec ID                                 : S_TEXT/UTF8
Codec ID/Info                            : UTF-8 Plain Text
Duration                                 : 2 h 9 min
Bit rate                                 : 47 b/s
Count of elements                        : 1409
Stream size                              : 45.2 KiB (0%)
Language                                 : Portuguese
Default                                  : No
Forced                                   : No

Subtitle #25
ID                                       : 30
Format                                   : UTF-8
Codec ID                                 : S_TEXT/UTF8
Codec ID/Info                            : UTF-8 Plain Text
Duration                                 : 2 h 9 min
Bit rate                                 : 43 b/s
Count of elements                        : 1056
Stream size                              : 41.2 KiB (0%)
Language                                 : Swedish
Default                                  : No
Forced                                   : No

Subtitle #26
ID                                       : 31
Format                                   : UTF-8
Codec ID                                 : S_TEXT/UTF8
Codec ID/Info                            : UTF-8 Plain Text
Duration                                 : 2 h 10 min
Bit rate                                 : 102 b/s
Count of elements                        : 1571
Stream size                              : 98.0 KiB (0%)
Language                                 : Thai
Default                                  : No
Forced                                   : No

Subtitle #27
ID                                       : 32
Format                                   : UTF-8
Codec ID                                 : S_TEXT/UTF8
Codec ID/Info                            : UTF-8 Plain Text
Duration                                 : 2 h 9 min
Bit rate                                 : 51 b/s
Count of elements                        : 1360
Stream size                              : 49.1 KiB (0%)
Language                                 : Turkish
Default                                  : No
Forced                                   : No

Menu
00:00:00.000                             : en:Chapter 01
00:06:20.671                             : en:Chapter 02
00:14:11.642                             : en:Chapter 03
00:22:12.706                             : en:Chapter 04
00:26:43.059                             : en:Chapter 05
00:31:29.721                             : en:Chapter 06
00:35:03.684                             : en:Chapter 07
00:42:49.567                             : en:Chapter 08
00:48:31.533                             : en:Chapter 09
00:59:38.783                             : en:Chapter 10
01:07:57.531                             : en:Chapter 11
01:17:30.604                             : en:Chapter 12
01:27:25.240                             : en:Chapter 13
01:36:08.429                             : en:Chapter 14
01:42:35.566                             : en:Chapter 15
01:49:19.511                             : en:Chapter 16
01:54:57.223                             : en:Chapter 17
02:00:37.521                             : en:Chapter 18

Source Information
Release: Thor.Ragnarok.2017.2160p.BluRay.x265.10bit.SDR.DTS-HD.MA.TrueHD.7.1.Atmos-SWTYBLZ [36.4 GB]


Note From UTR
We have no issue with individuals posting or re-uploading our torrents on a platform we aren't on. However, if this is something you'd like to do, please do so in a 'as-is' format. We ask that you do not create a new torrent, include all descriptions you see above including the UTR logo, tags, notes and screenshots. If you'd like to become a permanent poster on a website we don't post to, feel free to get in contact with a UniTeam member.

If possible please donate: BTC 1QA5fum5AyXvWzdVCkQzUNvw3Ef15fHRaR



Category:Movies > HEVC/x265
Lang:English  English
Total Size:6.19 GB
Info Hash:d733a170b07994220a3d0885f35dc99a9d412fae
Added By:UTR
Date Added:06-06-2019 17:23:17

  

Files

File List: 
 File Size
Thor Ragnarok 2017 (2160p x265 10bit S85 Joy).mkv6.19 GB



Loading...
Comments

There are currently no comments. Be the first one to write something !