2.0 (2018) toy story 4 peaky blinders s05e05 men in black international 2019 萝莉 big bang theory español dark phoenix 2019 ready or not 2019 ethd Last Week Tonight anal fast furious presents hobbs shaw 2019 the lion king 2019 ddr proper kabir singh ettv scary stories to tell in the dark 2019 Anna  spider man far from home 2019 ballers anna 2019 avengers endgame 2019 godzilla king of the monsters 2019 0 it chapter two 2019 Titans s02e02 angel has fallen 2019 joker 2019 HINDI it 2017 47 meters down uncaged 2019 ad astra 2019 spiderman Succession love hip hop hollywood s06e07 wwe yesterday 2019 preacher toy story 4 2019 Fear The Walking Dead once upon a time in hollywood 2019 hustlers 2019 the deuce etmovies Survivor power s06e03 幼女 preacher s04e08 xxx etrg good boys 2019 aladdin 2019 ballers s05e04 far from home john wick chapter 3 – parabellum 2019 titans spider man far from home spiderman far from home power s06e04 yts fear the walking dead s05e14 evo ma 2019 peaky blinders childs play 2019 the secret life of pets 2 2019 dream girl  Crawl 2019 
Warning! Use a VPN When Downloading Torrents!
Your IP Address is 18.204.2.53. Location is United States
Your Internet Provider is tracking your torrent activity! Hide your IP ADDRESS with a VPN!
We strongly recommend using ExpressVPN to anonymize your torrenting. 30 Day Money Back Guarantee!
Try it Now!
ETTV Recommended TV Shows
Mayans.M.C.S02E03.WEB.H264-iNSiDiOUS[ettv] torrent
Bachelor.In.Paradise.S06E13.WEB.x264-TBS[ettv] torrent
Mr.Mercedes.S03E02.Madness.720p.AMZN.WEB-DL.DDP5.1.H.264-NTb[ettv] torrent
WWE SmackDown Live 2019 09 17 HDTV x264-NWCHD [TJET] torrent

ETTV Recommended SD
Mayday.2019.HDRip.XviD.AC3-EVO[EtMovies] torrent
Annabelle Comes Home.2019.HDRip.XViD-ETRG torrent
Rogue.Cell.2019.HDRip.XviD.AC3-EVO torrent
Spider-Man.Far.from.Home.2019.BRRip.XViD.AC3-ETRG torrent

ETTV Recommended HD
A.Score.to.Settle.2019.1080p.BluRay.x264-ROVERS[EtHD] torrent
Annabelle Comes Home.2019.1080p.WEB-DL.H264.AC3-EVO[EtHD] torrent
Live.By.Night.2016.BDRip.1080p.x264.Multilang.TrueHD.DTS.DD5.1.Gerald torrent
Spider-Man.Far.from.Home.2019.1080p.BluRay.x264-SPARKS[EtHD] torrent

ETTV Recommended UHD
Power Rangers 2017.MULTi.UHD.Blu-ray.2160p.HDR.Atmos.7.1.HEVC-DDR torrent
Smurfs - The Lost Village 2017.MULTi.UHD.Blu-ray.2160p.HDR.Atmos.7.1.HEVC-DDR torrent
Resident Evil Vendetta 2017.MULTi.UHD.Blu-ray.2160p.HDR.Atmos.7.1.HEVC-DDR torrent
Rough Night.2017.MULTi.UHD.Blu-ray.2160p.HDR.Atmos.7.1.HEVC-DDR torrent

ETTV Recommended Cam
It Chapter Two 2019.HDCAM.x264.AC3-ETRG torrent
Downton Abbey 2019 720p HDCAM-GETB8 torrent
Hustlers 2019 HDCAM x264 AC3-ETRG torrent
Rambo Last Blood 2019 HDCAM x264 AC3-ETRG torrent

ETTV Recommended Foreign
Dream Girl 2019 Hindi 720p Pre-DVD Rip x264 AAC { TaRa }.mkv torrent
Jin-Roh.The.Wolf.Brigade.1999.BDRip 1080p Ita Jap x265-NAHOM torrent
Back Street Girls Gokudols The Movie 2019 720p BluRay x264 Ganool torrent
Kabir.Singh.2019.Hindi.HDRip..x264.AC3-ETRG torrent


Download Torrent "John Wick Chapter 2 2017 x264 720p Esub BluRay 6.0 Dual Audio English Hindi..."

IMDB Details
Description:

After returning to the criminal underworld to repay a debt, John Wick discovers that a large bounty has been put on his life.

Genre:

Action, Crime, Thriller

Download Torrent (Magnet)
Download Torrent (File)
Seeds: 517
Leechers: 497
Completed: 2,024 
Last Checked: 12-06-2019 15:08:23


Loading...
Details
Title:John Wick Chapter 2 2017 x264 720p Esub BluRay 6.0 Dual Audio English Hindi...
Description:
https://www.gopisahi.xyz/



John Wick Chapter 2 2017 x264 720p Esub BluRay 6.0 Dual Audio English Hindi GOPISAHI

Format                         : Matroska
Format version                 : Version 4
File size                      : 1.11 GiB
Duration                       : 2 h 2 min
Overall bit rate               : 1 294 kb/s
Movie name                     : John Wick: Chapter 2 2017 GOPISAHI

Video
Format                         : AVC
Format/Info                    : Advanced Video Codec
Format profile                 : [email protected]
Format settings                : CABAC / 16 Ref Frames
Format settings, CABAC         : Yes
Format settings, Reference fra : 16 frames
Codec ID                       : V_MPEG4/ISO/AVC
Duration                       : 2 h 2 min
Bit rate                       : 899 kb/s
Width                          : 1 280 pixels
Height                         : 544 pixels
Display aspect ratio           : 2.35:1
Frame rate mode                : Constant
Frame rate                     : 23.976 (24000/1001) FPS
Color space                    : YUV
Chroma subsampling             : 4:2:0
Bit depth                      : 8 bits
Scan type                      : Progressive
Bits/(Pixel*Frame)             : 0.054
Stream size                    : 787 MiB (69%)
Title                          : GOPISAHI
Writing library                : x264 

Audio #1
Format                         : AAC LC
Codec ID                       : A_AAC-2
Duration                       : 2 h 2 min
Bit rate                       : 192 kb/s
Channel(s)                     : 6 channels
Channel layout                 : L R C Cb Lb Rb
Sampling rate                  : 48.0 kHz
Frame rate                     : 46.875 FPS (1024 SPF)
Compression mode               : Lossy
Delay relative to video        : -21 ms
Stream size                    : 169 MiB (15%)
Title                          : GOPISAHI
Language                       : Hindi

Audio #2
Format                         : AAC LC
Duration                       : 2 h 2 min
Bit rate                       : 192 kb/s
Channel(s)                     : 6 channels
Channel layout                 : L R C Cb Lb Rb
Sampling rate                  : 48.0 kHz
Frame rate                     : 46.875 FPS (1024 SPF)
Compression mode               : Lossy
Delay relative to video        : -21 ms
Stream size                    : 168 MiB (15%)
Title                          : GOPISAHI
Language                       : English

Text
Format                         : PGS
Codec ID                       : S_HDMV/PGS
Codec ID/Info                  : Picture based subtitle format used on BDs/HD-DVDs
Stream size                    : 10.5 MiB (1%)
Title                          : GOPISAHI
Language                       : English

Menu
00:00:00.000                   : :00:00:00.000
00:06:31.683                   : :00:06:31.682
00:16:57.934                   : :00:16:57.932
00:26:35.594                   : :00:26:35.593
00:34:38.034                   : :00:34:38.034
00:42:07.817                   : :00:42:07.815
00:48:07.051                   : :00:48:07.050
00:56:41.648                   : :00:56:41.648
01:01:42.782                   : :01:01:42.782
01:10:27.682                   : :01:10:27.680
01:17:15.923                   : :01:17:15.921
01:24:22.766                   : :01:24:22.640
01:32:11.234                   : :01:32:11.233
01:40:01.329                   : :01:40:01.328
01:46:34.763                   : :01:46:34.761
01:54:01.043                   : :01:54:01.042






Category:Movies > Dubs/Dual Audio
Lang:Hindi  Hindi
Total Size:1.11 GB
Info Hash:615b012ba72553ce138a34302686461145c6a2e5
Added By:GOPISAHI
Date Added:12-06-2019 15:08:18

Files

File List: 
 File Size
John Wick Chapter 2 2017 x264 720p Esub BluRay 6.0 Dual Audio English Hindi GOPISAHI.mkv1.11 GB



Loading...
Comments

There are currently no comments. Be the first one to write something !