MR ROBOT avengers endgame 2019 the walking dead ddr good boys 2019 ettv supernatural s15e02 it chapter two 2019 spider man far from home 2019 south park blue bloods the irishman 2019 Seal Team titans charmed titans s02e07 angel has fallen 2019 once upon a time in hollywood 2019 fast furious presents hobbs shaw 2019 blue bloods s10e04 zombieland double tap 2019 van helsing the lion king 2019 hustlers 2019 the good place the addams family 2019 mr mercedes joker 2019 joker maleficent mistress of evil 2019 gemini man 2019 the blacklist young sheldon ufc xxx etrg 浆果儿 hindi blacklist 幼女 el camino a breaking bad movie 2019 american horror story 萝莉 Saaho gold rush s10e02 evo Modern Family rambo last blood 2019 supernatural etmovies wwe the blacklist s07e03 0 ethd van helsing s04e04 arrow evil s01e04 gold rush scary stories to tell in the dark 2019 Supergirl the flash GREYS ANATOMY S16E04 yts aladdin 2019 once upon a time in hollywood toy story 4 2019 stuber 2019 Greys Anatomy  creepshow walking dead 
Warning! Use a VPN,When Downloading Torrents!
Your IP Address is 34.204.173.45. Location is United States
Your Internet Provider is tracking your torrent activity! Hide your IP ADDRESS with a VPN!
We strongly recommend using ExpressVPN to anonymize your torrenting. 30 Day Money Back Guarantee!
Try it Now!
ETTV Recommended TV Shows
Hawaii.Five-0.2010.S10E04.HDTV.x264-SVA[ettv] torrent
Magnum.P.I.2018.S02E04.HDTV.x264-SVA[ettv] torrent
Blue.Bloods.S10E04.HDTV.x264-SVA[ettv] torrent
Van.Helsing.S04E04.HDTV.x264-SVA[ettv] torrent
WWE Friday Night SmackDown 2019 10 18 HDTV x264-NWCHD [TJET] torrent
UFC on ESPN 6 WEB-DL H264 Fight-BB torrent

ETTV Recommended SD
Miss.Virginia.2019.HDRip.XviD.AC3-EVO torrent
William.2019.HDRip.XviD.AC3-EVO torrent
Eli.2019.HDRip.XviD.AC3-EVO torrent
Extra Ordinary.2019.HDRip.XviD.AC3-EVO torrent

ETTV Recommended HD
Wounds.2019.REPACK.1080p.HULU.WEB-DL.DDP5.1.H.264-NTG[EtHD] torrent
The.Laundromat.2019.1080p.NF.WEB-DL.DDP5.1.x264-NTG[EtHD] torrent
Passengers.2016.BDRip.1080p.x264.Multilang.DTS.DD5.1.Gerald torrent
The.Wolf.of.Wall.Street.2013.1080p.NF.WEB-DL.H264-ETRG[EtHD] torrent

ETTV Recommended UHD
The.Secret.Life.of.Pets.2.2019.4K.HDR.2160p.BDRip Ita Eng x265-NAHOM torrent
Alita.Battle.Angel.2019.4K.HDR10+.2160p.BDRip Ita Eng x265-NAHOM torrent
Casino.Royale.2006.2160p.UHD.BluRay.X265-IAMABLE torrent
Hellboy.2004.DC.4K.HDR.2160p.BDRip Ita Eng x265-NAHOM torrent

ETTV Recommended Cam
Joker.2019.HDTS.x264.AC3-ETRG torrent
Maleficent Mistress of Evil 2019 720p HDCAM-GETB8 torrent
The Lighthouse 2019 720p HDCAM-GETB8 torrent
Jojo Rabbit 2019 720p HDCAM-GETB8 torrent

ETTV Recommended Foreign
Infernal (2015) x264 720p UNRATED WEB-DL {Dual Audio} [Hindi ORG DD 2.0 + English 2.0] Exclusive By DREDD torrent
Thadam (2019) 720p UNCUT HDRip x264 Eng Subs [Dual Audio] [Hindi DD 2.0 - Tamil 5.1] Exclusive By -=!Dr.STAR!=- torrent
Qahwat.Bursat.Misr.2019.1080p.HDTV.Arabic.قهوة بورصة مصر-Holly[ETArabia] torrent
Saaho.2019.Hindi.1080p.AMZN.WeB.DL.AVC.MP3.Line.Audio.DusIcTv torrent


Download Torrent "City of Lies (2019) (1080p BluRay x265 HEVC 10bit DTS 5.1 Qman) [UTR]"

IMDB Details
Description:

N/A

Genre:

N/A

Download Torrent (Magnet)
Seeds: 357
Leechers: 131
Completed: 2,486 
Last Checked: 15-06-2019 20:51:06


Loading...
Details
Title:City of Lies (2019) (1080p BluRay x265 HEVC 10bit DTS 5.1 Qman) [UTR]
Description:





Media Information
General
Format                                   : Matroska
Format version                           : Version 4 / Version 2
File size                                : 4.43 GiB
Duration                                 : 1 h 52 min
Overall bit rate                         : 5 647 kb/s
Encoded date                             : UTC 2019-06-15 19:20:01
Writing application                      : mkvmerge v30.1.0 ('Forever And More') 64-bit
Writing library                          : libebml v1.3.6 + libmatroska v1.4.9

Video
ID                                       : 1
Format                                   : HEVC
Format/Info                              : High Efficiency Video Coding
Format profile                           : Main [email protected]@Main
Codec ID                                 : V_MPEGH/ISO/HEVC
Duration                                 : 1 h 52 min
Bit rate                                 : 4 136 kb/s
Width                                    : 1 920 pixels
Height                                   : 1 080 pixels
Display aspect ratio                     : 16:9
Frame rate mode                          : Constant
Frame rate                               : 24.000 FPS
Color space                              : YUV
Chroma subsampling                       : 4:2:0
Bit depth                                : 10 bits
Bits/(Pixel*Frame)                       : 0.083
Stream size                              : 3.24 GiB (73%)
Writing library                          : x265 3.1_RC1+1-10decf67c077:[Windows][GCC 9.1.1][64 bit] 10bit
Encoding settings                        : cpuid=1111039 / frame-threads=4 / numa-pools=16 / wpp / no-pmode / no-pme / no-psnr / no-ssim / log-level=2 / input-csp=1 / input-res=1920x1080 / interlace=0 / total-frames=161693 / level-idc=0 / high-tier=1 / uhd-bd=0 / ref=4 / no-allow-non-conformance / no-repeat-headers / annexb / no-aud / no-hrd / info / hash=0 / no-temporal-layers / open-gop / min-keyint=24 / keyint=250 / gop-lookahead=0 / bframes=8 / b-adapt=2 / b-pyramid / bframe-bias=0 / rc-lookahead=80 / lookahead-slices=4 / scenecut=40 / radl=0 / no-splice / no-intra-refresh / ctu=64 / min-cu-size=8 / rect / amp / max-tu-size=32 / tu-inter-depth=1 / tu-intra-depth=1 / limit-tu=0 / rdoq-level=2 / dynamic-rd=0.00 / no-ssim-rd / signhide / no-tskip / nr-intra=0 / nr-inter=0 / no-constrained-intra / no-strong-intra-smoothing / max-merge=3 / limit-refs=1 / limit-modes / me=3 / subme=5 / merange=57 / temporal-mvp / weightp / no-weightb / no-analyze-src-pics / deblock=-3:-3 / no-sao / no-sao-non-deblock / rd=4 / early-skip / no-rskip / no-fast-intra / no-tskip-fast / no-cu-lossless / b-intra / no-splitrd-skip / rdpenalty=0 / psy-rd=1.00 / psy-rdoq=2.50 / no-rd-refine / no-lossless / cbqpoffs=0 / crqpoffs=0 / rc=crf / crf=16.5 / qcomp=0.60 / qpstep=4 / stats-write=0 / stats-read=0 / ipratio=1.40 / pbratio=1.30 / aq-mode=2 / aq-strength=1.00 / cutree / zone-count=0 / no-strict-cbr / qg-size=32 / no-rc-grain / qpmax=69 / qpmin=0 / no-const-vbv / sar=0 / overscan=0 / videoformat=5 / range=0 / colorprim=2 / transfer=2 / colormatrix=2 / chromaloc=0 / display-window=0cll=0,0 / min-luma=0 / max-luma=1023 / log2-max-poc-lsb=8 / vui-timing-info / vui-hrd-info / slices=1 / no-opt-qp-pps / no-opt-ref-list-length-pps / no-multi-pass-opt-rps / scenecut-bias=0.05 / no-opt-cu-delta-qp / aq-motion / no-hdr / no-hdr-opt / no-dhdr10-opt / no-idr-recovery-sei / analysis-reuse-level=5 / scale-factor=0 / refine-intra=0 / refine-inter=0 / refine-mv=0 / refine-ctu-distortion=0 / no-limit-sao / ctu-info=0 / no-lowpass-dct / refine-analysis-type=0 / copy-pic=1 / max-ausize-factor=1.0 / no-dynamic-refine / no-single-sei / no-hevc-aq / no-svt / no-field / qp-adaptation-range=1.00
Language                                 : English
Default                                  : Yes
Forced                                   : No

Audio
ID                                       : 2
Format                                   : DTS
Format/Info                              : Digital Theater Systems
Mode                                     : 16
Format settings, Endianness              : Big
Codec ID                                 : A_DTS
Duration                                 : 1 h 52 min
Bit rate mode                            : Constant
Bit rate                                 : 1 509 kb/s
Channel(s)                               : 6 channels
Channel positions                        : Front: L C R, Side: L R, LFE
Sampling rate                            : 48.0 kHz
Frame rate                               : 93.750 FPS (512 spf)
Bit depth                                : 24 bits
Compression mode                         : Lossy
Stream size                              : 1.18 GiB (27%)
Language                                 : English
Default                                  : Yes
Forced                                   : No

Menu
00:00:00.000                             : en:Chapter 01
00:05:23.083                             : en:Chapter 02
00:10:00.208                             : en:Chapter 03
00:16:00.625                             : en:Chapter 04
00:22:14.208                             : en:Chapter 05
00:27:25.542                             : en:Chapter 06
00:33:04.875                             : en:Chapter 07
00:38:14.750                             : en:Chapter 08
00:43:31.083                             : en:Chapter 09
00:49:31.458                             : en:Chapter 10
00:55:02.833                             : en:Chapter 11
01:00:54.167                             : en:Chapter 12
01:07:40.792                             : en:Chapter 13
01:12:40.792                             : en:Chapter 14
01:17:49.292                             : en:Chapter 15
01:21:38.500                             : en:Chapter 16
01:27:32.875                             : en:Chapter 17
01:32:16.250                             : en:Chapter 18
01:38:06.667                             : en:Chapter 19
01:43:18.833                             : en:Chapter 20

Source Information
Release:
City.of.Lies.2018.BluRay.Remux.AVC.DTS-HD.MA.5.1-iFT 21.3GB


Note From UTR
We have no issue with individuals posting or re-uploading our torrents on a platform we aren't on. However, if this is something you'd like to do, please do so in a 'as-is' format. We ask that you do not create a new torrent, include all descriptions you see above including the UTR logo, tags, notes and screenshots. If you'd like to become a permanent poster on a website we don't post to, feel free to get in contact with a UniTeam member.

If possible please donate: BTC 1QA5fum5AyXvWzdVCkQzUNvw3Ef15fHRaR



Category:Movies > HEVC/x265
Lang:English  English
Total Size:4.43 GB
Info Hash:47361c0207e29fbaed2e2eda79bce289a55394ee
Added By:UTR
Date Added:15-06-2019 20:51:04

  

Files

File List: 
 File Size
City.of.Lies.(2019).1080p.BluRay.10-bit.x265.DTS.5.1 Qman[UTR].mkv4.43 GB



Loading...
Comments

There are currently no comments. Be the first one to write something !