MR ROBOT avengers endgame 2019 the walking dead ddr good boys 2019 ettv supernatural s15e02 it chapter two 2019 spider man far from home 2019 south park blue bloods the irishman 2019 Seal Team titans charmed titans s02e07 angel has fallen 2019 once upon a time in hollywood 2019 fast furious presents hobbs shaw 2019 blue bloods s10e04 zombieland double tap 2019 van helsing the lion king 2019 hustlers 2019 the good place the addams family 2019 mr mercedes joker 2019 joker maleficent mistress of evil 2019 gemini man 2019 the blacklist young sheldon ufc xxx etrg 浆果儿 hindi blacklist 幼女 el camino a breaking bad movie 2019 american horror story 萝莉 Saaho gold rush s10e02 evo Modern Family rambo last blood 2019 supernatural etmovies wwe the blacklist s07e03 0 ethd van helsing s04e04 arrow evil s01e04 gold rush scary stories to tell in the dark 2019 Supergirl the flash GREYS ANATOMY S16E04 yts aladdin 2019 once upon a time in hollywood toy story 4 2019 stuber 2019 Greys Anatomy  creepshow walking dead 
Warning! Use a VPN,When Downloading Torrents!
Your IP Address is 34.204.173.45. Location is United States
Your Internet Provider is tracking your torrent activity! Hide your IP ADDRESS with a VPN!
We strongly recommend using ExpressVPN to anonymize your torrenting. 30 Day Money Back Guarantee!
Try it Now!
ETTV Recommended TV Shows
Hawaii.Five-0.2010.S10E04.HDTV.x264-SVA[ettv] torrent
Magnum.P.I.2018.S02E04.HDTV.x264-SVA[ettv] torrent
Blue.Bloods.S10E04.HDTV.x264-SVA[ettv] torrent
Van.Helsing.S04E04.HDTV.x264-SVA[ettv] torrent
WWE Friday Night SmackDown 2019 10 18 HDTV x264-NWCHD [TJET] torrent
UFC on ESPN 6 WEB-DL H264 Fight-BB torrent

ETTV Recommended SD
Miss.Virginia.2019.HDRip.XviD.AC3-EVO torrent
William.2019.HDRip.XviD.AC3-EVO torrent
Eli.2019.HDRip.XviD.AC3-EVO torrent
Extra Ordinary.2019.HDRip.XviD.AC3-EVO torrent

ETTV Recommended HD
Wounds.2019.REPACK.1080p.HULU.WEB-DL.DDP5.1.H.264-NTG[EtHD] torrent
The.Laundromat.2019.1080p.NF.WEB-DL.DDP5.1.x264-NTG[EtHD] torrent
Passengers.2016.BDRip.1080p.x264.Multilang.DTS.DD5.1.Gerald torrent
The.Wolf.of.Wall.Street.2013.1080p.NF.WEB-DL.H264-ETRG[EtHD] torrent

ETTV Recommended UHD
The.Secret.Life.of.Pets.2.2019.4K.HDR.2160p.BDRip Ita Eng x265-NAHOM torrent
Alita.Battle.Angel.2019.4K.HDR10+.2160p.BDRip Ita Eng x265-NAHOM torrent
Casino.Royale.2006.2160p.UHD.BluRay.X265-IAMABLE torrent
Hellboy.2004.DC.4K.HDR.2160p.BDRip Ita Eng x265-NAHOM torrent

ETTV Recommended Cam
Joker.2019.HDTS.x264.AC3-ETRG torrent
Maleficent Mistress of Evil 2019 720p HDCAM-GETB8 torrent
The Lighthouse 2019 720p HDCAM-GETB8 torrent
Jojo Rabbit 2019 720p HDCAM-GETB8 torrent

ETTV Recommended Foreign
Infernal (2015) x264 720p UNRATED WEB-DL {Dual Audio} [Hindi ORG DD 2.0 + English 2.0] Exclusive By DREDD torrent
Thadam (2019) 720p UNCUT HDRip x264 Eng Subs [Dual Audio] [Hindi DD 2.0 - Tamil 5.1] Exclusive By -=!Dr.STAR!=- torrent
Qahwat.Bursat.Misr.2019.1080p.HDTV.Arabic.قهوة بورصة مصر-Holly[ETArabia] torrent
Saaho.2019.Hindi.1080p.AMZN.WeB.DL.AVC.MP3.Line.Audio.DusIcTv torrent


Download Torrent "Captain Marvel 2019.MULTi.UHD.BluRay.2160p.HEVC.HDR.Atmos.7.1-DDR"

IMDB Details
Description:

Carol Danvers becomes one of the universe's most powerful heroes when Earth is caught in the middle of a galactic war between two alien races.

Genre:

Action, Adventure, Sci-Fi

Download Torrent (Magnet)
Download Torrent (File)
Seeds: 46
Leechers: 482
Completed: 140 
Last Checked: 17-06-2019 22:23:28


Loading...
Details
Title:Captain Marvel 2019.MULTi.UHD.BluRay.2160p.HEVC.HDR.Atmos.7.1-DDR
Description:




SPECS

Source : UHD Blu-ray

Format                                   : Matroska
File size                                : 22.7 GiB
Duration                                 : 2 h 3 min
Overall bit rate mode                    : Variable
Overall bit rate                         : 26.3 Mb/s

Video
Format                                   : HEVC/HDR
Bit rate                                 : 15.7 Mb/s
Width                                    : 3 840 pixels
Height                                   : 1 608 pixels
Bit depth                                : 10 bits
Color primaries                          : BT.2020
Transfer characteristics                 : PQ
Matrix coefficients                      : BT.2020 non-constant
Mastering display color primaries        : Display P3
Mastering display luminance              : min: 0.0001 cd/m2, max: 1000 cd/m2


Audio
Audio #1
ID                                       : 2
Format                                   : MLP FBA 16-ch
Format/Info                              : Meridian Lossless Packing FBA with 16-channel presentation
Commercial name                          : Dolby TrueHD with Dolby Atmos
Codec ID                                 : A_TRUEHD
Duration                                 : 2 h 3 min
Bit rate mode                            : Variable
Bit rate                                 : 4 613 kb/s
Maximum bit rate                         : 7 317 kb/s
Channel(s)                               : 8 channels
Channel layout                           : L R C LFE Ls Rs Lb Rb
Sampling rate                            : 48.0 kHz
Frame rate                               : 1 200.000 FPS (40 SPF)
Compression mode                         : Lossless
Delay relative to video                  : 32 ms
Stream size                              : 3.99 GiB (18%)
Language                                 : English
Default                                  : Yes
Forced                                   : No
Number of dynamic objects                : 13
Bed channel count                        : 1 channel
Bed channel configuration                : LFE

Audio #2
ID                                       : 3
Format                                   : AC-3
Format/Info                              : Audio Coding 3
Commercial name                          : Dolby Digital
Codec ID                                 : A_AC3
Duration                                 : 2 h 3 min
Bit rate mode                            : Constant
Bit rate                                 : 640 kb/s
Channel(s)                               : 6 channels
Channel layout                           : L R C LFE Ls Rs
Sampling rate                            : 48.0 kHz
Frame rate                               : 31.250 FPS (1536 SPF)
Bit depth                                : 16 bits
Compression mode                         : Lossy
Delay relative to video                  : 32 ms
Stream size                              : 566 MiB (2%)
Language                                 : English
Service kind                             : Complete Main
Default                                  : No
Forced                                   : No

Audio #3
ID                                       : 4
Format                                   : E-AC-3
Format/Info                              : Enhanced AC-3
Commercial name                          : Dolby Digital Plus
Format profile                           : Blu-ray Disc
Codec ID                                 : A_EAC3
Duration                                 : 2 h 3 min
Bit rate mode                            : Constant
Bit rate                                 : 1 024 kb/s
Channel(s)                               : 8 channels
Channel layout                           : L R C LFE Ls Rs Lb Rb
Sampling rate                            : 48.0 kHz
Frame rate                               : 31.250 FPS (1536 SPF)
Compression mode                         : Lossy
Delay relative to video                  : 1 ms
Stream size                              : 906 MiB (4%)
Language                                 : French
Service kind                             : Complete Main
Default                                  : No
Forced                                   : No

Audio #4
ID                                       : 5
Format                                   : E-AC-3
Format/Info                              : Enhanced AC-3
Commercial name                          : Dolby Digital Plus
Format profile                           : Blu-ray Disc
Codec ID                                 : A_EAC3
Duration                                 : 2 h 3 min
Bit rate mode                            : Constant
Bit rate                                 : 1 024 kb/s
Channel(s)                               : 8 channels
Channel layout                           : L R C LFE Ls Rs Lb Rb
Sampling rate                            : 48.0 kHz
Frame rate                               : 31.250 FPS (1536 SPF)
Compression mode                         : Lossy
Delay relative to video                  : 1 ms
Stream size                              : 906 MiB (4%)
Language                                 : Spanish
Service kind                             : Complete Main
Default                                  : No
Forced                                   : No

Audio #5
ID                                       : 6
Format                                   : E-AC-3
Format/Info                              : Enhanced AC-3
Commercial name                          : Dolby Digital Plus
Format profile                           : Blu-ray Disc
Codec ID                                 : A_EAC3
Duration                                 : 2 h 3 min
Bit rate mode                            : Constant
Bit rate                                 : 1 024 kb/s
Channel(s)                               : 8 channels
Channel layout                           : L R C LFE Ls Rs Lb Rb
Sampling rate                            : 48.0 kHz
Frame rate                               : 31.250 FPS (1536 SPF)
Compression mode                         : Lossy
Delay relative to video                  : 1 ms
Stream size                              : 906 MiB (4%)
Language                                 : German
Service kind                             : Complete Main
Default                                  : No
Forced                                   : No

Audio #6
ID                                       : 7
Format                                   : E-AC-3
Format/Info                              : Enhanced AC-3
Commercial name                          : Dolby Digital Plus
Format profile                           : Blu-ray Disc
Codec ID                                 : A_EAC3
Duration                                 : 2 h 3 min
Bit rate mode                            : Constant
Bit rate                                 : 1 024 kb/s
Channel(s)                               : 8 channels
Channel layout                           : L R C LFE Ls Rs Lb Rb
Sampling rate                            : 48.0 kHz
Frame rate                               : 31.250 FPS (1536 SPF)
Compression mode                         : Lossy
Delay relative to video                  : 1 ms
Stream size                              : 906 MiB (4%)
Language                                 : Italian
Service kind                             : Complete Main
Default                                  : No
Forced                                   : No

Audio #7
ID                                       : 8
Format                                   : E-AC-3
Format/Info                              : Enhanced AC-3
Commercial name                          : Dolby Digital Plus
Format profile                           : Blu-ray Disc
Codec ID                                 : A_EAC3
Duration                                 : 2 h 3 min
Bit rate mode                            : Constant
Bit rate                                 : 1 024 kb/s
Channel(s)                               : 8 channels
Channel layout                           : L R C LFE Ls Rs Lb Rb
Sampling rate                            : 48.0 kHz
Frame rate                               : 31.250 FPS (1536 SPF)
Compression mode                         : Lossy
Delay relative to video                  : 1 ms
Stream size                              : 906 MiB (4%)
Language                                 : Japanese

Subs:
En Fr Sp Ger It Jp Chi Dut Kor Nor Swe 


[email protected]
Category:Movies > UltraHD/4K
Lang:English  English
Total Size:22.71 GB
Info Hash:bd8cd4c5c19fa35a90260a18edf78a80c2f8ec7d
Added By:DDR
Date Added:17-06-2019 22:23:24

  

Files

File List: 
 File Size
A DDR Release !!!.txt287.00 B
Captain Marvel 2019.MULTi.UHD.BluRay.2160p.HEVC.Atmos.7.1-DDR.mkv22.71 GB
Torrent downloaded from Desitorrents.tv.txt28.00 B



Loading...
Comments

There are currently no comments. Be the first one to write something !