charlies angels 2019 Titans titans s02e11 his dark materials the mandalorian s01e01 ford v ferrari 2019 once upon a time in hollywood ddr the good doctor s03e08 Rick And Morty S04E02 bull Angel has fallen it Chapter two rick and morty silicon valley S06E04 rambo last blood 2019 The Mandalorian terminator dark fate 2019 maleficent mistress of evil 2019 wwe xxx hustlers 2019 the walking dead s10e07 mandalorian batwoman mr robot s04e07 batwoman s01e07 all rise s01e08 Supergirl watchmen zombieland double tap 2019 silicon valley the crown all rise joker gemini man 2019 Star Wars Jedi Fallen Order hindi good doctor bull s04e08 watchmen s01e05 see the mandalorian s01e02 etmovies ethd evo The Morning Show the rookie s02e08 Last Week Tonight The Flash yts It supergirl s05e07 harriet 2019 ettv godfather of harlem s01e08 etrg bluff city law s01e09 joker 2019 the irishman 2019 the good doctor all american s02e06 0 Mr Robot His Dark Materials S01E03 angel has fallen 2019 black lightning black lightning s03e06 the walking dead Shameless s10e02 fast furious presents hobbs shaw 2019 gemini man 
Warning! Use a V.P.N When Downloading Torrents!
Your IP Address is 3.93.75.242. Location is United States
Your Internet Provider is tracking your torrent activity! Hide your IP ADDRESS with a V.P.N!
We strongly recommend using ExpressV.P.N to anonymize your torrenting. 30 Day Money Back Guarantee!
Try it Now!
ETTV Recommended TV Shows
NCIS.New.Orleans.S06E08.HDTV.x264-KILLERS[ettv] torrent
The.Resident.S03E07.WEB.x264-TBS[ettv] torrent
New.Amsterdam.2018.S02E09.HDTV.x264-KILLERS[ettv] torrent
The.Flash.2014.S06E06.HDTV.x264-SVA[ettv] torrent
Empire.2015.S06E07.WEB.x264-XLF[ettv] torrent
NCIS.S17E08.HDTV.x264-SVA[ettv] torrent
FBI.S02E08.HDTV.x264-SVA[ettv] torrent
Arrow.S08E05.HDTV.x264-SVA[ettv] torrent

ETTV Recommended SD
It.Chapter.Two.2019.HDRip.XviD.AC3-EVO[EtMovies] torrent
The Goldfinch.2019.HDRip.XviD.AC3-EVO[EtMovies] torrent
Killerman.2019.HDRip.XViD-ETRG torrent
Gemini.Man.2019.HDRip.XViD-ETRG torrent

ETTV Recommended HD
Gemini.Man.2019.1080p.WEB-DL.DD5.1.H264-CMRG[EtHD] torrent
Pretty.Little.Stalker.2018.1080p.WEB-DL.H264.AC3-EVO[EtHD] torrent
Palm.Beach.2019.1080p.BluRay.x264-PFa[EtHD] torrent
Random Acts of Christmas 2019 Lifetime 720p Web X264 Solar torrent

ETTV Recommended UHD
The Boss Baby 2017.MULTi.UHD.Blu-ray.2160p.HDR.Atmos.7.1.HEVC-DDR torrent
Three.Billboards.Outside.Ebbing.Missouri.2017.MULTi.UHD.Blu-ray.2160p.HDR.DTS-HDMA.5.1.HEVC-DDR torrent
Angel.Has.Fallen.2019.MULTi.UHD.BluRay.2160p.HDR.Atmos.7.1.HEVC-DDR torrent
Midsommar.2019.MULTi.UHD.Bluray.2160p.HDR.DTS-HDMA.5.1.HEVC-DDR torrent

ETTV Recommended Cam
Motherless Brooklyn 2019 NEW HDCAM x264-ETRG torrent
Hustlers 2019 NEW HDTS x264 AC3-ETRG torrent
Ford v Ferrari 2019 NEW HDCAM X264-ETRG torrent
Charlies Angels 2019 NEW HD-TS  x264-ETRG torrent

ETTV Recommended Foreign
Go.The.Unforgettable.Party.2019.iNTERNAL.MULTi.1080p.WEB.x264-CiELOS[EtHD] torrent
Attack On Titan (2015) x264 720p UNRATED BluRay Eng Subs {Dual Audio} [Hindi ORG DD 2.0 + JAP 2.0] Exclusive By DREDD torrent
Jind Jaan 2019 x264 720p SD Punjabi GOPISAHI torrent
Dear Zindagi 2016 BluRay Hindi 720p x264 AAC 5.1 ESub - mkvCinemas [Telly] torrent


Download Torrent "Beats (2019) [Worldfree4u.Wiki] 720p HDRip x264 [Dual Audio] [Hindi DD 5.1 ..."

IMDB Details
Description:

Two best friends in a small Scottish town in the summer of '94 who head out for one last night together before life takes them in different directions. Going to an illegal rave, the boys ...

Genre:

Comedy, Crime, Drama, Music

Download Torrent (Magnet)
Download Torrent (File)
Seeds: 430
Leechers: 156
Completed: 1,015 
Last Checked: 20-06-2019 07:30:24


Loading...
Details
Title:Beats (2019) [Worldfree4u.Wiki] 720p HDRip x264 [Dual Audio] [Hindi DD 5.1 ...
Description:



IMDb Rating: 7.6/10
Genre: Comedy, Crime, Drama
Director: Brian Welsh
Release Date: 17 May 2019
Star Cast: Kimber Closson, Martin Donaghy, Brian Ferguson

Movie Story: Two teenage boys in Scotland in 1994, best friends with no control over their lives, risk everything to attend an illegal rave, hoping for the best night of their boring lives.














General
Complete name : Beats (2019) [Worldfree4u.Wiki] 720p HDRip x264 [Dual Audio] [Hindi DD 5.1 + English DD 5.1].mkv
Format : Matroska
Format version : Version 4
File size : 891 MiB
Duration : 1 h 50 min
Overall bit rate : 1 131 kb/s
Movie name : Worldfree4u.Wiki
Encoded date : UTC 2019-06-19 16:15:43
Writing application : mkvmerge v32.0.0 ('Astral Progressions') 64-bit
Writing library : libebml v1.3.7 + libmatroska v1.5.0

Video
ID : 1
Format : AVC
Format/Info : Advanced Video Codec
Format profile : High
Format level : 3.1
Format settings, CABAC : Yes
Format settings, Reference frames : 4 frames
Codec ID : V_MPEG4/ISO/AVC
Duration : 1 h 50 min
Bit rate : 846 kb/s
Width : 1 280 pixels
Height : 528 pixels
Display aspect ratio : 2.40:1
Frame rate mode : Constant
Frame rate : 23.976 FPS
Color space : YUV
Chroma subsampling : 4:2:0
Bit depth : 8 bits
Scan type : Progressive
Bits/(Pixel*Frame) : 0.052
Stream size : 659 MiB (74%)
Title : Worldfree4u.Wiki
Writing library : x264 core 157 r2935 545de2f
Encoding settings : cabac=1 / ref=1 / deblock=1:0:0 / analyse=0x3:0x113 / me=hex / subme=2 / psy=1 / psy_rd=1.00:0.00 / mixed_ref=0 / me_range=16 / chroma_me=1 / trellis=0 / 8x8dct=1 / cqm=0 / deadzone=21,11 / fast_pskip=1 / chroma_qp_offset=0 / threads=16 / lookahead_threads=4 / sliced_threads=0 / nr=0 / decimate=1 / interlaced=0 / bluray_compat=0 / constrained_intra=0 / bframes=3 / b_pyramid=2 / b_adapt=1 / b_bias=0 / direct=1 / weightb=1 / open_gop=0 / weightp=1 / keyint=240 / keyint_min=23 / scenecut=40 / intra_refresh=0 / rc_lookahead=10 / rc=abr / mbtree=1 / bitrate=846 / ratetol=1.0 / qcomp=0.60 / qpmin=0 / qpmax=69 / qpstep=4 / ip_ratio=1.40 / aq=1:1.00
Language : English
Default : Yes
Forced : No

Audio #1
ID : 2
Format : AC-3
Format/Info : Audio Coding 3
Commercial name : Dolby Digital
Format settings : Big
Codec ID : A_AC3
Duration : 1 h 50 min
Bit rate mode : Constant
Bit rate : 160 kb/s
Channel(s) : 6 channels
Channel layout : L R C LFE Ls Rs
Sampling rate : 44.1 kHz
Frame rate : 28.711 FPS (1536 SPF)
Bit depth : 16 bits
Compression mode : Lossy
Stream size : 126 MiB (14%)
Title : Worldfree4u.Wiki
Language : Hindi
Default : Yes
Forced : No

Audio #2
ID : 3
Format : AC-3
Format/Info : Audio Coding 3
Commercial name : Dolby Digital
Format settings : Big
Codec ID : A_AC3
Duration : 1 h 50 min
Bit rate mode : Constant
Bit rate : 128 kb/s
Channel(s) : 6 channels
Channel layout : L R C LFE Ls Rs
Sampling rate : 48.0 kHz
Frame rate : 31.250 FPS (1536 SPF)
Bit depth : 16 bits
Compression mode : Lossy
Stream size : 101 MiB (11%)
Title : Worldfree4u.Wiki
Language : English
Default : No
Forced : No

Text #1
ID : 4
Format : UTF-8
Codec ID : S_TEXT/UTF8
Duration : 1 h 48 min
Bit rate : 82 b/s
Count of elements : 1934
Stream size : 65.4 KiB (0%)
Title : Worldfree4u.Wiki
Language : English
Default : Yes
Forced : No

Text #2
ID : 5
Format : UTF-8
Codec ID : S_TEXT/UTF8
Duration : 1 h 48 min
Bit rate : 107 b/s
Count of elements : 1559
Stream size : 85.1 KiB (0%)
Title : Worldfree4u.Wiki
Language : Arabic
Default : No
Forced : No

Text #3
ID : 6
Format : UTF-8
Codec ID : S_TEXT/UTF8
Duration : 1 h 48 min
Bit rate : 53 b/s
Count of elements : 1545
Stream size : 42.9 KiB (0%)
Title : Worldfree4u.Wiki
Language : Czech
Default : No
Forced : No

Text #4
ID : 7
Format : UTF-8
Codec ID : S_TEXT/UTF8
Duration : 1 h 48 min
Bit rate : 52 b/s
Count of elements : 1471
Stream size : 41.7 KiB (0%)
Title : Worldfree4u.Wiki
Language : Danish
Default : No
Forced : No

Text #5
ID : 8
Format : UTF-8
Codec ID : S_TEXT/UTF8
Duration : 1 h 48 min
Bit rate : 56 b/s
Count of elements : 1613
Stream size : 44.8 KiB (0%)
Title : Worldfree4u.Wiki
Language : German
Default : No
Forced : No

Text #6
ID : 9
Format : UTF-8
Codec ID : S_TEXT/UTF8
Duration : 1 h 48 min
Bit rate : 92 b/s
Count of elements : 1673
Stream size : 73.1 KiB (0%)
Title : Worldfree4u.Wiki
Language : Greek
Default : No
Forced : No

Text #7
ID : 10
Format : UTF-8
Codec ID : S_TEXT/UTF8
Duration : 1 h 48 min
Bit rate : 60 b/s
Count of elements : 1715
Stream size : 47.9 KiB (0%)
Title : Worldfree4u.Wiki
Language : Spanish
Default : No
Forced : No

Text #8
ID : 11
Format : UTF-8
Codec ID : S_TEXT/UTF8
Duration : 1 h 48 min
Bit rate : 51 b/s
Count of elements : 1706
Stream size : 40.6 KiB (0%)
Title : Worldfree4u.Wiki
Language : Spanish
Default : No
Forced : No

Text #9
ID : 12
Format : UTF-8
Codec ID : S_TEXT/UTF8
Duration : 1 h 48 min
Bit rate : 51 b/s
Count of elements : 1394
Stream size : 40.8 KiB (0%)
Title : Worldfree4u.Wiki
Language : Finnish
Default : No
Forced : No

Text #10
ID : 13
Format : UTF-8
Codec ID : S_TEXT/UTF8
Duration : 1 h 48 min
Bit rate : 59 b/s
Count of elements : 1559
Stream size : 47.5 KiB (0%)
Title : Worldfree4u.Wiki
Language : French
Default : No
Forced : No

Text #11
ID : 14
Format : UTF-8
Codec ID : S_TEXT/UTF8
Duration : 1 h 48 min
Bit rate : 100 b/s
Count of elements : 1516
Stream size : 79.4 KiB (0%)
Title : Worldfree4u.Wiki
Language : Hebrew
Default : No
Forced : No

Text #12
ID : 15
Format : UTF-8
Codec ID : S_TEXT/UTF8
Duration : 1 h 48 min
Bit rate : 51 b/s
Count of elements : 1338
Stream size : 40.9 KiB (0%)
Title : Worldfree4u.Wiki
Language : Hungarian
Default : No
Forced : No

Text #13
ID : 16
Format : UTF-8
Codec ID : S_TEXT/UTF8
Duration : 1 h 48 min
Bit rate : 56 b/s
Count of elements : 1649
Stream size : 45.1 KiB (0%)
Title : Worldfree4u.Wiki
Language : Indonesian
Default : No
Forced : No

Text #14
ID : 17
Format : UTF-8
Codec ID : S_TEXT/UTF8
Duration : 1 h 48 min
Bit rate : 57 b/s
Count of elements : 1495
Stream size : 45.3 KiB (0%)
Title : Worldfree4u.Wiki
Language : Italian
Default : No
Forced : No

Text #15
ID : 18
Format : UTF-8
Codec ID : S_TEXT/UTF8
Duration : 1 h 48 min
Bit rate : 54 b/s
Count of elements : 1515
Stream size : 43.4 KiB (0%)
Title : Worldfree4u.Wiki
Language : Japanese
Default : No
Forced : No

Text #16
ID : 19
Format : UTF-8
Codec ID : S_TEXT/UTF8
Duration : 1 h 48 min
Bit rate : 73 b/s
Count of elements : 1721
Stream size : 58.1 KiB (0%)
Title : Worldfree4u.Wiki
Language : Korean
Default : No
Forced : No

Text #17
ID : 20
Format : UTF-8
Codec ID : S_TEXT/UTF8
Duration : 1 h 48 min
Bit rate : 52 b/s
Count of elements : 1399
Stream size : 41.6 KiB (0%)
Title : Worldfree4u.Wiki
Language : Norwegian Bokmal
Default : No
Forced : No

Text #18
ID : 21
Format : UTF-8
Codec ID : S_TEXT/UTF8
Duration : 1 h 48 min
Bit rate : 47 b/s
Count of elements : 1211
Stream size : 37.6 KiB (0%)
Title : Worldfree4u.Wiki
Language : Dutch
Default : No
Forced : No

Text #19
ID : 22
Format : UTF-8
Codec ID : S_TEXT/UTF8
Duration : 1 h 48 min
Bit rate : 53 b/s
Count of elements : 1559
Stream size : 42.3 KiB (0%)
Title : Worldfree4u.Wiki
Language : Polish
Default : No
Forced : No

Text #20
ID : 23
Format : UTF-8
Codec ID : S_TEXT/UTF8
Duration : 1 h 48 min
Bit rate : 59 b/s
Count of elements : 1592
Stream size : 47.4 KiB (0%)
Title : Worldfree4u.Wiki
Language : Portuguese
Default : No
Forced : No

Text #21
ID : 24
Format : UTF-8
Codec ID : S_TEXT/UTF8
Duration : 1 h 48 min
Bit rate : 56 b/s
Count of elements : 1713
Stream size : 44.8 KiB (0%)
Title : Worldfree4u.Wiki
Language : Portuguese
Default : No
Forced : No

Text #22
ID : 25
Format : UTF-8
Codec ID : S_TEXT/UTF8
Duration : 1 h 48 min
Bit rate : 60 b/s
Count of elements : 1569
Stream size : 47.9 KiB (0%)
Title : Worldfree4u.Wiki
Language : Romanian
Default : No
Forced : No

Text #23
ID : 26
Format : UTF-8
Codec ID : S_TEXT/UTF8
Duration : 1 h 48 min
Bit rate : 77 b/s
Count of elements : 1643
Stream size : 61.1 KiB (0%)
Title : Worldfree4u.Wiki
Language : Russian
Default : No
Forced : No

Text #24
ID : 27
Format : UTF-8
Codec ID : S_TEXT/UTF8
Duration : 1 h 48 min
Bit rate : 58 b/s
Count of elements : 1204
Stream size : 46.5 KiB (0%)
Title : Worldfree4u.Wiki
Language : Swedish
Default : No
Forced : No

Text #25
ID : 28
Format : UTF-8
Codec ID : S_TEXT/UTF8
Duration : 1 h 48 min
Bit rate : 139 b/s
Count of elements : 1721
Stream size : 111 KiB (0%)
Title : Worldfree4u.Wiki
Language : Thai
Default : No
Forced : No

Text #26
ID : 29
Format : UTF-8
Codec ID : S_TEXT/UTF8
Duration : 1 h 48 min
Bit rate : 57 b/s
Count of elements : 1646
Stream size : 45.8 KiB (0%)
Title : Worldfree4u.Wiki
Language : Turkish
Default : No
Forced : No

Text #27
ID : 30
Format : UTF-8
Codec ID : S_TEXT/UTF8
Duration : 1 h 48 min
Bit rate : 68 b/s
Count of elements : 1720
Stream size : 54.4 KiB (0%)
Title : Worldfree4u.Wiki
Language : Chinese
Default : No
Forced : No

Text #28
ID : 31
Format : UTF-8
Codec ID : S_TEXT/UTF8
Duration : 1 h 48 min
Bit rate : 57 b/s
Count of elements : 1688
Stream size : 45.7 KiB (0%)
Title : Worldfree4u.Wiki
Language : Chinese
Default : No
Forced : No





Category:Movies > Dubs/Dual Audio
Lang:Hindi  Hindi
Total Size:891 MB
Info Hash:b31e7f1e909ed146be4db1b5d9b830fe3c3f014d
Added By:Dakshvv
Date Added:20-06-2019 07:30:21

Files

File List: 
 File Size
Beats (2019) [Worldfree4u.Wiki] 720p HDRip x264 [Dual Audio] [Hindi DD 5.1 + English DD 5.1].mkv891 MB



Loading...
Comments

There are currently no comments. Be the first one to write something !