ddr 21 bridges 2019 Batwoman Joker 2019 terminator dark fate 2019 the outsider Maleficent Mistress of Evil 2019 knives out 2019 ettv big bang theory español Avenue 5 Hindi 1917 2019 the gentlemen 2020 0 Vikings s06e08 wwe royal rumble 2020 ethd evo star wars the rise of skywalker 2019 Saturday Night Live s45e11 supergirl just mercy 2019 bad boys for life 2020 Shameless S10E12 power star trek picard rq.mp4 vikings Curb Your Enthusiasm S10E02 etmovies Curb Your Enthusiasm  Spies in Disguise 2019 shameless Star Trek Picard S01E01 doctor who frozen ii 2019 doctor sleep Real Time with Bill Maher 2020 01 24 jumanji the next level 2019 wwe The New Pope Gemini Man 2019 Greys Anatomy s16e10 Star wars picard etrg underwater 2020 Knives Out Avenue 5 S01E02 Grammy dolittle 2020 Greys Anatomy the outsider s01e04 supergirl s05e11 doctor who s12e05 midway 2019 batwoman s01e11 Charlies Angels 2019 Supernatural  yts xxx playing with fire 2019 ford v ferrari 2019 motherless brooklyn 2019 royal rumble ita Doctor Sleep 2019 power s06e14 royal rumble 2020 
Warning! Use a V.P.N When Downloading Torrents!
Your IP Address is 34.204.200.74. Location is United States
Your Internet Provider is tracking your torrent activity! Hide your IP ADDRESS with a V.P.N!
We strongly recommend using ExpressV.P.N to anonymize your torrenting. 30 Day Money Back Guarantee!
Try it Now!
ETTV Recommended TV Shows
Coroner.S02E04.WEBRip.x264-TBS[ettv] torrent
Black.Lightning.S03E11.HDTV.x264-SVA[ettv] torrent
The.Bachelor.S24E04.WEB.H264-XLF[ettv] torrent
WWE Monday Night Raw 2020 01 27 HDTV x264-NWCHD [TJET] torrent

ETTV Recommended SD
Dead.Earth.2020.HDRip.XviD.AC3-EVO torrent
Battle.Star.Wars.2020.HDRip.XviD.AC3-EVO torrent
The.Windermere.Children.2020.HDRip.XviD.AC3-EVO torrent
The.Great.Alaskan.Race.2019.HDRip.XviD.AC3-EVO torrent

ETTV Recommended HD
Get.Gone.2019.1080p.WEB-DL.x264.AAC-ETRG torrent
The.Windermere.Children.2020.1080p.WEB-DL.H264.AC3-EVO[EtHD] torrent
Dead.Earth.2020.1080p.WEB-DL.H264.AC3-EVO[EtHD] torrent
My.Name.Is.Myeisha.2020.1080p.WEB-DL.H264.AC3-EVO[EtHD] torrent

ETTV Recommended UHD
Terminator.Dark.Fate.2019.2160p.UHD.BluRay.10bit.SDR.x265-HazMatt.mkv torrent
The.Sword.in.the.Stone.1963.4K.HDR.2160p.WEBDL Ita Eng x265-NAHOM torrent
Once.Upon.a.Time.in.Hollywood.2019.2160p.UHD.BluRay.10bit.SDR.x26-HazMatt.mkv torrent
Doctor Sleep (2019) [BluRay Rip 2160p HEVC 10bit-HDR ITA-ENG AC3-SUBS] [M@HD] torrent

ETTV Recommended Cam
Dolittle 2020 HDCAM x264 AC3-ETRG torrent
The Grudge 2020 720p HDTC-GETB8 torrent
Bad.Boys.for.Life.2020.NEW.HDTS.x264.AC3-ETRG torrent
The.Turning.2020.HDCAM.x264.AC3-ETRG torrent

ETTV Recommended Foreign
The King - Il Re (2019).720p.H264.ita.eng.Ac3-5.1.sub.ita.eng-MIRCrew torrent
Semma Botha Aagatha (2018) 720p UNCUT HDRip x264 Eng Subs [Dual Audio] [Hindi DD 2.0 - Tamil 5.1] Exclusive By -=!Dr.STAR!=- torrent
Chhalawa.2019.Urdu.1080p. Vidly.WEB-DL.AAC.2.0.x264-Telly torrent
Ratsasan 2018 720p 10bit UNCUT WEBRip Dual Audio [Hindi DD2.0 - Tamil] x265 HEVC ESub - MoviePirate- Telly.mkv torrent


Download Torrent "Us (2019) (2160p BluRay x265 HEVC 10bit AAC 7.1 Joy) [UTR]"

IMDB Details
Description:

A family's serene beach vacation turns to chaos when their doppelgängers appear and begin to terrorize them.

Genre:

Horror, Mystery, Thriller

Download Torrent (Magnet)
Download Torrent (File)
Seeds: 78
Leechers: 15
Completed: 2,260 
Last Checked: 06-07-2019 04:25:22


Loading...
Details
Title:Us (2019) (2160p BluRay x265 HEVC 10bit AAC 7.1 Joy) [UTR]
Description:


Media Information
General
Format                                   : Matroska
Format version                           : Version 4 / Version 2
File size                                : 5.30 GiB
Duration                                 : 1 h 56 min
Overall bit rate                         : 6 515 kb/s
Movie name                               : Us 2019  (2160p x265 10bit Joy)[UTR]
Encoded date                             : UTC 2019-07-01 08:10:19
Writing application                      : mkvmerge v32.0.0 ('Astral Progressions') 64-bit
Writing library                          : libebml v1.3.7 + libmatroska v1.5.0
Writing frontend                         : StaxRip v2.0.2.0, Encoded by JoyBell

Video
ID                                       : 1
Format                                   : HEVC
Format/Info                              : High Efficiency Video Coding
Format profile                           : Main [email protected]@Main
Codec ID                                 : V_MPEGH/ISO/HEVC
Duration                                 : 1 h 56 min
Bit rate                                 : 6 000 kb/s
Width                                    : 3 840 pixels
Height                                   : 1 600 pixels
Display aspect ratio                     : 2.40:1
Frame rate mode                          : Constant
Frame rate                               : 23.976 (24000/1001) FPS
Color space                              : YUV
Chroma subsampling                       : 4:2:0
Bit depth                                : 10 bits
Bits/(Pixel*Frame)                       : 0.041
Stream size                              : 4.88 GiB (92%)
Writing library                          : x265 3.0_Au+24-4217e691387c:[Windows][GCC 9.1.1][64 bit] 10bit
Encoding settings                        : rc=abr / bitrate=6000 / qcomp=0.50 / qpstep=4 / stats-write=0 / stats-read=2 / cplxblur=20.0 / qblur=0.5 / qpmax=69 / qpmin=0 / no-lossless / no-cu-lossless / no-hevc-aq / no-aq-motion / aq-mode=3 / aq-strength=0.80 / cbqpoffs=0 / crqpoffs=0 / ipratio=1.40 / pbratio=1.30 / psy-rd=0.00 / psy-rdoq=1.35 / deblock=0:0 / ref=4 / limit-refs=3 / limit-modes / bframes=8 / b-adapt=2 / bframe-bias=40 / b-pyramid / no-b-intra / weightp / no-weightb / keyint=250 / min-keyint=23 / rc-lookahead=80 / gop-lookahead=0 / scenecut=40 / scenecut-bias=0.05 / ctu=64 / min-cu-size=8 / me=3 / subme=3 / merange=57 / rd=4 / no-rd-refine / ssim-rd / dynamic-rd=0.00 / rdoq-level=2 / rdpenalty=0 / cutree / sao / limit-sao / no-sao-non-deblock / no-rect / no-amp / open-gop / max-tu-size=32 / tu-inter-depth=1 / tu-intra-depth=1 / limit-tu=0 / qg-size=32 / wpp / no-pmode / no-pme / no-psnr / ssim / no-tskip / constrained-intra / strong-intra-smoothing / max-merge=3 / nr-intra=0 / nr-inter=0 / input-csp=1 / input-res=3840x1600 / interlace=0 / total-frames=167549 / level-idc=0 / high-tier=1cpuid=1111039 / frame-threads=4 / numa-pools=16 / log-level=2 / uhd-bd=0 / lookahead-slices=4 / radl=0 / no-splice / no-intra-refresh / signhide / temporal-mvp / no-analyze-src-pics / early-skip / rskip / no-fast-intra / no-tskip-fast / splitrd-skip / zone-count=0 / no-strict-cbr / no-rc-grain / no-const-vbv / no-allow-non-conformance / no-repeat-headers / annexb / no-aud / no-hrd / info / hash=0 / no-temporal-layers / sar=0 / overscan=0 / videoformat=5 / range=0 / colorprim=2 / transfer=2 / colormatrix=2 / chromaloc=0 / display-window=0 / max-cll=0,0 / min-luma=0 / max-luma=1023 / log2-max-poc-lsb=8 / vui-timing-info / vui-hrd-info / slices=1 / no-opt-qp-pps / no-opt-ref-list-length-pps / multi-pass-opt-rps / no-opt-cu-delta-qp / no-hdr / no-hdr-opt / no-dhdr10-opt / no-idr-recovery-sei / analysis-reuse-level=10 / scale-factor=0 / refine-intra=0 / refine-inter=0 / refine-mv=0 / refine-ctu-distortion=0 / ctu-info=0 / no-lowpass-dct / refine-analysis-type=0 / copy-pic=1 / max-ausize-factor=1.0 / no-dynamic-refine / no-single-sei / no-svt / qp-adaptation-range=1.00
Default                                  : Yes
Forced                                   : No

Audio
ID                                       : 2
Format                                   : AAC
Format/Info                              : Advanced Audio Codec
Format profile                           : LC
Codec ID                                 : A_AAC
Duration                                 : 1 h 56 min
Bit rate                                 : 484 kb/s
Channel(s)                               : 8 channels
Channel positions                        : Front: L C R, Side: L R, Back: L R, LFE
Sampling rate                            : 48.0 kHz
Frame rate                               : 46.875 FPS (1024 spf)
Compression mode                         : Lossy
Delay relative to video                  : 9 ms
Stream size                              : 403 MiB (7%)
Language                                 : English
Default                                  : No
Forced                                   : No

Subtitle #1
ID                                       : 3
Format                                   : PGS
Muxing mode                              : zlib
Codec ID                                 : S_HDMV/PGS
Codec ID/Info                            : Picture based subtitle format used on BDs/HD-DVDs
Duration                                 : 1 h 53 min
Bit rate                                 : 35.4 kb/s
Count of elements                        : 2751
Stream size                              : 28.8 MiB (1%)
Language                                 : English
Default                                  : No
Forced                                   : No

Subtitle #2
ID                                       : 4
Format                                   : UTF-8
Codec ID                                 : S_TEXT/UTF8
Codec ID/Info                            : UTF-8 Plain Text
Duration                                 : 1 h 52 min
Bit rate                                 : 38 b/s
Count of elements                        : 1065
Stream size                              : 31.6 KiB (0%)
Language                                 : English
Default                                  : No
Forced                                   : No

Subtitle #3
ID                                       : 5
Format                                   : VobSub
Muxing mode                              : zlib
Codec ID                                 : S_VOBSUB
Codec ID/Info                            : Picture based subtitle format used on DVDs
Duration                                 : 1 h 55 min
Bit rate                                 : 5 082 b/s
Count of elements                        : 904
Stream size                              : 4.20 MiB (0%)
Language                                 : French
Default                                  : No
Forced                                   : No

Subtitle #4
ID                                       : 6
Format                                   : VobSub
Muxing mode                              : zlib
Codec ID                                 : S_VOBSUB
Codec ID/Info                            : Picture based subtitle format used on DVDs
Duration                                 : 1 h 55 min
Bit rate                                 : 5 721 b/s
Count of elements                        : 1050
Stream size                              : 4.73 MiB (0%)
Language                                 : Spanish
Default                                  : No
Forced                                   : No

Subtitle #5
ID                                       : 7
Format                                   : UTF-8
Codec ID                                 : S_TEXT/UTF8
Codec ID/Info                            : UTF-8 Plain Text
Duration                                 : 1 h 55 min
Bit rate                                 : 46 b/s
Count of elements                        : 996
Stream size                              : 39.1 KiB (0%)
Language                                 : Arabic
Default                                  : No
Forced                                   : No

Subtitle #6
ID                                       : 8
Format                                   : UTF-8
Codec ID                                 : S_TEXT/UTF8
Codec ID/Info                            : UTF-8 Plain Text
Duration                                 : 1 h 51 min
Bit rate                                 : 26 b/s
Count of elements                        : 705
Stream size                              : 21.4 KiB (0%)
Language                                 : Danish
Default                                  : No
Forced                                   : No

Subtitle #7
ID                                       : 9
Format                                   : UTF-8
Codec ID                                 : S_TEXT/UTF8
Codec ID/Info                            : UTF-8 Plain Text
Duration                                 : 1 h 51 min
Bit rate                                 : 25 b/s
Count of elements                        : 597
Stream size                              : 20.8 KiB (0%)
Language                                 : Dutch
Default                                  : No
Forced                                   : No

Subtitle #8
ID                                       : 10
Format                                   : UTF-8
Codec ID                                 : S_TEXT/UTF8
Codec ID/Info                            : UTF-8 Plain Text
Duration                                 : 1 h 49 min
Bit rate                                 : 61 b/s
Count of elements                        : 1043
Stream size                              : 49.6 KiB (0%)
Language                                 : Persian
Default                                  : No
Forced                                   : No

Subtitle #9
ID                                       : 11
Format                                   : UTF-8
Codec ID                                 : S_TEXT/UTF8
Codec ID/Info                            : UTF-8 Plain Text
Duration                                 : 1 h 51 min
Bit rate                                 : 23 b/s
Count of elements                        : 702
Stream size                              : 19.1 KiB (0%)
Language                                 : Finnish
Default                                  : No
Forced                                   : No

Subtitle #10
ID                                       : 12
Format                                   : UTF-8
Codec ID                                 : S_TEXT/UTF8
Codec ID/Info                            : UTF-8 Plain Text
Duration                                 : 1 h 48 min
Bit rate                                 : 52 b/s
Count of elements                        : 940
Stream size                              : 42.0 KiB (0%)
Language                                 : Greek
Default                                  : No
Forced                                   : No

Subtitle #11
ID                                       : 13
Format                                   : UTF-8
Codec ID                                 : S_TEXT/UTF8
Codec ID/Info                            : UTF-8 Plain Text
Duration                                 : 1 h 56 min
Bit rate                                 : 35 b/s
Count of elements                        : 1043
Stream size                              : 30.0 KiB (0%)
Language                                 : Indonesian
Default                                  : No
Forced                                   : No

Subtitle #12
ID                                       : 14
Format                                   : UTF-8
Codec ID                                 : S_TEXT/UTF8
Codec ID/Info                            : UTF-8 Plain Text
Duration                                 : 1 h 51 min
Bit rate                                 : 26 b/s
Count of elements                        : 835
Stream size                              : 21.3 KiB (0%)
Language                                 : Norwegian
Default                                  : No
Forced                                   : No

Subtitle #13
ID                                       : 15
Format                                   : UTF-8
Codec ID                                 : S_TEXT/UTF8
Codec ID/Info                            : UTF-8 Plain Text
Duration                                 : 1 h 51 min
Bit rate                                 : 33 b/s
Count of elements                        : 834
Stream size                              : 27.1 KiB (0%)
Language                                 : Swedish
Default                                  : No
Forced                                   : No

Subtitle #14
ID                                       : 16
Format                                   : UTF-8
Codec ID                                 : S_TEXT/UTF8
Codec ID/Info                            : UTF-8 Plain Text
Duration                                 : 1 h 56 min
Bit rate                                 : 64 b/s
Count of elements                        : 917
Stream size                              : 54.9 KiB (0%)
Language                                 : Thai
Default                                  : No
Forced                                   : No

Subtitle #15
ID                                       : 17
Format                                   : UTF-8
Codec ID                                 : S_TEXT/UTF8
Codec ID/Info                            : UTF-8 Plain Text
Duration                                 : 1 h 54 min
Bit rate                                 : 45 b/s
Count of elements                        : 1044
Stream size                              : 38.0 KiB (0%)
Language                                 : Vietnamese
Default                                  : No
Forced                                   : No

Menu
00:00:00.000                             : en:Chapter 01
00:06:05.156                             : en:Chapter 02
00:11:25.351                             : en:Chapter 03
00:17:12.114                             : en:Chapter 04
00:23:24.653                             : en:Chapter 05
00:29:31.520                             : en:Chapter 06
00:36:07.791                             : en:Chapter 07
00:41:07.757                             : en:Chapter 08
00:48:08.302                             : en:Chapter 09
00:55:43.257                             : en:Chapter 10
01:03:00.318                             : en:Chapter 11
01:07:49.357                             : en:Chapter 12
01:14:25.294                             : en:Chapter 13
01:20:12.016                             : en:Chapter 14
01:25:25.954                             : en:Chapter 15
01:29:44.045                             : en:Chapter 16
01:35:21.674                             : en:Chapter 17
01:40:54.548                             : en:Chapter 18
01:47:36.909                             : en:Chapter 19
01:52:14.394                             : en:Chapter 20



Source Information
Release: Us.2019.2160p.BluRay.x265.10bit.SDR.DTS-HD.MA.TrueHD.7.1.Atmos-SWTYBLZ.mkv (23.94 GBs)


Note From UTR
We have no issue with individuals posting or re-uploading our torrents on a platform we aren't on. However, if this is something you'd like to do, please do so in a 'as-is' format. We ask that you do not create a new torrent, include all descriptions you see above including the UTR logo, tags, notes and screenshots. If you'd like to become a permanent poster on a website we don't post to, feel free to get in contact with a UniTeam member.

If possible please donate: BTC 1QA5fum5AyXvWzdVCkQzUNvw3Ef15fHRaR




Category:Movies > HEVC/x265
Lang:English  English
Total Size:5.30 GB
Info Hash:9729839f6687e2467b9a2a3703eb0e34c373ca8a
Added By:UTR
Date Added:06-07-2019 04:25:19

Files

File List: 
 File Size
Us 2019 (2160p x265 10bit S95 Joy).mkv5.30 GB



Loading...
Comments

There are currently no comments. Be the first one to write something !