Lincoln Rhyme Hunt for the Bone Collector S01E02 Gemini Man 2019 Dolittle 2020 curb your enthusiasm s10e01 countdown 2019 Terminator Dark Fate 2019 midway Richard Jewell 2019 Knives Out 2019 Avenue 5 hustlers 2019 Black and Blue 2019 Bad Boys for Life 2020 Bombshell 2019 parasite Batwoman s01e10 ray donovan A Fall From Grace 2020 xxx rq.mp4 9-1-1 Lone Star S01E01 The Gentlemen 2020 The New Pope Ettv vikings shameless s10e11 Harriet 2019 The Outsider Hindi Maleficent Mistress of Evil 2019 Power S06E13 Like a Boss 2020 Midway 2019 the outsider s01e01 Vikings S06E07 Ford v Ferrari 2019 Ad Astra 2019 Sex education etmovies doctor who evo Frozen II 2019 Underwater 2020 21 Bridges 2019 Joker 2019 parasite 2019 Avenue 5 S01E01 Doctor Who S12E04 Supergirl supergirl s05e10 Motherless Brooklyn 2019 Just Mercy 2019 Jumanji The Next Level 2019 The Real Housewives of Atlanta S12E12 Once Upon a Time... in Hollywood 2019 Little Women 2019 Jojo Rabbit 2019 Charlies Angels 2019 uncut gems 2019 ray donovan s07e10 dvdscr The Outsider S01E03 star wars the rise of skywalker 2019 1917 2019 zombieland double tap 2019 shameless etrg 0 ethd ddr batwoman yts 
Warning! Use a V.P.N When Downloading Torrents!
Your IP Address is 18.210.24.208. Location is United States
Your Internet Provider is tracking your torrent activity! Hide your IP ADDRESS with a V.P.N!
We strongly recommend using ExpressV.P.N to anonymize your torrenting. 30 Day Money Back Guarantee!
Try it Now!
ETTV Recommended TV Shows
9-1-1.Lone.Star.S01E02.WEB.x264-XLF[ettv] torrent
Bull.2016.S04E12.HDTV.x264-KILLERS[ettv] torrent
The.New.Pope.S01E02.WEB.H264-XLF[ettv] torrent
Prodigal.Son.S01E11.iNTERNAL.WEB.x264-TRUMP[ettv] torrent
Manifest.S02E03.HDTV.x264-SVA[ettv] torrent
The.Good.Doctor.S03E12.HDTV.x264-SVA[ettv] torrent

ETTV Recommended SD
Midway.2019.HDRip.XviD-EVO torrent
Break.2019.HDRip.XviD.AC3-EVO torrent
Bait.2019.HDRip.XviD.AC3-EVO torrent
Theresa.and.Allison.2019.HDRip.XviD.AC3-EVO torrent

ETTV Recommended HD
The.Velocipastor.2018.1080p.AMZN.WEB-DL.DDP2.0.H.264-TeeHee[EtHD] torrent
Theresa.Allison.2019.1080p.AMZN.WEB-WEB-Rip.DDP.2.0.HEVC-DDR[EtHD] torrent
A.Haunting.on.Brockway.Street.2019.720p.AMZN.WEB-DL.x264.AAC-ETRG torrent
Playing.with.Fire.2019.720p.WEB-DL.x264.AAC-ETRG torrent

ETTV Recommended UHD
Togo 2019.4K.HDR.2160p.WEBDL Sub Ita x265-NAHOM torrent
The.Witcher.S01.2160p.HDR.NF.WEBRip.DDP.Atmos.5.1.x265-TrollUHD torrent
Troop.Zero.2020.2160p.NF.WEBRip.DDP5.1.x264-AJP69 torrent
Pan's.Labyrinth.2006.4K.HDR.2160p.BDRip Ita Spa x265-NAHOM torrent

ETTV Recommended Cam
Dolittle 2020 HDCAM x264 AC3-ETRG torrent
Seberg 2019 HDCAM x264 AC3-ETRG torrent
The Grudge 2020 720p HDTC-GETB8 torrent
Bad Boys for Life 2020 HDCAM x264 AC3-ETRG torrent

ETTV Recommended Foreign
Laali Ki Shaadi Mein Laaddoo Deewana 2017 Hindi.1080p.WEB-Rip.1080p.AAC.2.0.HEVC-DDR[EtHD] torrent
Dear Comrade 2019 Hindi 720p WEBRip AAC x264 - MoviePirate - Telly.mkv torrent
Black and Blue (2019).720p.H264.ita.eng.Ac3-5.1.sub.ita.eng-MIRCrew torrent
Motichoor.Chaknachoor.2019.1080p.NF.WEB-DL.DD+5.1.x264-Telly torrent


Download Torrent "Us (2019) (1080p BluRay x265 HEVC 10bit AAC 7.1 Q22 Joy) [UTR]"

IMDB Details
Description:

A family's serene beach vacation turns to chaos when their doppelgängers appear and begin to terrorize them.

Genre:

Horror, Mystery, Thriller

Download Torrent (Magnet)
Download Torrent (File)
Seeds: 346
Leechers: 5
Completed: 4,817 
Last Checked: 06-07-2019 04:26:16


Loading...
Details
Title:Us (2019) (1080p BluRay x265 HEVC 10bit AAC 7.1 Q22 Joy) [UTR]
Description:


Media Information
Media Information
General
Format                                   : Matroska
Format version                           : Version 4 / Version 2
File size                                : 1.39 GiB
Duration                                 : 1 h 56 min
Overall bit rate                         : 1 709 kb/s
Movie name                               : Us 2019  (1080p x265 q22 S92 Joy)[UTR]
Encoded date                             : UTC 2019-07-01 08:08:36
Writing application                      : mkvmerge v32.0.0 ('Astral Progressions') 64-bit
Writing library                          : libebml v1.3.7 + libmatroska v1.5.0
Writing frontend                         : StaxRip v2.0.2.0, Encoded by JoyBell

Video
ID                                       : 1
Format                                   : HEVC
Format/Info                              : High Efficiency Video Coding
Format profile                           : Main [email protected]@Main
Codec ID                                 : V_MPEGH/ISO/HEVC
Duration                                 : 1 h 56 min
Bit rate                                 : 1 269 kb/s
Width                                    : 1 920 pixels
Height                                   : 800 pixels
Display aspect ratio                     : 2.40:1
Frame rate mode                          : Constant
Frame rate                               : 23.976 (24000/1001) FPS
Color space                              : YUV
Chroma subsampling                       : 4:2:0
Bit depth                                : 10 bits
Bits/(Pixel*Frame)                       : 0.034
Stream size                              : 1.03 GiB (74%)
Writing library                          : x265 3.0_Au+24-4217e691387c:[Windows][GCC 9.1.1][64 bit] 10bit
Encoding settings                        : rc=crf / crf=21.5000 / qcomp=0.60 / qpstep=4 / stats-write=0 / stats-read=0 / qpmax=69 / qpmin=0 / no-lossless / no-cu-lossless / no-hevc-aq / no-aq-motion / aq-mode=1 / aq-strength=1.00 / cbqpoffs=0 / crqpoffs=0 / ipratio=1.40 / pbratio=1.30 / psy-rd=2.50 / psy-rdoq=1.50 / deblock=-2:-2 / ref=4 / limit-refs=3 / limit-modes / bframes=8 / b-adapt=2 / bframe-bias=20 / b-pyramid / no-b-intra / weightp / no-weightb / keyint=250 / min-keyint=23 / rc-lookahead=80 / gop-lookahead=0 / scenecut=40 / scenecut-bias=0.05 / ctu=64 / min-cu-size=8 / me=3 / subme=5 / merange=57 / rd=5 / no-rd-refine / ssim-rd / dynamic-rd=0.00 / rdoq-level=2 / rdpenalty=0 / cutree / sao / no-limit-sao / sao-non-deblock / rect / no-amp / open-gop / max-tu-size=32 / tu-inter-depth=1 / tu-intra-depth=1 / limit-tu=0 / qg-size=32 / wpp / no-pmode / no-pme / no-psnr / ssim / no-tskip / constrained-intra / strong-intra-smoothing / max-merge=5 / nr-intra=0 / nr-inter=0 / input-csp=1 / input-res=1920x800 / interlace=0 / total-frames=167549 / level-idc=0 / high-tier=1cpuid=1111039 / frame-threads=4 / numa-pools=16 / log-level=2 / uhd-bd=0 / lookahead-slices=4 / radl=0 / no-splice / no-intra-refresh / signhide / temporal-mvp / no-analyze-src-pics / early-skip / rskip / no-fast-intra / no-tskip-fast / splitrd-skip / zone-count=0 / no-strict-cbr / no-rc-grain / no-const-vbv / no-allow-non-conformance / no-repeat-headers / annexb / no-aud / no-hrd / info / hash=0 / no-temporal-layers / sar=0 / overscan=0 / videoformat=5 / range=0 / colorprim=2 / transfer=2 / colormatrix=2 / chromaloc=0 / display-window=0 / max-cll=0,0 / min-luma=0 / max-luma=1023 / log2-max-poc-lsb=8 / vui-timing-info / vui-hrd-info / slices=1 / no-opt-qp-pps / no-opt-ref-list-length-pps / no-multi-pass-opt-rps / no-opt-cu-delta-qp / no-hdr / no-hdr-opt / no-dhdr10-opt / no-idr-recovery-sei / analysis-reuse-level=5 / scale-factor=0 / refine-intra=0 / refine-inter=0 / refine-mv=0 / refine-ctu-distortion=0 / ctu-info=0 / no-lowpass-dct / refine-analysis-type=0 / copy-pic=1 / max-ausize-factor=1.0 / no-dynamic-refine / no-single-sei / no-svt / qp-adaptation-range=1.00
Default                                  : Yes
Forced                                   : No

Audio
ID                                       : 2
Format                                   : AAC
Format/Info                              : Advanced Audio Codec
Format profile                           : LC
Codec ID                                 : A_AAC
Duration                                 : 1 h 56 min
Bit rate                                 : 410 kb/s
Channel(s)                               : 8 channels
Channel positions                        : Front: L C R, Side: L R, Back: L R, LFE
Sampling rate                            : 48.0 kHz
Frame rate                               : 46.875 FPS (1024 spf)
Compression mode                         : Lossy
Delay relative to video                  : 9 ms
Stream size                              : 341 MiB (24%)
Language                                 : English
Default                                  : No
Forced                                   : No

Subtitle #1
ID                                       : 3
Format                                   : PGS
Muxing mode                              : zlib
Codec ID                                 : S_HDMV/PGS
Codec ID/Info                            : Picture based subtitle format used on BDs/HD-DVDs
Duration                                 : 1 h 53 min
Bit rate                                 : 35.4 kb/s
Count of elements                        : 2751
Stream size                              : 28.8 MiB (2%)
Language                                 : English
Default                                  : No
Forced                                   : No

Subtitle #2
ID                                       : 4
Format                                   : UTF-8
Codec ID                                 : S_TEXT/UTF8
Codec ID/Info                            : UTF-8 Plain Text
Duration                                 : 1 h 52 min
Bit rate                                 : 38 b/s
Count of elements                        : 1065
Stream size                              : 31.6 KiB (0%)
Language                                 : English
Default                                  : No
Forced                                   : No

Subtitle #3
ID                                       : 5
Format                                   : VobSub
Muxing mode                              : zlib
Codec ID                                 : S_VOBSUB
Codec ID/Info                            : Picture based subtitle format used on DVDs
Duration                                 : 1 h 55 min
Bit rate                                 : 5 082 b/s
Count of elements                        : 904
Stream size                              : 4.20 MiB (0%)
Language                                 : French
Default                                  : No
Forced                                   : No

Subtitle #4
ID                                       : 6
Format                                   : VobSub
Muxing mode                              : zlib
Codec ID                                 : S_VOBSUB
Codec ID/Info                            : Picture based subtitle format used on DVDs
Duration                                 : 1 h 55 min
Bit rate                                 : 5 721 b/s
Count of elements                        : 1050
Stream size                              : 4.73 MiB (0%)
Language                                 : Spanish
Default                                  : No
Forced                                   : No

Subtitle #5
ID                                       : 7
Format                                   : UTF-8
Codec ID                                 : S_TEXT/UTF8
Codec ID/Info                            : UTF-8 Plain Text
Duration                                 : 1 h 55 min
Bit rate                                 : 46 b/s
Count of elements                        : 996
Stream size                              : 39.1 KiB (0%)
Language                                 : Arabic
Default                                  : No
Forced                                   : No

Subtitle #6
ID                                       : 8
Format                                   : UTF-8
Codec ID                                 : S_TEXT/UTF8
Codec ID/Info                            : UTF-8 Plain Text
Duration                                 : 1 h 51 min
Bit rate                                 : 26 b/s
Count of elements                        : 705
Stream size                              : 21.4 KiB (0%)
Language                                 : Danish
Default                                  : No
Forced                                   : No

Subtitle #7
ID                                       : 9
Format                                   : UTF-8
Codec ID                                 : S_TEXT/UTF8
Codec ID/Info                            : UTF-8 Plain Text
Duration                                 : 1 h 51 min
Bit rate                                 : 25 b/s
Count of elements                        : 597
Stream size                              : 20.8 KiB (0%)
Language                                 : Dutch
Default                                  : No
Forced                                   : No

Subtitle #8
ID                                       : 10
Format                                   : UTF-8
Codec ID                                 : S_TEXT/UTF8
Codec ID/Info                            : UTF-8 Plain Text
Duration                                 : 1 h 49 min
Bit rate                                 : 61 b/s
Count of elements                        : 1043
Stream size                              : 49.6 KiB (0%)
Language                                 : Persian
Default                                  : No
Forced                                   : No

Subtitle #9
ID                                       : 11
Format                                   : UTF-8
Codec ID                                 : S_TEXT/UTF8
Codec ID/Info                            : UTF-8 Plain Text
Duration                                 : 1 h 51 min
Bit rate                                 : 23 b/s
Count of elements                        : 702
Stream size                              : 19.1 KiB (0%)
Language                                 : Finnish
Default                                  : No
Forced                                   : No

Subtitle #10
ID                                       : 12
Format                                   : UTF-8
Codec ID                                 : S_TEXT/UTF8
Codec ID/Info                            : UTF-8 Plain Text
Duration                                 : 1 h 48 min
Bit rate                                 : 52 b/s
Count of elements                        : 940
Stream size                              : 42.0 KiB (0%)
Language                                 : Greek
Default                                  : No
Forced                                   : No

Subtitle #11
ID                                       : 13
Format                                   : UTF-8
Codec ID                                 : S_TEXT/UTF8
Codec ID/Info                            : UTF-8 Plain Text
Duration                                 : 1 h 56 min
Bit rate                                 : 35 b/s
Count of elements                        : 1043
Stream size                              : 30.0 KiB (0%)
Language                                 : Indonesian
Default                                  : No
Forced                                   : No

Subtitle #12
ID                                       : 14
Format                                   : UTF-8
Codec ID                                 : S_TEXT/UTF8
Codec ID/Info                            : UTF-8 Plain Text
Duration                                 : 1 h 51 min
Bit rate                                 : 26 b/s
Count of elements                        : 835
Stream size                              : 21.3 KiB (0%)
Language                                 : Norwegian
Default                                  : No
Forced                                   : No

Subtitle #13
ID                                       : 15
Format                                   : UTF-8
Codec ID                                 : S_TEXT/UTF8
Codec ID/Info                            : UTF-8 Plain Text
Duration                                 : 1 h 51 min
Bit rate                                 : 33 b/s
Count of elements                        : 834
Stream size                              : 27.1 KiB (0%)
Language                                 : Swedish
Default                                  : No
Forced                                   : No

Subtitle #14
ID                                       : 16
Format                                   : UTF-8
Codec ID                                 : S_TEXT/UTF8
Codec ID/Info                            : UTF-8 Plain Text
Duration                                 : 1 h 56 min
Bit rate                                 : 64 b/s
Count of elements                        : 917
Stream size                              : 54.9 KiB (0%)
Language                                 : Thai
Default                                  : No
Forced                                   : No

Subtitle #15
ID                                       : 17
Format                                   : UTF-8
Codec ID                                 : S_TEXT/UTF8
Codec ID/Info                            : UTF-8 Plain Text
Duration                                 : 1 h 54 min
Bit rate                                 : 45 b/s
Count of elements                        : 1044
Stream size                              : 38.0 KiB (0%)
Language                                 : Vietnamese
Default                                  : No
Forced                                   : No

Menu
00:00:00.000                             : en:Chapter 01
00:06:05.156                             : en:Chapter 02
00:11:25.351                             : en:Chapter 03
00:17:12.114                             : en:Chapter 04
00:23:24.653                             : en:Chapter 05
00:29:31.520                             : en:Chapter 06
00:36:07.791                             : en:Chapter 07
00:41:07.757                             : en:Chapter 08
00:48:08.302                             : en:Chapter 09
00:55:43.257                             : en:Chapter 10
01:03:00.318                             : en:Chapter 11
01:07:49.357                             : en:Chapter 12
01:14:25.294                             : en:Chapter 13
01:20:12.016                             : en:Chapter 14
01:25:25.954                             : en:Chapter 15
01:29:44.045                             : en:Chapter 16
01:35:21.674                             : en:Chapter 17
01:40:54.548                             : en:Chapter 18
01:47:36.909                             : en:Chapter 19
01:52:14.394                             : en:Chapter 20



Source Information
Release: Us.2019.2160p.BluRay.x265.10bit.SDR.DTS-HD.MA.TrueHD.7.1.Atmos-SWTYBLZ.mkv (23.94 GBs)



Note From UTR
We have no issue with individuals posting or re-uploading our torrents on a platform we aren't on. However, if this is something you'd like to do, please do so in a 'as-is' format. We ask that you do not create a new torrent, include all descriptions you see above including the UTR logo, tags, notes and screenshots. If you'd like to become a permanent poster on a website we don't post to, feel free to get in contact with a UniTeam member.

If possible please donate: BTC 1QA5fum5AyXvWzdVCkQzUNvw3Ef15fHRaR




Category:Movies > HEVC/x265
Lang:English  English
Total Size:1.39 GB
Info Hash:cf6380e649e9de9d1ead70edc3a5f6653ef1cfdc
Added By:UTR
Date Added:06-07-2019 04:26:13

Files

File List: 
 File Size
Us 2019 (1080p x265 q22 S92 Joy).mkv1.39 GB



Loading...
Comments

There are currently no comments. Be the first one to write something !