motogp yellowstone suits avengers endgame 2019 the hustle 2019 ma 2019 hellboy 2019 big bang theory español kabir singh dora and the lost city of gold 2019 john wick chapter 3 – parabellum 2019 ethd Hard Knocks s14e03 47 meters down uncaged 2019 godzilla king of the monsters 2019 the angry birds movie 2 2019 the boys aladdin angel has fallen 2019 etrg sextuplets 2019 yts dark phoenix Xxx etmovies men in black international 2019 the lion king 2019 annabelle comes home 2019 2.0 (2018) dark phoenix 2019 toy story 4 2019 幼女 snowfall s03e07 night hunter 2019 13 reasons why s03 yellowstone s02e09 men in black international 0 13 reasons why crawl 2019 ettv shazam 2019 evo Fear the Walking Dead hindi once upon a time in hollywood 2019 good boys 2019 men in black Mindhunter Article 15 aladdin 2019 brightburn 2019 ready or not 2019 preacher the kitchen 2019 Killjoys  avengers endgame Killjoys s05e06 queen of the south s04e12 spider man far from home 2019 queen of the south 13 reasons why season 3 suits s09e06 John wick 3 fast furious presents hobbs shaw 2019 midsommar 2019 scary stories to tell in the dark 2019 Angel Has Fallen the secret life of pets 2 2019 ddr john wick 
Warning! Use a VPN When Downloading Torrents!
Your IP Address is 34.236.190.216. Location is United States
Your Internet Provider is tracking your torrent activity! Hide your IP ADDRESS with a VPN!
We strongly recommend using ExpressVPN to anonymize your torrenting. 30 Day Money Back Guarantee!
Try it Now!
ETTV Recommended TV Shows
Queen.of.the.South.S04E12.HDTV.x264-SVA[ettv] torrent
Preacher.S04E05.WEB.h264-TBS[ettv] torrent
Fear.the.Walking.Dead.S05E11.WEB.h264-TBS[ettv] torrent
Killjoys.S05E06.WEB.x264-TBS[ettv] torrent

ETTV Recommended SD
Status Pending.2019.HDRip.XviD.AC3-EVO[EtMovies] torrent
Sweet Inspirations.2019.HDRip.XviD.AC3-EVO[EtMovies] torrent
Aladdin.2019.BRRip.XviD.AC3-EVO[EtMovies] torrent
Booksmart.2019.BRRip.XviD.AC3-EVO torrent

ETTV Recommended HD
Men.in.Black.International.2019.1080p.BluRay.x264-GECKOS[EtHD] torrent
John.Wick.Chapter.3.Parabellum.2019.1080p.AMZN.WEB-DL.DDP5.1.H.264-NTG[EtHD] torrent
Astro.Kid.2019.1080p.Bluray.x264-EVO[EtHD] torrent
Aladdin.2019.1080p.BluRay.x264-SPARKS[EtHD] torrent

ETTV Recommended UHD
Shadow 2018.USA.MULTi.UHD.2160p.BluRay.HDR.Atmos.7.1.HEVC-DDR torrent
The.Intruder.2019.2160p.HDR.WEBRip.DTS-HD.MA.5.1.HEVC-DDR[EtHD] torrent
The.Hustle.2019.2160p.WEBRip.SDR.DTS-HD.MA.7.1HEVC-DDR[EtHD] torrent
Men in Black International 2019.MULTi.UHD.BluRay.2160p.Atmos.7.1.HEVC-DDR torrent

ETTV Recommended Cam
Good Boys 2019 HDCAM x264 AC3-ETRG torrent
Crawl 2019 NEW HDCAM x264 AC3-ETRG torrent
Angel Has Fallen 2019 HDCAM x264 AC3-ETRG torrent
The Lion King 2019 NEW HDCAM x264 AC3-ETRG torrent

ETTV Recommended Foreign
Article.15.2019.1080p.NF.DL.H264.DDP.5.1.ESUBS.Telly torrent
No.Mercy.2019.MULTi.1080p.DTS-HDMA.5.1.HEVC-DDR[EtHD] torrent
Kobiety mafii 2 (2019)  [WEB-DL] [XviD-KiT] [Napisy PL] torrent
Kelebekler (2018) 1080p NF WEB-DL DDP5.1 H264 - TURG[EtHD] torrent


Download Torrent "Divorce (2016) S03E01 (1080p AMZN WEB-DL x265 HEVC 10bit AC3 5.1 Qman) [UTR..."

IMDB Details
Description:

A couple goes through a long, drawn-out divorce.

Genre:

Comedy, Drama

Download Torrent (Magnet)
Download Torrent (File)
Seeds: 17
Leechers: 34
Completed: 752 
Last Checked: 06-07-2019 04:29:42


Loading...
Details
Title:Divorce (2016) S03E01 (1080p AMZN WEB-DL x265 HEVC 10bit AC3 5.1 Qman) [UTR...
Description:






Media Information

Media Information
General
Format                                   : Matroska
Format version                           : Version 4 / Version 2
File size                                : 857 MiB
Duration                                 : 30 min 57 s
Overall bit rate                         : 3 869 kb/s
Encoded date                             : UTC 2019-07-03 15:44:30
Writing application                      : mkvmerge v30.1.0 ('Forever And More') 64-bit
Writing library                          : libebml v1.3.6 + libmatroska v1.4.9

Video
ID                                       : 1
Format                                   : HEVC
Format/Info                              : High Efficiency Video Coding
Format profile                           : Main [email protected]@Main
Codec ID                                 : V_MPEGH/ISO/HEVC
Duration                                 : 30 min 57 s
Bit rate                                 : 3 227 kb/s
Width                                    : 1 920 pixels
Height                                   : 1 080 pixels
Display aspect ratio                     : 16:9
Frame rate mode                          : Constant
Frame rate                               : 23.976 (24000/1001) FPS
Color space                              : YUV
Chroma subsampling                       : 4:2:0
Bit depth                                : 10 bits
Bits/(Pixel*Frame)                       : 0.065
Stream size                              : 715 MiB (83%)
Writing library                          : x265 3.0_Au+27-3f4fb9a2ac68:[Windows][MSVC 1920][64 bit] 10bit
Encoding settings                        : cpuid=1111039 / frame-threads=2 / numa-pools=4 / wpp / no-pmode / no-pme / no-psnr / no-ssim / log-level=2 / input-csp=1 / input-res=1920x1080 / interlace=0 / total-frames=44544 / level-idc=0 / high-tier=1 / uhd-bd=0 / ref=4 / no-allow-non-conformance / no-repeat-headers / annexb / no-aud / no-hrd / info / hash=0 / no-temporal-layers / open-gop / min-keyint=23 / keyint=250 / gop-lookahead=0 / bframes=8 / b-adapt=2 / b-pyramid / bframe-bias=0 / rc-lookahead=50 / lookahead-slices=4 / scenecut=40 / radl=0 / no-splice / no-intra-refresh / ctu=64 / min-cu-size=8 / no-rect / no-amp / max-tu-size=32 / tu-inter-depth=1 / tu-intra-depth=1 / limit-tu=0 / rdoq-level=2 / dynamic-rd=0.00 / no-ssim-rd / signhide / no-tskip / nr-intra=0 / nr-inter=0 / no-constrained-intra / no-strong-intra-smoothing / max-merge=3 / limit-refs=3 / limit-modes / me=3 / subme=3 / merange=57 / temporal-mvp / weightp / no-weightb / no-analyze-src-pics / deblock=1:1 / no-sao / no-sao-non-deblock / rd=4 / no-early-skip / no-rskip / no-fast-intra / no-tskip-fast / no-cu-lossless / no-b-intra / no-splitrd-skip / rdpenalty=0 / psy-rd=1.40 / psy-rdoq=1.00 / no-rd-refine / no-lossless / cbqpoffs=0 / crqpoffs=0 / rc=crf / crf=21.0 / qcomp=0.60 / qpstep=4 / stats-write=0 / stats-read=0 / ipratio=1.40 / pbratio=1.30 / aq-mode=2 / aq-strength=1.00 / cutree / zone-count=0 / no-strict-cbr / qg-size=32 / no-rc-grain / qpmax=69 / qpmin=0 / no-const-vbv / sar=0 / overscan=0 / videoformat=5 / range=0 / colorprim=2 / transfer=2 / colormatrix=2 / chromaloc=0 / display-window=0 / max-cll=0,0 / min-luma=0 / max-luma=1023 / log2-max-poc-lsb=8 / vui-timing-info / vui-hrd-info / slices=1 / no-opt-qp-pps / no-opt-ref-list-length-pps / no-multi-pass-opt-rps / scenecut-bias=0.05 / no-opt-cu-delta-qp / no-aq-motion / no-hdr / no-hdr-opt / no-dhdr10-opt / no-idr-recovery-sei / analysis-reuse-level=5 / scale-factor=0 / refine-intra=0 / refine-inter=0 / refine-mv=0 / refine-ctu-distortion=0 / no-limit-sao / ctu-info=0 / no-lowpass-dct / refine-analysis-type=0 / copy-pic=1 / max-ausize-factor=1.0 / no-dynamic-refine / no-single-sei / no-hevc-aq / no-svt / qp-adaptation-range=1.00
Language                                 : English
Default                                  : Yes
Forced                                   : No

Audio
ID                                       : 2
Format                                   : E-AC-3
Format/Info                              : Enhanced Audio Coding 3
Format settings, Endianness              : Big
Codec ID                                 : A_EAC3
Duration                                 : 30 min 57 s
Bit rate mode                            : Constant
Bit rate                                 : 640 kb/s
Channel(s)                               : 6 channels
Channel positions                        : Front: L C R, Side: L R, LFE
Sampling rate                            : 48.0 kHz
Frame rate                               : 187.500 FPS (256 spf)
Compression mode                         : Lossy
Delay relative to video                  : 28 ms
Stream size                              : 142 MiB (17%)
Language                                 : English
Default                                  : Yes
Forced                                   : No

Subtitle
ID                                       : 3
Format                                   : UTF-8
Codec ID                                 : S_TEXT/UTF8
Codec ID/Info                            : UTF-8 Plain Text
Duration                                 : 30 min 47 s
Bit rate                                 : 91 b/s
Count of elements                        : 692
Stream size                              : 20.6 KiB (0%)
Language                                 : English
Default                                  : Yes
Forced                                   : No



Source Information
Release: Unknown Source/NO-GROUP


Note From UTR
We have no issue with individuals posting or re-uploading our torrents on a platform we aren't on. However, if this is something you'd like to do, please do so in a 'as-is' format. We ask that you do not create a new torrent, include all descriptions you see above including the UTR logo, tags, notes and screenshots. If you'd like to become a permanent poster on a website we don't post to, feel free to get in contact with a UniTeam member.

If possible please donate: BTC 1QA5fum5AyXvWzdVCkQzUNvw3Ef15fHRaR




Category:TV > HEVC/x265
Lang:English  English
Total Size:857 MB
Info Hash:cdff9a9f5f8f8f0ef7de6ce83fcd208fe78dbd79
Added By:UTR
Date Added:06-07-2019 04:29:39

Files

File List: 
 File Size
Divorce.(2016).S03E01.1080p.AMZN.WEB-DL.x265.10bit.EAC3.6.0-Qman[UTR].mkv857 MB



Loading...
Comments

There are currently no comments. Be the first one to write something !