motogp yellowstone suits avengers endgame 2019 the hustle 2019 ma 2019 hellboy 2019 big bang theory español kabir singh dora and the lost city of gold 2019 john wick chapter 3 – parabellum 2019 ethd Hard Knocks s14e03 47 meters down uncaged 2019 godzilla king of the monsters 2019 the angry birds movie 2 2019 the boys aladdin angel has fallen 2019 etrg sextuplets 2019 yts dark phoenix Xxx etmovies men in black international 2019 the lion king 2019 annabelle comes home 2019 2.0 (2018) dark phoenix 2019 toy story 4 2019 幼女 snowfall s03e07 night hunter 2019 13 reasons why s03 yellowstone s02e09 men in black international 0 13 reasons why crawl 2019 ettv shazam 2019 evo Fear the Walking Dead hindi once upon a time in hollywood 2019 good boys 2019 men in black Mindhunter Article 15 aladdin 2019 brightburn 2019 ready or not 2019 preacher the kitchen 2019 Killjoys  avengers endgame Killjoys s05e06 queen of the south s04e12 spider man far from home 2019 queen of the south 13 reasons why season 3 suits s09e06 John wick 3 fast furious presents hobbs shaw 2019 midsommar 2019 scary stories to tell in the dark 2019 Angel Has Fallen the secret life of pets 2 2019 ddr john wick 
Warning! Use a VPN When Downloading Torrents!
Your IP Address is 34.236.190.216. Location is United States
Your Internet Provider is tracking your torrent activity! Hide your IP ADDRESS with a VPN!
We strongly recommend using ExpressVPN to anonymize your torrenting. 30 Day Money Back Guarantee!
Try it Now!
ETTV Recommended TV Shows
Queen.of.the.South.S04E12.HDTV.x264-SVA[ettv] torrent
Preacher.S04E05.WEB.h264-TBS[ettv] torrent
Fear.the.Walking.Dead.S05E11.WEB.h264-TBS[ettv] torrent
Killjoys.S05E06.WEB.x264-TBS[ettv] torrent

ETTV Recommended SD
Status Pending.2019.HDRip.XviD.AC3-EVO[EtMovies] torrent
Sweet Inspirations.2019.HDRip.XviD.AC3-EVO[EtMovies] torrent
Aladdin.2019.BRRip.XviD.AC3-EVO[EtMovies] torrent
Booksmart.2019.BRRip.XviD.AC3-EVO torrent

ETTV Recommended HD
Men.in.Black.International.2019.1080p.BluRay.x264-GECKOS[EtHD] torrent
John.Wick.Chapter.3.Parabellum.2019.1080p.AMZN.WEB-DL.DDP5.1.H.264-NTG[EtHD] torrent
Astro.Kid.2019.1080p.Bluray.x264-EVO[EtHD] torrent
Aladdin.2019.1080p.BluRay.x264-SPARKS[EtHD] torrent

ETTV Recommended UHD
Shadow 2018.USA.MULTi.UHD.2160p.BluRay.HDR.Atmos.7.1.HEVC-DDR torrent
The.Intruder.2019.2160p.HDR.WEBRip.DTS-HD.MA.5.1.HEVC-DDR[EtHD] torrent
The.Hustle.2019.2160p.WEBRip.SDR.DTS-HD.MA.7.1HEVC-DDR[EtHD] torrent
Men in Black International 2019.MULTi.UHD.BluRay.2160p.Atmos.7.1.HEVC-DDR torrent

ETTV Recommended Cam
Good Boys 2019 HDCAM x264 AC3-ETRG torrent
Crawl 2019 NEW HDCAM x264 AC3-ETRG torrent
Angel Has Fallen 2019 HDCAM x264 AC3-ETRG torrent
The Lion King 2019 NEW HDCAM x264 AC3-ETRG torrent

ETTV Recommended Foreign
Article.15.2019.1080p.NF.DL.H264.DDP.5.1.ESUBS.Telly torrent
No.Mercy.2019.MULTi.1080p.DTS-HDMA.5.1.HEVC-DDR[EtHD] torrent
Kobiety mafii 2 (2019)  [WEB-DL] [XviD-KiT] [Napisy PL] torrent
Kelebekler (2018) 1080p NF WEB-DL DDP5.1 H264 - TURG[EtHD] torrent


Download Torrent "Van Damme 4 Cyborg (1989) (1080p BluRay x265 HEVC 10bit AAC 2.0 Qman) [UTR]"

IMDB Details
Description:

N/A

Genre:

N/A

Download Torrent (Magnet)
Download Torrent (File)
Seeds: 70
Leechers: 1
Completed: 1,667 
Last Checked: 06-07-2019 04:33:55


Loading...
Details
Title:Van Damme 4 Cyborg (1989) (1080p BluRay x265 HEVC 10bit AAC 2.0 Qman) [UTR]
Description:







Media Information

Media Information
General
Format                                   : Matroska
Format version                           : Version 4 / Version 2
File size                                : 3.87 GiB
Duration                                 : 1 h 26 min
Overall bit rate                         : 6 408 kb/s
Encoded date                             : UTC 2017-05-09 14:28:49
Writing application                      : mkvmerge v10.0.0 ('To Drown In You') 64bit
Writing library                          : libebml v1.3.4 + libmatroska v1.4.5

Video
ID                                       : 1
Format                                   : HEVC
Format/Info                              : High Efficiency Video Coding
Format profile                           : Main [email protected]@Main
Codec ID                                 : V_MPEGH/ISO/HEVC
Duration                                 : 1 h 26 min
Bit rate                                 : 6 182 kb/s
Width                                    : 1 920 pixels
Height                                   : 1 080 pixels
Display aspect ratio                     : 16:9
Frame rate mode                          : Constant
Frame rate                               : 23.976 (24000/1001) FPS
Color space                              : YUV
Chroma subsampling                       : 4:2:0
Bit depth                                : 10 bits
Bits/(Pixel*Frame)                       : 0.124
Stream size                              : 3.73 GiB (96%)
Writing library                          : x265 2.4+2-5bc5e73760cd:[Windows][MSVC 1910][64 bit] 10bit
Encoding settings                        : cpuid=1173503 / frame-threads=2 / numa-pools=4 / wpp / no-pmode / no-pme / no-psnr / no-ssim / log-level=2 / input-csp=1 / input-res=1920x1080 / interlace=0 / total-frames=124283 / level-idc=0 / high-tier=1 / uhd-bd=0 / ref=4 / no-allow-non-conformance / no-repeat-headers / annexb / no-aud / no-hrd / info / hash=0 / no-temporal-layers / open-gop / min-keyint=23 / keyint=250 / bframes=8 / b-adapt=2 / b-pyramid / bframe-bias=0 / rc-lookahead=50 / lookahead-slices=4 / scenecut=40 / no-intra-refresh / ctu=64 / min-cu-size=8 / no-rect / no-amp / max-tu-size=32 / tu-inter-depth=1 / tu-intra-depth=1 / limit-tu=0 / rdoq-level=2 / dynamic-rd=0.00 / no-ssim-rd / signhide / no-tskip / nr-intra=0 / nr-inter=0 / no-constrained-intra / no-strong-intra-smoothing / max-merge=3 / limit-refs=3 / limit-modes / me=3 / subme=5 / merange=57 / temporal-mvp / weightp / no-weightb / no-analyze-src-pics / deblock=-3:-3 / no-sao / no-sao-non-deblock / rd=4 / no-early-skip / no-rskip / no-fast-intra / no-tskip-fast / no-cu-lossless / b-intra / rdpenalty=0 / psy-rd=0.50 / psy-rdoq=5.00 / no-rd-refine / analysis-mode=0 / no-lossless / cbqpoffs=0 / crqpoffs=0 / rc=crf / crf=19.5 / qcomp=0.60 / qpstep=4 / stats-write=0 / stats-read=0 / ipratio=1.40 / pbratio=1.30 / aq-mode=2 / aq-strength=1.00 / cutree / zone-count=0 / no-strict-cbr / qg-size=32 / no-rc-grain / qpmax=69 / qpmin=0 / sar=0 / overscan=0 / videoformat=5 / range=0 / colorprim=2 / transfer=2 / colormatrix=2 / chromaloc=0 / display-window=0 / max-cll=0,0 / min-luma=0 / max-luma=1023 / log2-max-poc-lsb=8 / vui-timing-info / vui-hrd-info / slices=1 / opt-qp-pps / opt-ref-list-length-pps / no-multi-pass-opt-rps / scenecut-bias=0.05 / no-opt-cu-delta-qp / no-aq-motion / no-hdr / no-hdr-opt / no-dhdr10-opt / refine-level=5 / no-limit-sao
Language                                 : English
Default                                  : Yes
Forced                                   : No

Audio
ID                                       : 2
Format                                   : AAC
Format/Info                              : Advanced Audio Codec
Format profile                           : LC
Codec ID                                 : A_AAC
Duration                                 : 1 h 26 min
Bit rate                                 : 224 kb/s
Channel(s)                               : 2 channels
Channel positions                        : Front: L R
Sampling rate                            : 48.0 kHz
Frame rate                               : 46.875 FPS (1024 spf)
Compression mode                         : Lossy
Delay relative to video                  : 9 ms
Stream size                              : 138 MiB (3%)
Language                                 : English
Default                                  : Yes
Forced                                   : No

Menu
00:00:00.000                             : en:(01)00:00:00:000
00:00:25.191                             : en:(02)00:00:25:191
00:04:14.087                             : en:(03)00:04:14:087
00:05:24.699                             : en:(04)00:05:24:699
00:10:31.881                             : en:(05)00:10:31:881
00:16:20.479                             : en:(06)00:16:20:479
00:23:38.166                             : en:(07)00:23:38:166
00:28:52.814                             : en:(08)00:28:52:814
00:32:34.077                             : en:(09)00:32:34:077
00:36:01.074                             : en:(10)00:36:01:074
00:40:01.482                             : en:(11)00:40:01:482
00:46:34.917                             : en:(12)00:46:34:917
00:49:52.364                             : en:(13)00:49:52:364
00:55:11.725                             : en:(14)00:55:11:725
00:56:38.103                             : en:(15)00:56:38:103
00:59:36.614                             : en:(16)00:59:36:614
01:05:58.037                             : en:(17)01:05:58:037
01:09:25.035                             : en:(18)01:09:25:035
01:12:41.564                             : en:(19)01:12:41:564
01:19:29.723                             : en:(20)01:19:29:723
01:22:11.801                             : en:(21)01:22:11:801



Source Information
Release: Unknown Source/NO-GROUP




Note From UTR
We have no issue with individuals posting or re-uploading our torrents on a platform we aren't on. However, if this is something you'd like to do, please do so in a 'as-is' format. We ask that you do not create a new torrent, include all descriptions you see above including the UTR logo, tags, notes and screenshots. If you'd like to become a permanent poster on a website we don't post to, feel free to get in contact with a UniTeam member.

If possible please donate: BTC 1QA5fum5AyXvWzdVCkQzUNvw3Ef15fHRaR




Category:Movies > HEVC/x265
Lang:English  English
Total Size:3.87 GB
Info Hash:d7bf13b840171cc9d2e2dcd1ac8b4714511e7b8e
Added By:UTR
Date Added:06-07-2019 04:33:52

Files

File List: 
 File Size
Cyborg.(1989).1080p.BluRay.10-bit.x265.AAC.2.0 Qman[UTR].mkv3.87 GB



Loading...
Comments

There are currently no comments. Be the first one to write something !