Lincoln Rhyme Hunt for the Bone Collector S01E02 Gemini Man 2019 Dolittle 2020 curb your enthusiasm s10e01 countdown 2019 Terminator Dark Fate 2019 midway Richard Jewell 2019 Knives Out 2019 Avenue 5 hustlers 2019 Black and Blue 2019 Bad Boys for Life 2020 Bombshell 2019 parasite Batwoman s01e10 ray donovan A Fall From Grace 2020 xxx rq.mp4 9-1-1 Lone Star S01E01 The Gentlemen 2020 The New Pope Ettv vikings shameless s10e11 Harriet 2019 The Outsider Hindi Maleficent Mistress of Evil 2019 Power S06E13 Like a Boss 2020 Midway 2019 the outsider s01e01 Vikings S06E07 Ford v Ferrari 2019 Ad Astra 2019 Sex education etmovies doctor who evo Frozen II 2019 Underwater 2020 21 Bridges 2019 Joker 2019 parasite 2019 Avenue 5 S01E01 Doctor Who S12E04 Supergirl supergirl s05e10 Motherless Brooklyn 2019 Just Mercy 2019 Jumanji The Next Level 2019 The Real Housewives of Atlanta S12E12 Once Upon a Time... in Hollywood 2019 Little Women 2019 Jojo Rabbit 2019 Charlies Angels 2019 uncut gems 2019 ray donovan s07e10 dvdscr The Outsider S01E03 star wars the rise of skywalker 2019 1917 2019 zombieland double tap 2019 shameless etrg 0 ethd ddr batwoman yts 
Warning! Use a V.P.N When Downloading Torrents!
Your IP Address is 18.210.24.208. Location is United States
Your Internet Provider is tracking your torrent activity! Hide your IP ADDRESS with a V.P.N!
We strongly recommend using ExpressV.P.N to anonymize your torrenting. 30 Day Money Back Guarantee!
Try it Now!
ETTV Recommended TV Shows
9-1-1.Lone.Star.S01E02.WEB.x264-XLF[ettv] torrent
Bull.2016.S04E12.HDTV.x264-KILLERS[ettv] torrent
The.New.Pope.S01E02.WEB.H264-XLF[ettv] torrent
Prodigal.Son.S01E11.iNTERNAL.WEB.x264-TRUMP[ettv] torrent
Manifest.S02E03.HDTV.x264-SVA[ettv] torrent
The.Good.Doctor.S03E12.HDTV.x264-SVA[ettv] torrent

ETTV Recommended SD
Midway.2019.HDRip.XviD-EVO torrent
Break.2019.HDRip.XviD.AC3-EVO torrent
Bait.2019.HDRip.XviD.AC3-EVO torrent
Theresa.and.Allison.2019.HDRip.XviD.AC3-EVO torrent

ETTV Recommended HD
The.Velocipastor.2018.1080p.AMZN.WEB-DL.DDP2.0.H.264-TeeHee[EtHD] torrent
Theresa.Allison.2019.1080p.AMZN.WEB-WEB-Rip.DDP.2.0.HEVC-DDR[EtHD] torrent
A.Haunting.on.Brockway.Street.2019.720p.AMZN.WEB-DL.x264.AAC-ETRG torrent
Playing.with.Fire.2019.720p.WEB-DL.x264.AAC-ETRG torrent

ETTV Recommended UHD
Togo 2019.4K.HDR.2160p.WEBDL Sub Ita x265-NAHOM torrent
The.Witcher.S01.2160p.HDR.NF.WEBRip.DDP.Atmos.5.1.x265-TrollUHD torrent
Troop.Zero.2020.2160p.NF.WEBRip.DDP5.1.x264-AJP69 torrent
Pan's.Labyrinth.2006.4K.HDR.2160p.BDRip Ita Spa x265-NAHOM torrent

ETTV Recommended Cam
Dolittle 2020 HDCAM x264 AC3-ETRG torrent
Seberg 2019 HDCAM x264 AC3-ETRG torrent
The Grudge 2020 720p HDTC-GETB8 torrent
Bad Boys for Life 2020 HDCAM x264 AC3-ETRG torrent

ETTV Recommended Foreign
Laali Ki Shaadi Mein Laaddoo Deewana 2017 Hindi.1080p.WEB-Rip.1080p.AAC.2.0.HEVC-DDR[EtHD] torrent
Dear Comrade 2019 Hindi 720p WEBRip AAC x264 - MoviePirate - Telly.mkv torrent
Black and Blue (2019).720p.H264.ita.eng.Ac3-5.1.sub.ita.eng-MIRCrew torrent
Motichoor.Chaknachoor.2019.1080p.NF.WEB-DL.DD+5.1.x264-Telly torrent


Download Torrent "Shazam! (2019) (1080p BluRay x265 HEVC 10bit AAC 7.1 Joy) [UTR]"

IMDB Details
Description:

We all have a superhero inside us, it just takes a bit of magic to bring it out. In Billy Batson's case, by shouting out one word - SHAZAM. - this streetwise fourteen-year-old foster kid can turn into the grown-up superhero Shazam.

Genre:

Action, Adventure, Comedy, Fantasy

Download Torrent (Magnet)
Download Torrent (File)
Seeds: 414
Leechers: 192
Completed: 8,574 
Last Checked: 06-07-2019 04:39:22


Loading...
Details
Title:Shazam! (2019) (1080p BluRay x265 HEVC 10bit AAC 7.1 Joy) [UTR]
Description:


Media Information
Media Information
General
Format                                   : Matroska
Format version                           : Version 4 / Version 2
File size                                : 1.82 GiB
Duration                                 : 2 h 11 min
Overall bit rate                         : 1 974 kb/s
Movie name                               : Shazam! 2019  (1080p x265 10bit FS57 Joy)[UTR]
Encoded date                             : UTC 2019-07-03 06:27:01
Writing application                      : mkvmerge v32.0.0 ('Astral Progressions') 64-bit
Writing library                          : libebml v1.3.7 + libmatroska v1.5.0
Cover                                    : Yes
Attachments                              : cover.jpg
Writing frontend                         : StaxRip v2.0.2.0, a JoyBell Encode

Video
ID                                       : 1
Format                                   : HEVC
Format/Info                              : High Efficiency Video Coding
Format profile                           : Main [email protected]@Main
Codec ID                                 : V_MPEGH/ISO/HEVC
Duration                                 : 2 h 11 min
Bit rate                                 : 1 500 kb/s
Width                                    : 1 920 pixels
Height                                   : 800 pixels
Display aspect ratio                     : 2.40:1
Frame rate mode                          : Constant
Frame rate                               : 23.976 (24000/1001) FPS
Color space                              : YUV
Chroma subsampling                       : 4:2:0
Bit depth                                : 10 bits
Bits/(Pixel*Frame)                       : 0.041
Stream size                              : 1.38 GiB (76%)
Writing library                          : x265 3.0_Au+24-4217e691387c:[Windows][GCC 9.1.1][64 bit] 10bit
Encoding settings                        : rc=abr / bitrate=1500 / qcomp=0.60 / qpstep=4 / stats-write=0 / stats-read=2 / cplxblur=20.0 / qblur=0.5 / qpmax=69 / qpmin=0 / no-lossless / no-cu-lossless / no-hevc-aq / no-aq-motion / aq-mode=2 / aq-strength=0.80 / cbqpoffs=0 / crqpoffs=0 / ipratio=1.40 / pbratio=1.30 / psy-rd=0.00 / psy-rdoq=1.00 / deblock=0:0 / ref=4 / limit-refs=3 / limit-modes / bframes=8 / b-adapt=2 / bframe-bias=20 / b-pyramid / no-b-intra / weightp / no-weightb / keyint=250 / min-keyint=23 / rc-lookahead=120 / gop-lookahead=0 / scenecut=40 / scenecut-bias=0.05 / ctu=64 / min-cu-size=8 / me=3 / subme=5 / merange=57 / rd=4 / no-rd-refine / ssim-rd / dynamic-rd=0.00 / rdoq-level=2 / rdpenalty=0 / cutree / sao / limit-sao / no-sao-non-deblock / no-rect / no-amp / open-gop / max-tu-size=32 / tu-inter-depth=1 / tu-intra-depth=1 / limit-tu=0 / qg-size=32 / wpp / no-pmode / no-pme / no-psnr / ssim / no-tskip / constrained-intra / strong-intra-smoothing / max-merge=5 / nr-intra=0 / nr-inter=0 / input-csp=1 / input-res=1920x800 / interlace=0 / total-frames=189485 / level-idc=0 / high-tier=1cpuid=1111039 / frame-threads=3 / numa-pools=12 / log-level=2 / uhd-bd=0 / lookahead-slices=4 / radl=0 / no-splice / no-intra-refresh / signhide / temporal-mvp / no-analyze-src-pics / no-early-skip / rskip / no-fast-intra / no-tskip-fast / no-splitrd-skip / zone-count=0 / no-strict-cbr / no-rc-grain / no-const-vbv / no-allow-non-conformance / no-repeat-headers / annexb / no-aud / no-hrd / info / hash=0 / no-temporal-layers / sar=0 / overscan=0 / videoformat=5 / range=0 / colorprim=2 / transfer=2 / colormatrix=1 / chromaloc=0 / display-window=0 / max-cll=0,0 / min-luma=0 / max-luma=1023 / log2-max-poc-lsb=8 / vui-timing-info / vui-hrd-info / slices=1 / no-opt-qp-pps / no-opt-ref-list-length-pps / multi-pass-opt-rps / no-opt-cu-delta-qp / no-hdr / no-hdr-opt / no-dhdr10-opt / no-idr-recovery-sei / analysis-reuse-level=10 / scale-factor=0 / refine-intra=0 / refine-inter=0 / refine-mv=0 / refine-ctu-distortion=0 / ctu-info=0 / no-lowpass-dct / refine-analysis-type=0 / copy-pic=1 / max-ausize-factor=1.0 / no-dynamic-refine / no-single-sei / no-svt / qp-adaptation-range=1.00
Default                                  : Yes
Forced                                   : No
Color range                              : Limited
Matrix coefficients                      : BT.709

Audio
ID                                       : 2
Format                                   : AAC
Format/Info                              : Advanced Audio Codec
Format profile                           : LC
Codec ID                                 : A_AAC
Duration                                 : 2 h 11 min
Bit rate                                 : 338 kb/s
Channel(s)                               : 8 channels
Channel positions                        : Front: L C R, Side: L R, Back: L R, LFE
Sampling rate                            : 48.0 kHz
Frame rate                               : 46.875 FPS (1024 spf)
Compression mode                         : Lossy
Delay relative to video                  : 9 ms
Stream size                              : 319 MiB (17%)
Language                                 : English
Default                                  : No
Forced                                   : No

Subtitle #1
ID                                       : 3
Format                                   : PGS
Muxing mode                              : zlib
Codec ID                                 : S_HDMV/PGS
Codec ID/Info                            : Picture based subtitle format used on BDs/HD-DVDs
Duration                                 : 2 h 11 min
Bit rate                                 : 39.8 kb/s
Count of elements                        : 4310
Stream size                              : 37.4 MiB (2%)
Language                                 : English
Default                                  : No
Forced                                   : No

Subtitle #2
ID                                       : 4
Format                                   : VobSub
Muxing mode                              : zlib
Codec ID                                 : S_VOBSUB
Codec ID/Info                            : Picture based subtitle format used on DVDs
Duration                                 : 2 h 10 min
Bit rate                                 : 7 061 b/s
Count of elements                        : 1580
Stream size                              : 6.61 MiB (0%)
Language                                 : Chinese
Default                                  : No
Forced                                   : No

Subtitle #3
ID                                       : 5
Format                                   : VobSub
Muxing mode                              : zlib
Codec ID                                 : S_VOBSUB
Codec ID/Info                            : Picture based subtitle format used on DVDs
Duration                                 : 2 h 10 min
Bit rate                                 : 6 968 b/s
Count of elements                        : 1757
Stream size                              : 6.52 MiB (0%)
Language                                 : Chinese
Default                                  : No
Forced                                   : No

Subtitle #4
ID                                       : 6
Format                                   : VobSub
Muxing mode                              : zlib
Codec ID                                 : S_VOBSUB
Codec ID/Info                            : Picture based subtitle format used on DVDs
Duration                                 : 2 h 10 min
Bit rate                                 : 5 376 b/s
Count of elements                        : 1751
Stream size                              : 5.03 MiB (0%)
Language                                 : Korean
Default                                  : No
Forced                                   : No

Subtitle #5
ID                                       : 7
Format                                   : VobSub
Muxing mode                              : zlib
Codec ID                                 : S_VOBSUB
Codec ID/Info                            : Picture based subtitle format used on DVDs
Duration                                 : 2 h 10 min
Bit rate                                 : 4 799 b/s
Count of elements                        : 1757
Stream size                              : 4.49 MiB (0%)
Language                                 : Arabic
Default                                  : No
Forced                                   : No

Subtitle #6
ID                                       : 8
Format                                   : VobSub
Muxing mode                              : zlib
Codec ID                                 : S_VOBSUB
Codec ID/Info                            : Picture based subtitle format used on DVDs
Duration                                 : 2 h 10 min
Bit rate                                 : 7 728 b/s
Count of elements                        : 1759
Stream size                              : 7.23 MiB (0%)
Language                                 : Bulgarian
Default                                  : No
Forced                                   : No

Subtitle #7
ID                                       : 9
Format                                   : VobSub
Muxing mode                              : zlib
Codec ID                                 : S_VOBSUB
Codec ID/Info                            : Picture based subtitle format used on DVDs
Duration                                 : 2 h 10 min
Bit rate                                 : 8 194 b/s
Count of elements                        : 1744
Stream size                              : 7.67 MiB (0%)
Language                                 : Croatian
Default                                  : No
Forced                                   : No

Subtitle #8
ID                                       : 10
Format                                   : VobSub
Muxing mode                              : zlib
Codec ID                                 : S_VOBSUB
Codec ID/Info                            : Picture based subtitle format used on DVDs
Duration                                 : 2 h 10 min
Bit rate                                 : 8 106 b/s
Count of elements                        : 1751
Stream size                              : 7.59 MiB (0%)
Language                                 : Czech
Default                                  : No
Forced                                   : No

Subtitle #9
ID                                       : 11
Format                                   : VobSub
Muxing mode                              : zlib
Codec ID                                 : S_VOBSUB
Codec ID/Info                            : Picture based subtitle format used on DVDs
Duration                                 : 2 h 8 min
Bit rate                                 : 202 b/s
Count of elements                        : 39
Stream size                              : 190 KiB (0%)
Language                                 : Czech
Default                                  : No
Forced                                   : No

Subtitle #10
ID                                       : 12
Format                                   : VobSub
Muxing mode                              : zlib
Codec ID                                 : S_VOBSUB
Codec ID/Info                            : Picture based subtitle format used on DVDs
Duration                                 : 2 h 10 min
Bit rate                                 : 7 771 b/s
Count of elements                        : 1246
Stream size                              : 7.27 MiB (0%)
Language                                 : Danish
Default                                  : No
Forced                                   : No

Subtitle #11
ID                                       : 13
Format                                   : VobSub
Muxing mode                              : zlib
Codec ID                                 : S_VOBSUB
Codec ID/Info                            : Picture based subtitle format used on DVDs
Duration                                 : 2 h 10 min
Bit rate                                 : 8 690 b/s
Count of elements                        : 1749
Stream size                              : 8.13 MiB (0%)
Language                                 : Estonian
Default                                  : No
Forced                                   : No

Subtitle #12
ID                                       : 14
Format                                   : VobSub
Muxing mode                              : zlib
Codec ID                                 : S_VOBSUB
Codec ID/Info                            : Picture based subtitle format used on DVDs
Duration                                 : 2 h 10 min
Bit rate                                 : 7 271 b/s
Count of elements                        : 1748
Stream size                              : 6.80 MiB (0%)
Language                                 : Finnish
Default                                  : No
Forced                                   : No

Subtitle #13
ID                                       : 15
Format                                   : VobSub
Muxing mode                              : zlib
Codec ID                                 : S_VOBSUB
Codec ID/Info                            : Picture based subtitle format used on DVDs
Duration                                 : 2 h 10 min
Bit rate                                 : 6 818 b/s
Count of elements                        : 1760
Stream size                              : 6.38 MiB (0%)
Language                                 : Hebrew
Default                                  : No
Forced                                   : No

Subtitle #14
ID                                       : 16
Format                                   : VobSub
Muxing mode                              : zlib
Codec ID                                 : S_VOBSUB
Codec ID/Info                            : Picture based subtitle format used on DVDs
Duration                                 : 2 h 10 min
Bit rate                                 : 8 482 b/s
Count of elements                        : 1728
Stream size                              : 7.94 MiB (0%)
Language                                 : Hungarian
Default                                  : No
Forced                                   : No

Subtitle #15
ID                                       : 17
Format                                   : VobSub
Muxing mode                              : zlib
Codec ID                                 : S_VOBSUB
Codec ID/Info                            : Picture based subtitle format used on DVDs
Duration                                 : 2 h 10 min
Bit rate                                 : 210 b/s
Count of elements                        : 38
Stream size                              : 202 KiB (0%)
Language                                 : Hungarian
Default                                  : No
Forced                                   : No

Subtitle #16
ID                                       : 18
Format                                   : VobSub
Muxing mode                              : zlib
Codec ID                                 : S_VOBSUB
Codec ID/Info                            : Picture based subtitle format used on DVDs
Duration                                 : 2 h 10 min
Bit rate                                 : 7 867 b/s
Count of elements                        : 1750
Stream size                              : 7.36 MiB (0%)
Language                                 : Latvian
Default                                  : No
Forced                                   : No

Subtitle #17
ID                                       : 19
Format                                   : VobSub
Muxing mode                              : zlib
Codec ID                                 : S_VOBSUB
Codec ID/Info                            : Picture based subtitle format used on DVDs
Duration                                 : 2 h 10 min
Bit rate                                 : 8 018 b/s
Count of elements                        : 1743
Stream size                              : 7.50 MiB (0%)
Language                                 : Lithuanian
Default                                  : No
Forced                                   : No

Subtitle #18
ID                                       : 20
Format                                   : VobSub
Muxing mode                              : zlib
Codec ID                                 : S_VOBSUB
Codec ID/Info                            : Picture based subtitle format used on DVDs
Duration                                 : 2 h 10 min
Bit rate                                 : 7 911 b/s
Count of elements                        : 1540
Stream size                              : 7.40 MiB (0%)
Language                                 : Norwegian Bokmal
Default                                  : No
Forced                                   : No

Subtitle #19
ID                                       : 21
Format                                   : VobSub
Muxing mode                              : zlib
Codec ID                                 : S_VOBSUB
Codec ID/Info                            : Picture based subtitle format used on DVDs
Duration                                 : 2 h 10 min
Bit rate                                 : 8 336 b/s
Count of elements                        : 1737
Stream size                              : 7.80 MiB (0%)
Language                                 : Portuguese
Default                                  : No
Forced                                   : No

Subtitle #20
ID                                       : 22
Format                                   : VobSub
Muxing mode                              : zlib
Codec ID                                 : S_VOBSUB
Codec ID/Info                            : Picture based subtitle format used on DVDs
Duration                                 : 2 h 10 min
Bit rate                                 : 7 957 b/s
Count of elements                        : 1641
Stream size                              : 7.43 MiB (0%)
Language                                 : Romanian
Default                                  : No
Forced                                   : No

Subtitle #21
ID                                       : 23
Format                                   : VobSub
Muxing mode                              : zlib
Codec ID                                 : S_VOBSUB
Codec ID/Info                            : Picture based subtitle format used on DVDs
Duration                                 : 2 h 10 min
Bit rate                                 : 7 227 b/s
Count of elements                        : 1314
Stream size                              : 6.76 MiB (0%)
Language                                 : Slovenian
Default                                  : No
Forced                                   : No

Subtitle #22
ID                                       : 24
Format                                   : VobSub
Muxing mode                              : zlib
Codec ID                                 : S_VOBSUB
Codec ID/Info                            : Picture based subtitle format used on DVDs
Duration                                 : 2 h 10 min
Bit rate                                 : 7 816 b/s
Count of elements                        : 1743
Stream size                              : 7.31 MiB (0%)
Language                                 : Swedish
Default                                  : No
Forced                                   : No

Subtitle #23
ID                                       : 25
Format                                   : VobSub
Muxing mode                              : zlib
Codec ID                                 : S_VOBSUB
Codec ID/Info                            : Picture based subtitle format used on DVDs
Duration                                 : 2 h 10 min
Bit rate                                 : 8 241 b/s
Count of elements                        : 1760
Stream size                              : 7.71 MiB (0%)
Language                                 : Russian
Default                                  : No
Forced                                   : No

Subtitle #24
ID                                       : 26
Format                                   : VobSub
Muxing mode                              : zlib
Codec ID                                 : S_VOBSUB
Codec ID/Info                            : Picture based subtitle format used on DVDs
Duration                                 : 2 h 10 min
Bit rate                                 : 364 b/s
Count of elements                        : 64
Stream size                              : 349 KiB (0%)
Language                                 : Russian
Default                                  : No
Forced                                   : No

Subtitle #25
ID                                       : 27
Format                                   : VobSub
Muxing mode                              : zlib
Codec ID                                 : S_VOBSUB
Codec ID/Info                            : Picture based subtitle format used on DVDs
Duration                                 : 2 h 10 min
Bit rate                                 : 8 278 b/s
Count of elements                        : 1760
Stream size                              : 7.75 MiB (0%)
Language                                 : Thai
Default                                  : No
Forced                                   : No

Subtitle #26
ID                                       : 28
Format                                   : VobSub
Muxing mode                              : zlib
Codec ID                                 : S_VOBSUB
Codec ID/Info                            : Picture based subtitle format used on DVDs
Duration                                 : 2 h 8 min
Bit rate                                 : 216 b/s
Count of elements                        : 48
Stream size                              : 203 KiB (0%)
Language                                 : Thai
Default                                  : No
Forced                                   : No

Subtitle #27
ID                                       : 29
Format                                   : VobSub
Muxing mode                              : zlib
Codec ID                                 : S_VOBSUB
Codec ID/Info                            : Picture based subtitle format used on DVDs
Duration                                 : 2 h 10 min
Bit rate                                 : 8 861 b/s
Count of elements                        : 1754
Stream size                              : 8.29 MiB (0%)
Language                                 : Turkish
Default                                  : No
Forced                                   : No

Subtitle #28
ID                                       : 30
Format                                   : VobSub
Muxing mode                              : zlib
Codec ID                                 : S_VOBSUB
Codec ID/Info                            : Picture based subtitle format used on DVDs
Duration                                 : 2 h 10 min
Bit rate                                 : 326 b/s
Count of elements                        : 58
Stream size                              : 313 KiB (0%)
Language                                 : Turkish
Default                                  : No
Forced                                   : No

Subtitle #29
ID                                       : 31
Format                                   : VobSub
Muxing mode                              : zlib
Codec ID                                 : S_VOBSUB
Codec ID/Info                            : Picture based subtitle format used on DVDs
Duration                                 : 2 h 11 min
Bit rate                                 : 9 441 b/s
Count of elements                        : 1949
Stream size                              : 8.85 MiB (0%)
Language                                 : Chinese
Default                                  : No
Forced                                   : No

Subtitle #30
ID                                       : 32
Format                                   : VobSub
Muxing mode                              : zlib
Codec ID                                 : S_VOBSUB
Codec ID/Info                            : Picture based subtitle format used on DVDs
Duration                                 : 2 h 10 min
Bit rate                                 : 635 b/s
Count of elements                        : 107
Stream size                              : 610 KiB (0%)
Language                                 : Chinese
Default                                  : No
Forced                                   : No

Subtitle #31
ID                                       : 33
Format                                   : VobSub
Muxing mode                              : zlib
Codec ID                                 : S_VOBSUB
Codec ID/Info                            : Picture based subtitle format used on DVDs
Duration                                 : 2 h 8 min
Bit rate                                 : 166 b/s
Count of elements                        : 49
Stream size                              : 157 KiB (0%)
Language                                 : Telugu
Default                                  : No
Forced                                   : No

Subtitle #32
ID                                       : 34
Format                                   : VobSub
Muxing mode                              : zlib
Codec ID                                 : S_VOBSUB
Codec ID/Info                            : Picture based subtitle format used on DVDs
Duration                                 : 2 h 8 min
Bit rate                                 : 221 b/s
Count of elements                        : 48
Stream size                              : 208 KiB (0%)
Language                                 : Tamil
Default                                  : No
Forced                                   : No

Subtitle #33
ID                                       : 35
Format                                   : VobSub
Muxing mode                              : zlib
Codec ID                                 : S_VOBSUB
Codec ID/Info                            : Picture based subtitle format used on DVDs
Duration                                 : 2 h 8 min
Bit rate                                 : 175 b/s
Count of elements                        : 53
Stream size                              : 164 KiB (0%)
Language                                 : Hindi
Default                                  : No
Forced                                   : No

Subtitle #34
ID                                       : 36
Format                                   : UTF-8
Codec ID                                 : S_TEXT/UTF8
Codec ID/Info                            : UTF-8 Plain Text
Duration                                 : 2 h 10 min
Bit rate                                 : 50 b/s
Count of elements                        : 1232
Stream size                              : 48.9 KiB (0%)
Language                                 : Danish
Default                                  : No
Forced                                   : No

Subtitle #35
ID                                       : 37
Format                                   : UTF-8
Codec ID                                 : S_TEXT/UTF8
Codec ID/Info                            : UTF-8 Plain Text
Duration                                 : 2 h 11 min
Bit rate                                 : 87 b/s
Count of elements                        : 1756
Stream size                              : 84.2 KiB (0%)
Language                                 : Persian
Default                                  : No
Forced                                   : No

Subtitle #36
ID                                       : 38
Format                                   : UTF-8
Codec ID                                 : S_TEXT/UTF8
Codec ID/Info                            : UTF-8 Plain Text
Duration                                 : 2 h 10 min
Bit rate                                 : 60 b/s
Count of elements                        : 1907
Stream size                              : 57.5 KiB (0%)
Language                                 : Spanish
Default                                  : No
Forced                                   : No

Menu
00:00:00.000                             : en:Chapter 01
00:08:18.789                             : en:Chapter 02
00:15:11.285                             : en:Chapter 03
00:25:22.395                             : en:Chapter 04
00:31:57.624                             : en:Chapter 05
00:39:00.254                             : en:Chapter 06
00:50:07.713                             : en:Chapter 07
01:01:28.810                             : en:Chapter 08
01:08:51.502                             : en:Chapter 09
01:16:40.470                             : en:Chapter 10
01:24:29.355                             : en:Chapter 11
01:34:00.676                             : en:Chapter 12
01:43:01.175                             : en:Chapter 13
01:52:53.850                             : en:Chapter 14
02:00:44.445                             : en:Chapter 15



Source Information
Release: Shazam.2019.BluRay.1080p.AVC.Atmos.TrueHD7.1-CHDBits  [44.5 GB]


Note From UTR
We have no issue with individuals posting or re-uploading our torrents on a platform we aren't on. However, if this is something you'd like to do, please do so in a 'as-is' format. We ask that you do not create a new torrent, include all descriptions you see above including the UTR logo, tags, notes and screenshots. If you'd like to become a permanent poster on a website we don't post to, feel free to get in contact with a UniTeam member.

If possible please donate: BTC 1QA5fum5AyXvWzdVCkQzUNvw3Ef15fHRaR




Category:Movies > HEVC/x265
Lang:English  English
Total Size:1.82 GB
Info Hash:b60f8975648f9581cb994258adcd09a3df726bf2
Added By:UTR
Date Added:06-07-2019 04:39:18

Files

File List: 
 File Size
Shazam! 2019 (1080p x265 10bit FS57 Joy).mkv1.82 GB



Loading...
Comments

There are currently no comments. Be the first one to write something !