Lincoln Rhyme Hunt for the Bone Collector S01E02 Gemini Man 2019 Dolittle 2020 curb your enthusiasm s10e01 countdown 2019 Terminator Dark Fate 2019 midway Richard Jewell 2019 Knives Out 2019 Avenue 5 hustlers 2019 Black and Blue 2019 Bad Boys for Life 2020 Bombshell 2019 parasite Batwoman s01e10 ray donovan A Fall From Grace 2020 xxx rq.mp4 9-1-1 Lone Star S01E01 The Gentlemen 2020 The New Pope Ettv vikings shameless s10e11 Harriet 2019 The Outsider Hindi Maleficent Mistress of Evil 2019 Power S06E13 Like a Boss 2020 Midway 2019 the outsider s01e01 Vikings S06E07 Ford v Ferrari 2019 Ad Astra 2019 Sex education etmovies doctor who evo Frozen II 2019 Underwater 2020 21 Bridges 2019 Joker 2019 parasite 2019 Avenue 5 S01E01 Doctor Who S12E04 Supergirl supergirl s05e10 Motherless Brooklyn 2019 Just Mercy 2019 Jumanji The Next Level 2019 The Real Housewives of Atlanta S12E12 Once Upon a Time... in Hollywood 2019 Little Women 2019 Jojo Rabbit 2019 Charlies Angels 2019 uncut gems 2019 ray donovan s07e10 dvdscr The Outsider S01E03 star wars the rise of skywalker 2019 1917 2019 zombieland double tap 2019 shameless etrg 0 ethd ddr batwoman yts 
Warning! Use a V.P.N When Downloading Torrents!
Your IP Address is 18.210.24.208. Location is United States
Your Internet Provider is tracking your torrent activity! Hide your IP ADDRESS with a V.P.N!
We strongly recommend using ExpressV.P.N to anonymize your torrenting. 30 Day Money Back Guarantee!
Try it Now!
ETTV Recommended TV Shows
9-1-1.Lone.Star.S01E02.WEB.x264-XLF[ettv] torrent
Bull.2016.S04E12.HDTV.x264-KILLERS[ettv] torrent
The.New.Pope.S01E02.WEB.H264-XLF[ettv] torrent
Prodigal.Son.S01E11.iNTERNAL.WEB.x264-TRUMP[ettv] torrent
Manifest.S02E03.HDTV.x264-SVA[ettv] torrent
The.Good.Doctor.S03E12.HDTV.x264-SVA[ettv] torrent

ETTV Recommended SD
Midway.2019.HDRip.XviD-EVO torrent
Break.2019.HDRip.XviD.AC3-EVO torrent
Bait.2019.HDRip.XviD.AC3-EVO torrent
Theresa.and.Allison.2019.HDRip.XviD.AC3-EVO torrent

ETTV Recommended HD
The.Velocipastor.2018.1080p.AMZN.WEB-DL.DDP2.0.H.264-TeeHee[EtHD] torrent
Theresa.Allison.2019.1080p.AMZN.WEB-WEB-Rip.DDP.2.0.HEVC-DDR[EtHD] torrent
A.Haunting.on.Brockway.Street.2019.720p.AMZN.WEB-DL.x264.AAC-ETRG torrent
Playing.with.Fire.2019.720p.WEB-DL.x264.AAC-ETRG torrent

ETTV Recommended UHD
Togo 2019.4K.HDR.2160p.WEBDL Sub Ita x265-NAHOM torrent
The.Witcher.S01.2160p.HDR.NF.WEBRip.DDP.Atmos.5.1.x265-TrollUHD torrent
Troop.Zero.2020.2160p.NF.WEBRip.DDP5.1.x264-AJP69 torrent
Pan's.Labyrinth.2006.4K.HDR.2160p.BDRip Ita Spa x265-NAHOM torrent

ETTV Recommended Cam
Dolittle 2020 HDCAM x264 AC3-ETRG torrent
Seberg 2019 HDCAM x264 AC3-ETRG torrent
The Grudge 2020 720p HDTC-GETB8 torrent
Bad Boys for Life 2020 HDCAM x264 AC3-ETRG torrent

ETTV Recommended Foreign
Laali Ki Shaadi Mein Laaddoo Deewana 2017 Hindi.1080p.WEB-Rip.1080p.AAC.2.0.HEVC-DDR[EtHD] torrent
Dear Comrade 2019 Hindi 720p WEBRip AAC x264 - MoviePirate - Telly.mkv torrent
Black and Blue (2019).720p.H264.ita.eng.Ac3-5.1.sub.ita.eng-MIRCrew torrent
Motichoor.Chaknachoor.2019.1080p.NF.WEB-DL.DD+5.1.x264-Telly torrent


Download Torrent "Killing Eve (2018) Season 02 S02 (1080p BluRay x265 HEVC 10bit DTS 5.1 Qman..."

IMDB Details
Description:

After a series of events, the lives of a security operative and an assassin become inextricably linked.

Genre:

Drama, Thriller

Download Torrent (Magnet)
Download Torrent (File)
Seeds: 42
Leechers: 55
Completed: 1,051 
Last Checked: 06-07-2019 04:42:56


Loading...
Details
Title:Killing Eve (2018) Season 02 S02 (1080p BluRay x265 HEVC 10bit DTS 5.1 Qman...
Description:



Media Information
General
Format                                   : Matroska
Format version                           : Version 4 / Version 2
File size                                : 1.42 GiB
Duration                                 : 43 min 41 s
Overall bit rate                         : 4 655 kb/s
Encoded date                             : UTC 2019-07-03 04:47:31
Writing application                      : mkvmerge v30.1.0 ('Forever And More') 64-bit
Writing library                          : libebml v1.3.6 + libmatroska v1.4.9

Video
ID                                       : 1
Format                                   : HEVC
Format/Info                              : High Efficiency Video Coding
Format profile                           : Main [email protected]@Main
Codec ID                                 : V_MPEGH/ISO/HEVC
Duration                                 : 43 min 41 s
Bit rate                                 : 3 133 kb/s
Width                                    : 1 920 pixels
Height                                   : 1 080 pixels
Display aspect ratio                     : 16:9
Frame rate mode                          : Constant
Frame rate                               : 23.976 (24000/1001) FPS
Color space                              : YUV
Chroma subsampling                       : 4:2:0
Bit depth                                : 10 bits
Bits/(Pixel*Frame)                       : 0.063
Stream size                              : 979 MiB (67%)
Writing library                          : x265 3.1_RC1+1-10decf67c077:[Windows][GCC 9.1.1][64 bit] 10bit
Encoding settings                        : cpuid=1111039 / frame-threads=4 / numa-pools=16 / wpp / no-pmode / no-pme / no-psnr / no-ssim / log-level=2 / input-csp=1 / input-res=1920x1080 / interlace=0 / total-frames=62854 / level-idc=0 / high-tier=1 / uhd-bd=0 / ref=4 / no-allow-non-conformance / no-repeat-headers / annexb / no-aud / no-hrd / info / hash=0 / no-temporal-layers / open-gop / min-keyint=23 / keyint=250 / gop-lookahead=0 / bframes=8 / b-adapt=2 / b-pyramid / bframe-bias=0 / rc-lookahead=80 / lookahead-slices=4 / scenecut=40 / radl=0 / no-splice / no-intra-refresh / ctu=64 / min-cu-size=8 / no-rect / no-amp / max-tu-size=32 / tu-inter-depth=1 / tu-intra-depth=1 / limit-tu=0 / rdoq-level=2 / dynamic-rd=0.00 / no-ssim-rd / signhide / no-tskip / nr-intra=0 / nr-inter=0 / no-constrained-intra / no-strong-intra-smoothing / max-merge=3 / limit-refs=1 / limit-modes / me=3 / subme=5 / merange=57 / temporal-mvp / weightp / no-weightb / no-analyze-src-pics / deblock=-3:-3 / no-sao / no-sao-non-deblock / rd=4 / early-skip / no-rskip / no-fast-intra / no-tskip-fast / no-cu-lossless / b-intra / no-splitrd-skip / rdpenalty=0 / psy-rd=1.00 / psy-rdoq=5.00 / no-rd-refine / no-lossless / cbqpoffs=0 / crqpoffs=0 / rc=crf / crf=18.0 / qcomp=0.60 / qpstep=4 / stats-write=0 / stats-read=0 / ipratio=1.40 / pbratio=1.30 / aq-mode=2 / aq-strength=1.00 / cutree / zone-count=0 / no-strict-cbr / qg-size=32 / no-rc-grain / qpmax=69 / qpmin=0 / no-const-vbv / sar=0 / overscan=0 / videoformat=5 / range=0 / colorprim=2 / transfer=2 / colormatrix=2 / chromaloc=0 / display-window=0cll=0,0 / min-luma=0 / max-luma=1023 / log2-max-poc-lsb=8 / vui-timing-info / vui-hrd-info / slices=1 / no-opt-qp-pps / no-opt-ref-list-length-pps / no-multi-pass-opt-rps / scenecut-bias=0.05 / no-opt-cu-delta-qp / no-aq-motion / no-hdr / no-hdr-opt / no-dhdr10-opt / no-idr-recovery-sei / analysis-reuse-level=5 / scale-factor=0 / refine-intra=0 / refine-inter=0 / refine-mv=0 / refine-ctu-distortion=0 / no-limit-sao / ctu-info=0 / no-lowpass-dct / refine-analysis-type=0 / copy-pic=1 / max-ausize-factor=1.0 / no-dynamic-refine / no-single-sei / no-hevc-aq / no-svt / no-field / qp-adaptation-range=1.00
Language                                 : English
Default                                  : Yes
Forced                                   : No

Audio
ID                                       : 2
Format                                   : DTS
Format/Info                              : Digital Theater Systems
Mode                                     : 16
Format settings, Endianness              : Big
Codec ID                                 : A_DTS
Duration                                 : 43 min 41 s
Bit rate mode                            : Constant
Bit rate                                 : 1 509 kb/s
Channel(s)                               : 6 channels
Channel positions                        : Front: L C R, Side: L R, LFE
Sampling rate                            : 48.0 kHz
Frame rate                               : 93.750 FPS (512 spf)
Bit depth                                : 24 bits
Compression mode                         : Lossy
Stream size                              : 472 MiB (32%)
Language                                 : English
Default                                  : Yes
Forced                                   : No

Subtitle
ID                                       : 3
Format                                   : PGS
Muxing mode                              : zlib
Codec ID                                 : S_HDMV/PGS
Codec ID/Info                            : Picture based subtitle format used on BDs/HD-DVDs
Duration                                 : 43 min 8 s
Bit rate                                 : 33.4 kb/s
Count of elements                        : 1178
Stream size                              : 10.3 MiB (1%)
Language                                 : English
Default                                  : Yes
Forced                                   : No

Menu
00:00:00.000                             : en:Chapter 1
00:05:58.358                             : en:Chapter 2
00:11:48.666                             : en:Chapter 3
00:17:53.614                             : en:Chapter 4
00:22:54.832                             : en:Chapter 5
00:29:59.840                             : en:Chapter 6
00:36:00.241                             : en:Chapter 7
00:43:08.711                             : en:Chapter 8



Source Information
Release: REMUX



Note From UTR
We have no issue with individuals posting or re-uploading our torrents on a platform we aren't on. However, if this is something you'd like to do, please do so in a 'as-is' format. We ask that you do not create a new torrent, include all descriptions you see above including the UTR logo, tags, notes and screenshots. If you'd like to become a permanent poster on a website we don't post to, feel free to get in contact with a UniTeam member.

If possible please donate: BTC 1QA5fum5AyXvWzdVCkQzUNvw3Ef15fHRaR





Category:TV > HEVC/x265
Lang:English  English
Total Size:11.38 GB
Info Hash:7edad1e26bbf1f12a8f5e438a1779df68302fc8a
Added By:UTR
Date Added:06-07-2019 04:42:53

Files

File List: 
 File Size
Killing.Eve.S02E01.1080p.BluRay.x265.10bit.DTS.5.1-Qman[UTR].mkv1.42 GB
Killing.Eve.S02E02.1080p.BluRay.x265.10bit.DTS.5.1-Qman[UTR].mkv1.78 GB
Killing.Eve.S02E03.1080p.BluRay.x265.10bit.DTS.5.1-Qman[UTR].mkv1.34 GB
Killing.Eve.S02E04.1080p.BluRay.x265.10bit.DTS.5.1-Qman[UTR].mkv1.41 GB
Killing.Eve.S02E05.1080p.BluRay.x265.10bit.DTS.5.1-Qman[UTR].mkv1.39 GB
Killing.Eve.S02E06.1080p.BluRay.x265.10bit.DTS.5.1-Qman[UTR].mkv1.33 GB
Killing.Eve.S02E07.1080p.BluRay.x265.10bit.DTS.5.1-Qman[UTR].mkv1.34 GB
Killing.Eve.S02E08.1080p.BluRay.x265.10bit.DTS.5.1-Qman[UTR].mkv1.36 GB



Loading...
Comments

There are currently no comments. Be the first one to write something !