brightburn 2019 Mindhunter yts ma 2019 once upon a time in hollywood 2019 47 meters down uncaged 2019 flatland s01e01 Angel Has Fallen hellboy 2019 the hustle 2019 Xxx angel has fallen 2019 john wick chapter 3 – parabellum 2019 2.0 (2018) spider man far from home 2019 13 reasons why snowfall s03e07 night hunter 2019 dora and the lost city of gold 2019 crawl 2019 the angry birds movie 2 2019 Hard Knocks s14e03 the lion king 2019 13 reasons why s03 etmovies the kitchen 2019 the boys scary stories to tell in the dark 2019 ettv men in black international yellowstone s02e09 aladdin midsommar 2019 marvel week etrg dark phoenix dark phoenix 2019 ready or not 2019 the outpost queen of the south s04e12 john wick arrow español reef break suits hindi good boys 2019 evo kabir singh sextuplets 2019 animal kingdom s04e13 men in black international 2019 toy story 4 2019 the secret life of pets 2 2019 annabelle comes home 2019 avengers endgame 2019 shazam 2019 queen sugar s04e10 Suits s09e06 queen of the south fast furious presents hobbs shaw 2019 yellowstone john wick 3 13 reasons why season 3 avengers endgame wwe aladdin 2019 ddr dc week men in black godzilla king of the monsters 2019 ethd 
Warning! Use a VPN When Downloading Torrents!
Your IP Address is 34.238.189.171. Location is United States
Your Internet Provider is tracking your torrent activity! Hide your IP ADDRESS with a VPN!
We strongly recommend using ExpressVPN to anonymize your torrenting. 30 Day Money Back Guarantee!
Try it Now!
ETTV Recommended TV Shows
The.Outpost.S02E07.HDTV.x264-LucidTV[ettv] torrent
Queen.of.the.South.S04E12.HDTV.x264-SVA[ettv] torrent
Reef.Break.S01E09.WEB.H264-iNSiDiOUS[ettv] torrent
Yellowstone.2018.S02E09.WEBRip.x264-KOMPOST[ettv] torrent

ETTV Recommended SD
Hot.Air.2019.HDRip.XViD-ETRG torrent
Men in Black International.2019.BRRip.XviD.AC3-EVO[EtMovies] torrent
Jacobs Ladder.2019.HDRip.XViD-ETRG torrent
The Creatress.2019.BDRip.XviD.AC3-EVO[EtMovies] torrent

ETTV Recommended HD
Burn.2019.1080p.WEB-DL.H264.AC3-EVO[EtHD] torrent
Men.in.Black.International.2019.1080p.BluRay.x264-GECKOS[EtHD] torrent
John.Wick.Chapter.3.Parabellum.2019.1080p.AMZN.WEB-DL.DDP5.1.H.264-NTG[EtHD] torrent
Astro.Kid.2019.1080p.Bluray.x264-EVO[EtHD] torrent

ETTV Recommended UHD
Darkest Hour 2017.MULTi.UHD.Blu-ray.2160p.HDR.Atmos.7.1.HEVC-DDR torrent
Downsizing 2017.MULTi.UHD.Blu-ray.2160p.HDR..DTS-HDMA.7.1.HEVC-DDR torrent
The Shallows - Paradise Beach - Dentro L incubo (2016) [Bluray 2160p 4k UHD HDR10 HEVC Eng TrueHD Atmos 7.1 MultiLang Ac3 5.1 - Multisubs] torrent
John Wick Chapter 3 Parabellum 2019.UHD.2160p.HDR.WEB.Rip.DDP.5.1.HEVC-DDR[EtHD] torrent

ETTV Recommended Cam
Good Boys 2019 HDCAM x264 AC3-ETRG torrent
Crawl 2019 NEW HDCAM x264 AC3-ETRG torrent
Angel Has Fallen 2019 HDCAM x264 AC3-ETRG torrent
The Lion King 2019 NEW 720p HDCAM No Ads x264 AC3-SeeHD torrent

ETTV Recommended Foreign
Article.15.2019.1080p.NF.DL.H264.DDP.5.1.ESUBS.Telly torrent
No.Mercy.2019.MULTi.1080p.DTS-HDMA.5.1.HEVC-DDR[EtHD] torrent
Kobiety mafii 2 (2019)  [WEB-DL] [XviD-KiT] [Napisy PL] torrent
Kelebekler (2018) 1080p NF WEB-DL DDP5.1 H264 - TURG[EtHD] torrent


Download Torrent "Duplex (2003) (1080p BluRay x265 HEVC 10bit AAC 5.1 Scrollock) [UTR]"

IMDB Details
Description:

A young couple has a chance to move into a gorgeous duplex in the perfect New York neighborhood. All they have to do is bump off the current tenant, a cute little old lady.

Genre:

Comedy

Download Torrent (Magnet)
Download Torrent (File)
Seeds: 164
Leechers: 61
Completed: 1,920 
Last Checked: 06-07-2019 04:43:59


Loading...
Details
Title:Duplex (2003) (1080p BluRay x265 HEVC 10bit AAC 5.1 Scrollock) [UTR]
Description:







Media Information

Media Information
General
Format                                   : Matroska
Format version                           : Version 4 / Version 2
File size                                : 5.44 GiB
Duration                                 : 1 h 29 min
Overall bit rate                         : 8 724 kb/s
Encoded date                             : UTC 2019-07-03 18:37:29
Writing application                      : mkvmerge v30.1.0 ('Forever And More') 64-bit
Writing library                          : libebml v1.3.6 + libmatroska v1.4.9

Video
ID                                       : 1
Format                                   : HEVC
Format/Info                              : High Efficiency Video Coding
Format profile                           : Main [email protected]@Main
Codec ID                                 : V_MPEGH/ISO/HEVC
Duration                                 : 1 h 29 min
Bit rate                                 : 8 432 kb/s
Width                                    : 1 920 pixels
Height                                   : 1 080 pixels
Display aspect ratio                     : 16:9
Frame rate mode                          : Constant
Frame rate                               : 23.976 (24000/1001) FPS
Color space                              : YUV
Chroma subsampling                       : 4:2:0
Bit depth                                : 10 bits
Bits/(Pixel*Frame)                       : 0.170
Stream size                              : 5.26 GiB (97%)
Writing library                          : x265 2.9+16-1f44f1f1623d:[Windows][MSVC 1916][64 bit] 10bit
Encoding settings                        : cpuid=1064959 / frame-threads=3 / numa-pools=8 / wpp / no-pmode / no-pme / no-psnr / no-ssim / log-level=2 / input-csp=1 / input-res=1920x1080 / interlace=0 / total-frames=130649 / level-idc=0 / high-tier=1 / uhd-bd=0 / ref=4 / no-allow-non-conformance / no-repeat-headers / annexb / no-aud / no-hrd / info / hash=0 / no-temporal-layers / open-gop / min-keyint=23 / keyint=250 / gop-lookahead=0 / bframes=8 / b-adapt=2 / b-pyramid / bframe-bias=0 / rc-lookahead=50 / lookahead-slices=4 / scenecut=40 / radl=0 / no-splice / no-intra-refresh / ctu=64 / min-cu-size=8 / no-rect / no-amp / max-tu-size=32 / tu-inter-depth=1 / tu-intra-depth=1 / limit-tu=0 / rdoq-level=1 / dynamic-rd=0.00 / no-ssim-rd / signhide / no-tskip / nr-intra=0 / nr-inter=0 / no-constrained-intra / no-strong-intra-smoothing / max-merge=3 / limit-refs=3 / limit-modes / me=3 / subme=3 / merange=57 / temporal-mvp / weightp / no-weightb / no-analyze-src-pics / deblock=-1:-1 / no-sao / no-sao-non-deblock / rd=4 / no-early-skip / no-rskip / no-fast-intra / no-tskip-fast / no-cu-lossless / b-intra / no-splitrd-skip / rdpenalty=0 / psy-rd=2.00 / psy-rdoq=2.50 / no-rd-refine / no-lossless / cbqpoffs=0 / crqpoffs=0 / rc=crf / crf=22.0 / qcomp=0.60 / qpstep=4 / stats-write=0 / stats-read=0 / ipratio=1.40 / pbratio=1.30 / aq-mode=1 / aq-strength=1.00 / cutree / zone-count=0 / no-strict-cbr / qg-size=32 / no-rc-grain / qpmax=69 / qpmin=0 / no-const-vbv / sar=0 / overscan=0 / videoformat=5 / range=0 / colorprim=2 / transfer=2 / colormatrix=1 / chromaloc=0 / display-window=0 / max-cll=0,0 / min-luma=0 / max-luma=1023 / log2-max-poc-lsb=8 / vui-timing-info / vui-hrd-info / slices=1 / no-opt-qp-pps / no-opt-ref-list-length-pps / no-multi-pass-opt-rps / scenecut-bias=0.05 / no-opt-cu-delta-qp / no-aq-motion / no-hdr / no-hdr-opt / no-dhdr10-opt / no-idr-recovery-sei / analysis-reuse-level=5 / scale-factor=0 / refine-intra=0 / refine-inter=0 / refine-mv=0 / refine-ctu-distortion=0 / no-limit-sao / ctu-info=0 / no-lowpass-dct / refine-mv-type=0 / copy-pic=1 / max-ausize-factor=1.0 / no-dynamic-refine / no-single-sei
Default                                  : Yes
Forced                                   : No
Color range                              : Limited
Matrix coefficients                      : BT.709

Audio
ID                                       : 2
Format                                   : AAC
Format/Info                              : Advanced Audio Codec
Format profile                           : LC
Codec ID                                 : A_AAC
Duration                                 : 1 h 29 min
Bit rate                                 : 288 kb/s
Channel(s)                               : 6 channels
Channel positions                        : Front: L C R, Side: L R, LFE
Sampling rate                            : 48.0 kHz
Frame rate                               : 46.875 FPS (1024 spf)
Compression mode                         : Lossy
Delay relative to video                  : 8 ms
Stream size                              : 185 MiB (3%)
Language                                 : English
Default                                  : No
Forced                                   : No

Menu
00:00:00.000                             : en:Welcome to Brooklyn
00:05:34.500                             : en:Meet Mrs. Connelly
00:15:03.027                             : en:Setting Boundaries
00:22:56.541                             : en:The Anwer to Our Prayers
00:31:59.084                             : en:House Party
00:36:06.331                             : en:Magazine Mix-up
00:40:09.574                             : en:Kill it with Kindness
00:45:12.876                             : en:Storybook Ending
00:50:56.219                             : en:Catching Colds
00:55:12.141                             : en:It's a Sabotage
01:02:27.952                             : en:Shooting of Mr. Peabody
01:04:54.057                             : en:Murder Patrol
01:09:14.316                             : en:Giving It Up
01:13:19.144                             : en:Fire Fight
01:17:37.361                             : en:Better Place
01:21:36.576                             : en:End Titles



Source Information
Release: Unknown Source/NO-GROUP



Note From UTR
We have no issue with individuals posting or re-uploading our torrents on a platform we aren't on. However, if this is something you'd like to do, please do so in a 'as-is' format. We ask that you do not create a new torrent, include all descriptions you see above including the UTR logo, tags, notes and screenshots. If you'd like to become a permanent poster on a website we don't post to, feel free to get in contact with a UniTeam member.

If possible please donate: BTC 1QA5fum5AyXvWzdVCkQzUNvw3Ef15fHRaR





Category:Movies > HEVC/x265
Lang:English  English
Total Size:5.44 GB
Info Hash:636e3dd182034e0d3fc8b62f20bd91f1e876eba3
Added By:UTR
Date Added:06-07-2019 04:43:56

Files

File List: 
 File Size
Duplex (2003) (1080p BluRay x265 HEVC 10bit AAC 5.1 Scrollock) [UTR].mkv5.44 GB



Loading...
Comments

There are currently no comments. Be the first one to write something !