Lincoln Rhyme Hunt for the Bone Collector S01E02 Gemini Man 2019 Dolittle 2020 curb your enthusiasm s10e01 countdown 2019 Terminator Dark Fate 2019 midway Richard Jewell 2019 Knives Out 2019 Avenue 5 hustlers 2019 Black and Blue 2019 Bad Boys for Life 2020 Bombshell 2019 parasite Batwoman s01e10 ray donovan A Fall From Grace 2020 xxx rq.mp4 9-1-1 Lone Star S01E01 The Gentlemen 2020 The New Pope Ettv vikings shameless s10e11 Harriet 2019 The Outsider Hindi Maleficent Mistress of Evil 2019 Power S06E13 Like a Boss 2020 Midway 2019 the outsider s01e01 Vikings S06E07 Ford v Ferrari 2019 Ad Astra 2019 Sex education etmovies doctor who evo Frozen II 2019 Underwater 2020 21 Bridges 2019 Joker 2019 parasite 2019 Avenue 5 S01E01 Doctor Who S12E04 Supergirl supergirl s05e10 Motherless Brooklyn 2019 Just Mercy 2019 Jumanji The Next Level 2019 The Real Housewives of Atlanta S12E12 Once Upon a Time... in Hollywood 2019 Little Women 2019 Jojo Rabbit 2019 Charlies Angels 2019 uncut gems 2019 ray donovan s07e10 dvdscr The Outsider S01E03 star wars the rise of skywalker 2019 1917 2019 zombieland double tap 2019 shameless etrg 0 ethd ddr batwoman yts 
Warning! Use a V.P.N When Downloading Torrents!
Your IP Address is 18.210.24.208. Location is United States
Your Internet Provider is tracking your torrent activity! Hide your IP ADDRESS with a V.P.N!
We strongly recommend using ExpressV.P.N to anonymize your torrenting. 30 Day Money Back Guarantee!
Try it Now!
ETTV Recommended TV Shows
9-1-1.Lone.Star.S01E02.WEB.x264-XLF[ettv] torrent
Bull.2016.S04E12.HDTV.x264-KILLERS[ettv] torrent
The.New.Pope.S01E02.WEB.H264-XLF[ettv] torrent
Prodigal.Son.S01E11.iNTERNAL.WEB.x264-TRUMP[ettv] torrent
Manifest.S02E03.HDTV.x264-SVA[ettv] torrent
The.Good.Doctor.S03E12.HDTV.x264-SVA[ettv] torrent

ETTV Recommended SD
Midway.2019.HDRip.XviD-EVO torrent
Break.2019.HDRip.XviD.AC3-EVO torrent
Bait.2019.HDRip.XviD.AC3-EVO torrent
Theresa.and.Allison.2019.HDRip.XviD.AC3-EVO torrent

ETTV Recommended HD
The.Velocipastor.2018.1080p.AMZN.WEB-DL.DDP2.0.H.264-TeeHee[EtHD] torrent
Theresa.Allison.2019.1080p.AMZN.WEB-WEB-Rip.DDP.2.0.HEVC-DDR[EtHD] torrent
A.Haunting.on.Brockway.Street.2019.720p.AMZN.WEB-DL.x264.AAC-ETRG torrent
Playing.with.Fire.2019.720p.WEB-DL.x264.AAC-ETRG torrent

ETTV Recommended UHD
Togo 2019.4K.HDR.2160p.WEBDL Sub Ita x265-NAHOM torrent
The.Witcher.S01.2160p.HDR.NF.WEBRip.DDP.Atmos.5.1.x265-TrollUHD torrent
Troop.Zero.2020.2160p.NF.WEBRip.DDP5.1.x264-AJP69 torrent
Pan's.Labyrinth.2006.4K.HDR.2160p.BDRip Ita Spa x265-NAHOM torrent

ETTV Recommended Cam
Dolittle 2020 HDCAM x264 AC3-ETRG torrent
Seberg 2019 HDCAM x264 AC3-ETRG torrent
The Grudge 2020 720p HDTC-GETB8 torrent
Bad Boys for Life 2020 HDCAM x264 AC3-ETRG torrent

ETTV Recommended Foreign
Laali Ki Shaadi Mein Laaddoo Deewana 2017 Hindi.1080p.WEB-Rip.1080p.AAC.2.0.HEVC-DDR[EtHD] torrent
Dear Comrade 2019 Hindi 720p WEBRip AAC x264 - MoviePirate - Telly.mkv torrent
Black and Blue (2019).720p.H264.ita.eng.Ac3-5.1.sub.ita.eng-MIRCrew torrent
Motichoor.Chaknachoor.2019.1080p.NF.WEB-DL.DD+5.1.x264-Telly torrent


Download Torrent "Good Omens (2019) Season 01 S01 (2160p WEBRip x265 HEVC 10bit AAC 5.1 Joy) ..."

IMDB Details
Description:

A tale of the bungling of Armageddon features an angel, a demon, an eleven-year-old Antichrist, and a doom-saying witch.

Genre:

Comedy, Fantasy

Download Torrent (Magnet)
Download Torrent (File)
Seeds: 214
Leechers: 105
Completed: 1,822 
Last Checked: 06-07-2019 04:45:58


Loading...
Details
Title:Good Omens (2019) Season 01 S01 (2160p WEBRip x265 HEVC 10bit AAC 5.1 Joy) ...
Description:


Media Information
General
Format                                   : Matroska
Format version                           : Version 4 / Version 2
File size                                : 1.53 GiB
Duration                                 : 51 min 15 s
Overall bit rate                         : 4 268 kb/s
Movie name                               : Good Omens S01E01 In The Beginning  (2160p x265 10bit Joy)[UTR]
Encoded date                             : UTC 2019-07-01 09:30:24
Writing application                      : mkvmerge v34.0.0 ('Sight and Seen') 64-bit
Writing library                          : libebml v1.3.7 + libmatroska v1.5.0
Writing frontend                         : StaxRip v2.0.2.0, Encoded by JoyBell

Video
ID                                       : 1
Format                                   : HEVC
Format/Info                              : High Efficiency Video Coding
Format profile                           : Main [email protected]@Main
Codec ID                                 : V_MPEGH/ISO/HEVC
Duration                                 : 51 min 15 s
Bit rate                                 : 4 004 kb/s
Width                                    : 3 840 pixels
Height                                   : 1 632 pixels
Display aspect ratio                     : 2.35:1
Frame rate mode                          : Constant
Frame rate                               : 25.000 FPS
Color space                              : YUV
Chroma subsampling                       : 4:2:0
Bit depth                                : 10 bits
Bits/(Pixel*Frame)                       : 0.026
Stream size                              : 1.43 GiB (94%)
Writing library                          : x265 3.0_Au+24-4217e691387c:[Windows][GCC 9.1.1][64 bit] 10bit
Encoding settings                        : rc=abr / bitrate=4000 / qcomp=0.50 / qpstep=4 / stats-write=0 / stats-read=2 / cplxblur=20.0 / qblur=0.5 / qpmax=69 / qpmin=0 / no-lossless / no-cu-lossless / no-hevc-aq / no-aq-motion / aq-mode=3 / aq-strength=0.80 / cbqpoffs=0 / crqpoffs=0 / ipratio=1.40 / pbratio=1.30 / psy-rd=0.00 / psy-rdoq=1.35 / deblock=0:0 / ref=4 / limit-refs=3 / limit-modes / bframes=8 / b-adapt=2 / bframe-bias=40 / b-pyramid / no-b-intra / weightp / no-weightb / keyint=250 / min-keyint=25 / rc-lookahead=80 / gop-lookahead=0 / scenecut=40 / scenecut-bias=0.05 / ctu=64 / min-cu-size=8 / me=3 / subme=3 / merange=57 / rd=4 / no-rd-refine / ssim-rd / dynamic-rd=0.00 / rdoq-level=2 / rdpenalty=0 / cutree / sao / limit-sao / no-sao-non-deblock / no-rect / no-amp / open-gop / max-tu-size=32 / tu-inter-depth=1 / tu-intra-depth=1 / limit-tu=0 / qg-size=32 / wpp / no-pmode / no-pme / no-psnr / ssim / no-tskip / constrained-intra / strong-intra-smoothing / max-merge=3 / nr-intra=0 / nr-inter=0 / input-csp=1 / input-res=3840x1632 / interlace=0 / total-frames=76891 / level-idc=0 / high-tier=1cpuid=1111039 / frame-threads=4 / numa-pools=16 / log-level=2 / uhd-bd=0 / lookahead-slices=4 / radl=0 / no-splice / no-intra-refresh / signhide / temporal-mvp / no-analyze-src-pics / early-skip / rskip / no-fast-intra / no-tskip-fast / splitrd-skip / zone-count=0 / no-strict-cbr / no-rc-grain / no-const-vbv / no-allow-non-conformance / no-repeat-headers / annexb / no-aud / no-hrd / info / hash=0 / no-temporal-layers / sar=0 / overscan=0 / videoformat=5 / range=0 / colorprim=2 / transfer=2 / colormatrix=2 / chromaloc=0 / display-window=0 / max-cll=0,0 / min-luma=0 / max-luma=1023 / log2-max-poc-lsb=8 / vui-timing-info / vui-hrd-info / slices=1 / no-opt-qp-pps / no-opt-ref-list-length-pps / multi-pass-opt-rps / no-opt-cu-delta-qp / no-hdr / no-hdr-opt / no-dhdr10-opt / no-idr-recovery-sei / analysis-reuse-level=10 / scale-factor=0 / refine-intra=0 / refine-inter=0 / refine-mv=0 / refine-ctu-distortion=0 / ctu-info=0 / no-lowpass-dct / refine-analysis-type=0 / copy-pic=1 / max-ausize-factor=1.0 / no-dynamic-refine / no-single-sei / no-svt / qp-adaptation-range=1.00
Default                                  : Yes
Forced                                   : No

Audio
ID                                       : 2
Format                                   : AAC
Format/Info                              : Advanced Audio Codec
Format profile                           : LC
Codec ID                                 : A_AAC
Duration                                 : 51 min 15 s
Bit rate                                 : 257 kb/s
Channel(s)                               : 6 channels
Channel positions                        : Front: L C R, Side: L R, LFE
Sampling rate                            : 48.0 kHz
Frame rate                               : 46.875 FPS (1024 spf)
Compression mode                         : Lossy
Delay relative to video                  : 9 ms
Stream size                              : 94.3 MiB (6%)
Language                                 : English
Default                                  : No
Forced                                   : No

Subtitle #1
ID                                       : 3
Format                                   : UTF-8
Codec ID                                 : S_TEXT/UTF8
Codec ID/Info                            : UTF-8 Plain Text
Duration                                 : 49 min 2 s
Bit rate                                 : 77 b/s
Count of elements                        : 828
Stream size                              : 27.9 KiB (0%)
Language                                 : Danish
Default                                  : No
Forced                                   : No

Subtitle #2
ID                                       : 4
Format                                   : UTF-8
Codec ID                                 : S_TEXT/UTF8
Codec ID/Info                            : UTF-8 Plain Text
Duration                                 : 49 min 2 s
Bit rate                                 : 80 b/s
Count of elements                        : 828
Stream size                              : 29.1 KiB (0%)
Language                                 : German
Default                                  : No
Forced                                   : No

Subtitle #3
ID                                       : 5
Format                                   : UTF-8
Codec ID                                 : S_TEXT/UTF8
Codec ID/Info                            : UTF-8 Plain Text
Duration                                 : 49 min 6 s
Bit rate                                 : 87 b/s
Count of elements                        : 1035
Stream size                              : 31.6 KiB (0%)
Language                                 : English
Default                                  : No
Forced                                   : No

Subtitle #4
ID                                       : 6
Format                                   : UTF-8
Codec ID                                 : S_TEXT/UTF8
Codec ID/Info                            : UTF-8 Plain Text
Duration                                 : 49 min 2 s
Bit rate                                 : 77 b/s
Count of elements                        : 828
Stream size                              : 27.9 KiB (0%)
Language                                 : Spanish
Default                                  : No
Forced                                   : No

Subtitle #5
ID                                       : 7
Format                                   : UTF-8
Codec ID                                 : S_TEXT/UTF8
Codec ID/Info                            : UTF-8 Plain Text
Duration                                 : 49 min 2 s
Bit rate                                 : 81 b/s
Count of elements                        : 833
Stream size                              : 29.2 KiB (0%)
Language                                 : Spanish
Default                                  : No
Forced                                   : No

Subtitle #6
ID                                       : 8
Format                                   : UTF-8
Codec ID                                 : S_TEXT/UTF8
Codec ID/Info                            : UTF-8 Plain Text
Duration                                 : 49 min 2 s
Bit rate                                 : 72 b/s
Count of elements                        : 828
Stream size                              : 26.0 KiB (0%)
Language                                 : French
Default                                  : No
Forced                                   : No

Subtitle #7
ID                                       : 9
Format                                   : UTF-8
Codec ID                                 : S_TEXT/UTF8
Codec ID/Info                            : UTF-8 Plain Text
Duration                                 : 49 min 2 s
Bit rate                                 : 78 b/s
Count of elements                        : 828
Stream size                              : 28.2 KiB (0%)
Language                                 : Indonesian
Default                                  : No
Forced                                   : No

Subtitle #8
ID                                       : 10
Format                                   : UTF-8
Codec ID                                 : S_TEXT/UTF8
Codec ID/Info                            : UTF-8 Plain Text
Duration                                 : 49 min 2 s
Bit rate                                 : 76 b/s
Count of elements                        : 827
Stream size                              : 27.6 KiB (0%)
Language                                 : Italian
Default                                  : No
Forced                                   : No

Subtitle #9
ID                                       : 11
Format                                   : UTF-8
Codec ID                                 : S_TEXT/UTF8
Codec ID/Info                            : UTF-8 Plain Text
Duration                                 : 49 min 2 s
Bit rate                                 : 78 b/s
Count of elements                        : 828
Stream size                              : 28.4 KiB (0%)
Language                                 : Dutch
Default                                  : No
Forced                                   : No

Subtitle #10
ID                                       : 12
Format                                   : UTF-8
Codec ID                                 : S_TEXT/UTF8
Codec ID/Info                            : UTF-8 Plain Text
Duration                                 : 49 min 2 s
Bit rate                                 : 74 b/s
Count of elements                        : 827
Stream size                              : 26.6 KiB (0%)
Language                                 : Norwegian Bokmal
Default                                  : No
Forced                                   : No

Subtitle #11
ID                                       : 13
Format                                   : UTF-8
Codec ID                                 : S_TEXT/UTF8
Codec ID/Info                            : UTF-8 Plain Text
Duration                                 : 49 min 2 s
Bit rate                                 : 73 b/s
Count of elements                        : 826
Stream size                              : 26.5 KiB (0%)
Language                                 : Polish
Default                                  : No
Forced                                   : No

Subtitle #12
ID                                       : 14
Format                                   : UTF-8
Codec ID                                 : S_TEXT/UTF8
Codec ID/Info                            : UTF-8 Plain Text
Duration                                 : 49 min 2 s
Bit rate                                 : 79 b/s
Count of elements                        : 828
Stream size                              : 28.7 KiB (0%)
Language                                 : Portuguese
Default                                  : No
Forced                                   : No

Subtitle #13
ID                                       : 15
Format                                   : UTF-8
Codec ID                                 : S_TEXT/UTF8
Codec ID/Info                            : UTF-8 Plain Text
Duration                                 : 49 min 2 s
Bit rate                                 : 73 b/s
Count of elements                        : 827
Stream size                              : 26.4 KiB (0%)
Language                                 : Finnish
Default                                  : No
Forced                                   : No

Subtitle #14
ID                                       : 16
Format                                   : UTF-8
Codec ID                                 : S_TEXT/UTF8
Codec ID/Info                            : UTF-8 Plain Text
Duration                                 : 49 min 2 s
Bit rate                                 : 79 b/s
Count of elements                        : 839
Stream size                              : 28.6 KiB (0%)
Language                                 : Swedish
Default                                  : No
Forced                                   : No

Subtitle #15
ID                                       : 17
Format                                   : UTF-8
Codec ID                                 : S_TEXT/UTF8
Codec ID/Info                            : UTF-8 Plain Text
Duration                                 : 49 min 0 s
Bit rate                                 : 74 b/s
Count of elements                        : 827
Stream size                              : 26.7 KiB (0%)
Language                                 : Turkish
Default                                  : No
Forced                                   : No

Subtitle #16
ID                                       : 18
Format                                   : UTF-8
Codec ID                                 : S_TEXT/UTF8
Codec ID/Info                            : UTF-8 Plain Text
Duration                                 : 49 min 2 s
Bit rate                                 : 128 b/s
Count of elements                        : 828
Stream size                              : 46.2 KiB (0%)
Language                                 : Russian
Default                                  : No
Forced                                   : No

Subtitle #17
ID                                       : 19
Format                                   : UTF-8
Codec ID                                 : S_TEXT/UTF8
Codec ID/Info                            : UTF-8 Plain Text
Duration                                 : 49 min 2 s
Bit rate                                 : 117 b/s
Count of elements                        : 828
Stream size                              : 42.1 KiB (0%)
Language                                 : Arabic
Default                                  : No
Forced                                   : No

Subtitle #18
ID                                       : 20
Format                                   : UTF-8
Codec ID                                 : S_TEXT/UTF8
Codec ID/Info                            : UTF-8 Plain Text
Duration                                 : 49 min 2 s
Bit rate                                 : 196 b/s
Count of elements                        : 828
Stream size                              : 70.5 KiB (0%)
Language                                 : Hindi
Default                                  : No
Forced                                   : No

Subtitle #19
ID                                       : 21
Format                                   : UTF-8
Codec ID                                 : S_TEXT/UTF8
Codec ID/Info                            : UTF-8 Plain Text
Duration                                 : 49 min 2 s
Bit rate                                 : 263 b/s
Count of elements                        : 828
Stream size                              : 94.6 KiB (0%)
Language                                 : Tamil
Default                                  : No
Forced                                   : No

Subtitle #20
ID                                       : 22
Format                                   : UTF-8
Codec ID                                 : S_TEXT/UTF8
Codec ID/Info                            : UTF-8 Plain Text
Duration                                 : 49 min 2 s
Bit rate                                 : 207 b/s
Count of elements                        : 828
Stream size                              : 74.5 KiB (0%)
Language                                 : Telugu
Default                                  : No
Forced                                   : No

Subtitle #21
ID                                       : 23
Format                                   : UTF-8
Codec ID                                 : S_TEXT/UTF8
Codec ID/Info                            : UTF-8 Plain Text
Duration                                 : 49 min 3 s
Bit rate                                 : 71 b/s
Count of elements                        : 828
Stream size                              : 25.5 KiB (0%)
Language                                 : Chinese
Default                                  : No
Forced                                   : No

Subtitle #22
ID                                       : 24
Format                                   : UTF-8
Codec ID                                 : S_TEXT/UTF8
Codec ID/Info                            : UTF-8 Plain Text
Duration                                 : 49 min 2 s
Bit rate                                 : 72 b/s
Count of elements                        : 828
Stream size                              : 25.9 KiB (0%)
Language                                 : Chinese
Default                                  : No
Forced                                   : No

Subtitle #23
ID                                       : 25
Format                                   : UTF-8
Codec ID                                 : S_TEXT/UTF8
Codec ID/Info                            : UTF-8 Plain Text
Duration                                 : 49 min 2 s
Bit rate                                 : 86 b/s
Count of elements                        : 828
Stream size                              : 30.9 KiB (0%)
Language                                 : Korean
Default                                  : No
Forced                                   : No



Source Information
Release: Good.Omens.S01.2160p.AMZN.WEBRip.x265.10bit.HDR.DDP5.1-Aka [42.2 GB]


Note From UTR
We have no issue with individuals posting or re-uploading our torrents on a platform we aren't on. However, if this is something you'd like to do, please do so in a 'as-is' format. We ask that you do not create a new torrent, include all descriptions you see above including the UTR logo, tags, notes and screenshots. If you'd like to become a permanent poster on a website we don't post to, feel free to get in contact with a UniTeam member.

If possible please donate: BTC 1QA5fum5AyXvWzdVCkQzUNvw3Ef15fHRaR




Category:TV > HEVC/x265
Lang:English  English
Total Size:9.79 GB
Info Hash:01f5434353d01b15f73e3c2357749b10ecd11ebe
Added By:UTR
Date Added:06-07-2019 04:45:54

Files

File List: 
 File Size
Encoded by JoyBell (UTR).txt3.18 kB
folder.jpg128.66 kB
Good Omens S01E01 In The Beginning (2160p x265 10bit Joy).mkv1.53 GB
Good Omens S01E02 The Book (2160p x265 10bit Joy).mkv1.67 GB
Good Omens S01E03 Hard Times (2160p x265 10bit Joy).mkv1.72 GB
Good Omens S01E04 Saturday Morning Funtime (2160p x265 10bit Joy).mkv1.68 GB
Good Omens S01E05 The Doomsday Option (2160p x265 10bit Joy).mkv1.57 GB
Good Omens S01E06 The Very Last Day Of The Rest Of Their Lives (2160p x265 10bit Joy).mkv1.62 GB
How to play HEVC (THIS FILE).txt3.42 kB
Ninite K-Lite Codecs Unattended Silent Installer and Updater.website561.00 B



Loading...
Comments

There are currently no comments. Be the first one to write something !