A Fall From Grace 2020 rq.mp4 Manifest S02E03 the good doctor Avenue 5 S01E01 Bad Boys for Life 2020 ddr etrg vikings s06e07 knives out 2019 Prodigal Son S01E11 xxx Manifest just mercy 2019 the outsider terminator dark fate 2019 Motherless Brooklyn 2019 Little Women 2019 Maleficent Mistress of Evil 2019 all rise s01e13 Star Wars The Rise of Skywalker 2019 9-1-1 Lone Star S01E01 underwater 2020 etmovies Jumanji The Next Level 2019 21 Bridges 2019 prodigal son Black Lightning S03E10 doctor sleep Doctor Who gemini man 2019 Parasite 2019 0 The Good Doctor S03E12 Jojo Rabbit 2019 The Outsider S01E01 the outsider s01e03 Once Upon a Time... in Hollywood 2019 Uncut Gems 2019 The Neighborhood S02E13 Bull S04E12 Charlies Angels 2019 Dolittle 2020 supergirl all rise 1917 2019 The Gentlemen 2020 evo 9-1-1 Lone Star S01E02 ettv power s06e13 Supergirl S05E10 Richard Jewell 2019 Frozen II 2019 curb your enthusiasm s10e01 Batwoman s01e10 shameless s10e11 Wwe Ray Donovan S07E10 The New Pope Joker 2019 bombshell 2019 Hindi ethd midway 2019 batwoman black lightning The Bachelor S24E03 yts like a boss 2020 vikings Ford v Ferrari 2019 
Warning! Use a V.P.N When Downloading Torrents!
Your IP Address is 100.26.179.196. Location is United States
Your Internet Provider is tracking your torrent activity! Hide your IP ADDRESS with a V.P.N!
We strongly recommend using ExpressV.P.N to anonymize your torrenting. 30 Day Money Back Guarantee!
Try it Now!
ETTV Recommended TV Shows
The.Resident.S03E13.WEB.x264-XLF[ettv] torrent
Emergence.S01E12.HDTV.x264-SVA[ettv] torrent
FBI.Most.Wanted.S01E03.HDTV.x264-KILLERS[ettv] torrent
New.Amsterdam.2018.S02E11.HDTV.x264-SVA[ettv] torrent

ETTV Recommended SD
The.Good.Liar.2019.HDRip.XviD.AC3-EVO torrent
Playing.with.Fire.2019.HDRip.XviD.AC3-EVO torrent
Just.Mercy.2019..DVDScr.XvId.AC3-ETRG torrent
The.Nomads.2019.HDRip.XviD.AC3-EVO torrent

ETTV Recommended HD
Playing.with.Fire.2019.720p.WEB-DL.x264.AAC-ETRG torrent
Doctor.Sleep.2019.Directors.Cut.720p.AMZN.WEB-DL.x264-ETRG torrent
Just.Mercy.2019.720P.DVDScr.X264.AC3.HQ.Hive-CM8[EtHD] torrent
Waves.2019.1080p.AMZN.WEB-DL.DDP5.1.H.264-NTG[EtHD] torrent

ETTV Recommended UHD
Togo 2019.4K.HDR.2160p.WEBDL Sub Ita x265-NAHOM torrent
The.Witcher.S01.2160p.HDR.NF.WEBRip.DDP.Atmos.5.1.x265-TrollUHD torrent
Troop.Zero.2020.2160p.NF.WEBRip.DDP5.1.x264-AJP69 torrent
Pan's.Labyrinth.2006.4K.HDR.2160p.BDRip Ita Spa x265-NAHOM torrent

ETTV Recommended Cam
Dolittle 2020 HDCAM x264 AC3-ETRG torrent
Seberg 2019 HDCAM x264 AC3-ETRG torrent
The Grudge 2020 720p HDTC-GETB8 torrent
Bad Boys for Life 2020 HDCAM x264 AC3-ETRG torrent

ETTV Recommended Foreign
Future Justice (2014) 720p WEB-DL x264 Eng Subs [Dual Audio] [Hindi DD 2.0 - English 2.0] Exclusive By -=!Dr.STAR!=- torrent
Starship Troopers : Traitor of Mars (2017) 720p BluRay x264 Eng Subs [Dual Audio] [Hindi DD 2.0 - English 2.0] Exclusive By -=!Dr.STAR!=- torrent
8 Mile (2002) AC3 5.1 ITA.ENG 1080p H265 sub ita.eng Sp33dy94 MIRCrew torrent


Download Torrent "Catch-22 (2019) Season 01 S01 (1080p WEB-DL x265 HEVC 10bit AAC 5.1 Joy) [U..."

IMDB Details
Description:

Limited series adaptation of the classic Joseph Heller novel. Follows Captain John Yossarian and airmen in World War II.

Genre:

Comedy, Crime, Drama, War

Download Torrent (Magnet)
Download Torrent (File)
Seeds: 148
Leechers: 86
Completed: 2,010 
Last Checked: 06-07-2019 04:46:47


Loading...
Details
Title:Catch-22 (2019) Season 01 S01 (1080p WEB-DL x265 HEVC 10bit AAC 5.1 Joy) [U...
Description:

Media Information

General
Format                                   : Matroska
Format version                           : Version 4 / Version 2
File size                                : 445 MiB
Duration                                 : 45 min 22 s
Overall bit rate                         : 1 371 kb/s
Movie name                               : Catch-22 S01E01  (1080p x265 10bit Joy)
Encoded date                             : UTC 2019-06-30 17:59:30
Writing application                      : mkvmerge v34.0.0 ('Sight and Seen') 64-bit
Writing library                          : libebml v1.3.7 + libmatroska v1.5.0
Writing frontend                         : StaxRip v2.0.2.0, a JoyBell Encode

Video
ID                                       : 1
Format                                   : HEVC
Format/Info                              : High Efficiency Video Coding
Format profile                           : Main [email protected]@Main
Codec ID                                 : V_MPEGH/ISO/HEVC
Duration                                 : 45 min 22 s
Bit rate                                 : 1 201 kb/s
Width                                    : 1 920 pixels
Height                                   : 1 080 pixels
Display aspect ratio                     : 16:9
Frame rate mode                          : Constant
Frame rate                               : 23.976 (24000/1001) FPS
Color space                              : YUV
Chroma subsampling                       : 4:2:0
Bit depth                                : 10 bits
Bits/(Pixel*Frame)                       : 0.024
Stream size                              : 390 MiB (88%)
Writing library                          : x265 3.0_Au+24-4217e691387c:[Windows][GCC 9.1.1][64 bit] 10bit
Encoding settings                        : rc=abr / bitrate=1200 / qcomp=0.60 / qpstep=4 / stats-write=0 / stats-read=2 / cplxblur=20.0 / qblur=0.5 / qpmax=69 / qpmin=0 / no-lossless / no-cu-lossless / no-hevc-aq / no-aq-motion / aq-mode=3 / aq-strength=0.80 / cbqpoffs=0 / crqpoffs=0 / ipratio=1.40 / pbratio=1.30 / psy-rd=0.00 / psy-rdoq=1.50 / deblock=0:0 / ref=4 / limit-refs=3 / limit-modes / bframes=8 / b-adapt=2 / bframe-bias=40 / b-pyramid / no-b-intra / weightp / no-weightb / keyint=250 / min-keyint=23 / rc-lookahead=80 / gop-lookahead=0 / scenecut=40 / scenecut-bias=0.05 / ctu=64 / min-cu-size=8 / me=3 / subme=3 / merange=57 / rd=4 / no-rd-refine / ssim-rd / dynamic-rd=0.00 / rdoq-level=2 / rdpenalty=0 / cutree / sao / limit-sao / no-sao-non-deblock / no-rect / no-amp / open-gop / max-tu-size=32 / tu-inter-depth=1 / tu-intra-depth=1 / limit-tu=0 / qg-size=32 / wpp / no-pmode / no-pme / no-psnr / ssim / no-tskip / constrained-intra / strong-intra-smoothing / max-merge=3 / nr-intra=0 / nr-inter=0 / input-csp=1 / input-res=1920x1080 / interlace=0 / total-frames=65280 / level-idc=0 / high-tier=1cpuid=1111039 / frame-threads=3 / numa-pools=8 / log-level=2 / uhd-bd=0 / lookahead-slices=4 / radl=0 / no-splice / no-intra-refresh / signhide / temporal-mvp / no-analyze-src-pics / no-early-skip / rskip / no-fast-intra / no-tskip-fast / splitrd-skip / zone-count=0 / no-strict-cbr / no-rc-grain / no-const-vbv / no-allow-non-conformance / no-repeat-headers / annexb / no-aud / no-hrd / info / hash=0 / no-temporal-layers / sar=0 / overscan=0 / videoformat=5 / range=0 / colorprim=2 / transfer=2 / colormatrix=2 / chromaloc=0 / display-window=0 / max-cll=0,0 / min-luma=0 / max-luma=1023 / log2-max-poc-lsb=8 / vui-timing-info / vui-hrd-info / slices=1 / no-opt-qp-pps / no-opt-ref-list-length-pps / multi-pass-opt-rps / no-opt-cu-delta-qp / no-hdr / no-hdr-opt / no-dhdr10-opt / no-idr-recovery-sei / analysis-reuse-level=10 / scale-factor=0 / refine-intra=0 / refine-inter=0 / refine-mv=0 / refine-ctu-distortion=0 / ctu-info=0 / no-lowpass-dct / refine-analysis-type=0 / copy-pic=1 / max-ausize-factor=1.0 / no-dynamic-refine / no-single-sei / no-svt / qp-adaptation-range=1.00
Default                                  : Yes
Forced                                   : No

Audio
ID                                       : 2
Format                                   : AAC
Format/Info                              : Advanced Audio Codec
Format profile                           : HE-AAC / LC
Codec ID                                 : A_AAC
Duration                                 : 45 min 22 s
Bit rate                                 : 169 kb/s
Channel(s)                               : 6 channels
Channel positions                        : Front: L C R, Side: L R, LFE
Sampling rate                            : 48.0 kHz / 24.0 kHz
Frame rate                               : 23.438 FPS (1024 spf)
Compression mode                         : Lossy
Delay relative to video                  : 31 ms
Stream size                              : 54.7 MiB (12%)
Language                                 : English
Default                                  : No
Forced                                   : No

Subtitle #1
ID                                       : 3
Format                                   : UTF-8
Codec ID                                 : S_TEXT/UTF8
Codec ID/Info                            : UTF-8 Plain Text
Duration                                 : 42 min 15 s
Bit rate                                 : 78 b/s
Count of elements                        : 776
Stream size                              : 24.4 KiB (0%)
Language                                 : English
Default                                  : No
Forced                                   : No

Subtitle #2
ID                                       : 4
Format                                   : UTF-8
Codec ID                                 : S_TEXT/UTF8
Codec ID/Info                            : UTF-8 Plain Text
Duration                                 : 45 min 10 s
Bit rate                                 : 95 b/s
Count of elements                        : 1000
Stream size                              : 31.5 KiB (0%)
Language                                 : English
Default                                  : No
Forced                                   : No



Source Information
Release: Catch-22.S01.2160p.WEB.H265-DEFLATE [27.6 GB]


Note From UTR
We have no issue with individuals posting or re-uploading our torrents on a platform we aren't on. However, if this is something you'd like to do, please do so in a 'as-is' format. We ask that you do not create a new torrent, include all descriptions you see above including the UTR logo, tags, notes and screenshots. If you'd like to become a permanent poster on a website we don't post to, feel free to get in contact with a UniTeam member.

If possible please donate: BTC 1QA5fum5AyXvWzdVCkQzUNvw3Ef15fHRaR




Category:TV > HEVC/x265
Lang:English  English
Total Size:2.58 GB
Info Hash:0bce2e0a84ef743abff8b2120d3925d69362c40c
Added By:UTR
Date Added:06-07-2019 04:46:38

Files

File List: 
 File Size
Catch-22 S01E01 (1080p x265 10bit Joy).mkv445 MB
Catch-22 S01E02 (1080p x265 10bit Joy).mkv466 MB
Catch-22 S01E03 (1080p x265 10bit Joy).mkv428 MB
Catch-22 S01E04 (1080p x265 10bit Joy).mkv429 MB
Catch-22 S01E05 (1080p x265 10bit Joy).mkv420 MB
Catch-22 S01E06 (1080p x265 10bit Joy).mkv452 MB
Encoded by JoyBell (UTR).txt3.18 kB
folder.jpg11.30 kB
How to play HEVC (THIS FILE).txt3.42 kB
Ninite K-Lite Codecs Unattended Silent Installer and Updater.website561.00 B



Loading...
Comments

There are currently no comments. Be the first one to write something !