ddr 21 bridges 2019 Batwoman Joker 2019 terminator dark fate 2019 the outsider Maleficent Mistress of Evil 2019 knives out 2019 ettv big bang theory español Avenue 5 Hindi 1917 2019 the gentlemen 2020 0 Vikings s06e08 wwe royal rumble 2020 ethd evo star wars the rise of skywalker 2019 Saturday Night Live s45e11 supergirl just mercy 2019 bad boys for life 2020 Shameless S10E12 power star trek picard rq.mp4 vikings Curb Your Enthusiasm S10E02 etmovies Curb Your Enthusiasm  Spies in Disguise 2019 shameless Star Trek Picard S01E01 doctor who frozen ii 2019 doctor sleep Real Time with Bill Maher 2020 01 24 jumanji the next level 2019 wwe The New Pope Gemini Man 2019 Greys Anatomy s16e10 Star wars picard etrg underwater 2020 Knives Out Avenue 5 S01E02 Grammy dolittle 2020 Greys Anatomy the outsider s01e04 supergirl s05e11 doctor who s12e05 midway 2019 batwoman s01e11 Charlies Angels 2019 Supernatural  yts xxx playing with fire 2019 ford v ferrari 2019 motherless brooklyn 2019 royal rumble ita Doctor Sleep 2019 power s06e14 royal rumble 2020 
Warning! Use a V.P.N When Downloading Torrents!
Your IP Address is 34.204.200.74. Location is United States
Your Internet Provider is tracking your torrent activity! Hide your IP ADDRESS with a V.P.N!
We strongly recommend using ExpressV.P.N to anonymize your torrenting. 30 Day Money Back Guarantee!
Try it Now!
ETTV Recommended TV Shows
Coroner.S02E04.WEBRip.x264-TBS[ettv] torrent
Black.Lightning.S03E11.HDTV.x264-SVA[ettv] torrent
The.Bachelor.S24E04.WEB.H264-XLF[ettv] torrent
WWE Monday Night Raw 2020 01 27 HDTV x264-NWCHD [TJET] torrent

ETTV Recommended SD
Dead.Earth.2020.HDRip.XviD.AC3-EVO torrent
Battle.Star.Wars.2020.HDRip.XviD.AC3-EVO torrent
The.Windermere.Children.2020.HDRip.XviD.AC3-EVO torrent
The.Great.Alaskan.Race.2019.HDRip.XviD.AC3-EVO torrent

ETTV Recommended HD
Get.Gone.2019.1080p.WEB-DL.x264.AAC-ETRG torrent
The.Windermere.Children.2020.1080p.WEB-DL.H264.AC3-EVO[EtHD] torrent
Dead.Earth.2020.1080p.WEB-DL.H264.AC3-EVO[EtHD] torrent
My.Name.Is.Myeisha.2020.1080p.WEB-DL.H264.AC3-EVO[EtHD] torrent

ETTV Recommended UHD
Terminator.Dark.Fate.2019.2160p.UHD.BluRay.10bit.SDR.x265-HazMatt.mkv torrent
The.Sword.in.the.Stone.1963.4K.HDR.2160p.WEBDL Ita Eng x265-NAHOM torrent
Once.Upon.a.Time.in.Hollywood.2019.2160p.UHD.BluRay.10bit.SDR.x26-HazMatt.mkv torrent
Doctor Sleep (2019) [BluRay Rip 2160p HEVC 10bit-HDR ITA-ENG AC3-SUBS] [M@HD] torrent

ETTV Recommended Cam
Dolittle 2020 HDCAM x264 AC3-ETRG torrent
The Grudge 2020 720p HDTC-GETB8 torrent
Bad.Boys.for.Life.2020.NEW.HDTS.x264.AC3-ETRG torrent
The.Turning.2020.HDCAM.x264.AC3-ETRG torrent

ETTV Recommended Foreign
The King - Il Re (2019).720p.H264.ita.eng.Ac3-5.1.sub.ita.eng-MIRCrew torrent
Semma Botha Aagatha (2018) 720p UNCUT HDRip x264 Eng Subs [Dual Audio] [Hindi DD 2.0 - Tamil 5.1] Exclusive By -=!Dr.STAR!=- torrent
Chhalawa.2019.Urdu.1080p. Vidly.WEB-DL.AAC.2.0.x264-Telly torrent
Ratsasan 2018 720p 10bit UNCUT WEBRip Dual Audio [Hindi DD2.0 - Tamil] x265 HEVC ESub - MoviePirate- Telly.mkv torrent


Download Torrent "Jury Duty (1995) (1080p BluRay x265 HEVC 10bit DTS 2.0 Qman) [UTR]"

IMDB Details
Description:

When jobless Tommy Collins discovers that sequestered jurors earn free room and board as well as $5-a-day, he gets himself assigned to a jury in a murder trial. Once there, he does ...

Genre:

Comedy

Download Torrent (Magnet)
Download Torrent (File)
Seeds: 187
Leechers: 55
Completed: 1,183 
Last Checked: 06-07-2019 04:49:35


Loading...
Details
Title:Jury Duty (1995) (1080p BluRay x265 HEVC 10bit DTS 2.0 Qman) [UTR]
Description:








Media Information

Media Information
General
Format                                   : Matroska
Format version                           : Version 4 / Version 2
File size                                : 3.00 GiB
Duration                                 : 1 h 27 min
Overall bit rate                         : 4 888 kb/s
Encoded date                             : UTC 2019-07-05 16:35:48
Writing application                      : mkvmerge v30.1.0 ('Forever And More') 64-bit
Writing library                          : libebml v1.3.6 + libmatroska v1.4.9

Video
ID                                       : 1
Format                                   : HEVC
Format/Info                              : High Efficiency Video Coding
Format profile                           : Main [email protected]@Main
Codec ID                                 : V_MPEGH/ISO/HEVC
Duration                                 : 1 h 27 min
Bit rate                                 : 4 112 kb/s
Width                                    : 1 920 pixels
Height                                   : 1 080 pixels
Display aspect ratio                     : 16:9
Frame rate mode                          : Constant
Frame rate                               : 23.976 (24000/1001) FPS
Color space                              : YUV
Chroma subsampling                       : 4:2:0
Bit depth                                : 10 bits
Bits/(Pixel*Frame)                       : 0.083
Stream size                              : 2.52 GiB (84%)
Writing library                          : x265 3.1_RC1+3-3bdf06e3c628:[Windows][GCC 9.1.1][64 bit] 10bit
Encoding settings                        : cpuid=1111039 / frame-threads=4 / numa-pools=16 / wpp / no-pmode / no-pme / no-psnr / no-ssim / log-level=2 / input-csp=1 / input-res=1920x1080 / interlace=0 / total-frames=126376 / level-idc=0 / high-tier=1 / uhd-bd=0 / ref=4 / no-allow-non-conformance / no-repeat-headers / annexb / no-aud / no-hrd / info / hash=0 / no-temporal-layers / open-gop / min-keyint=23 / keyint=250 / gop-lookahead=0 / bframes=8 / b-adapt=2 / b-pyramid / bframe-bias=0 / rc-lookahead=50 / lookahead-slices=4 / scenecut=40 / radl=0 / no-splice / no-intra-refresh / ctu=64 / min-cu-size=8 / no-rect / no-amp / max-tu-size=32 / tu-inter-depth=1 / tu-intra-depth=1 / limit-tu=0 / rdoq-level=2 / dynamic-rd=0.00 / no-ssim-rd / signhide / no-tskip / nr-intra=0 / nr-inter=0 / no-constrained-intra / no-strong-intra-smoothing / max-merge=3 / limit-refs=3 / limit-modes / me=3 / subme=3 / merange=57 / temporal-mvp / weightp / no-weightb / no-analyze-src-pics / deblock=-1:-1 / no-sao / no-sao-non-deblock / rd=4 / no-early-skip / no-rskip / no-fast-intra / no-tskip-fast / no-cu-lossless / b-intra / no-splitrd-skip / rdpenalty=0 / psy-rd=1.00 / psy-rdoq=2.50 / no-rd-refine / no-lossless / cbqpoffs=0 / crqpoffs=0 / rc=crf / crf=18.0 / qcomp=0.60 / qpstep=4 / stats-write=0 / stats-read=0 / ipratio=1.40 / pbratio=1.30 / aq-mode=2 / aq-strength=1.00 / cutree / zone-count=0 / no-strict-cbr / qg-size=32 / no-rc-grain / qpmax=69 / qpmin=0 / no-const-vbv / sar=0 / overscan=0 / videoformat=5 / range=0 / colorprim=2 / transfer=2 / colormatrix=2 / chromaloc=0 / display-window=0cll=0,0 / min-luma=0 / max-luma=1023 / log2-max-poc-lsb=8 / vui-timing-info / vui-hrd-info / slices=1 / no-opt-qp-pps / no-opt-ref-list-length-pps / no-multi-pass-opt-rps / scenecut-bias=0.05 / no-opt-cu-delta-qp / no-aq-motion / no-hdr / no-hdr-opt / no-dhdr10-opt / no-idr-recovery-sei / analysis-reuse-level=5 / scale-factor=0 / refine-intra=0 / refine-inter=0 / refine-mv=0 / refine-ctu-distortion=0 / no-limit-sao / ctu-info=0 / no-lowpass-dct / refine-analysis-type=0 / copy-pic=1 / max-ausize-factor=1.0 / no-dynamic-refine / no-single-sei / no-hevc-aq / no-svt / no-field / qp-adaptation-range=1.00
Language                                 : English
Default                                  : Yes
Forced                                   : No

Audio
ID                                       : 2
Format                                   : DTS
Format/Info                              : Digital Theater Systems
Mode                                     : 16
Format settings, Endianness              : Big
Codec ID                                 : A_DTS
Duration                                 : 1 h 27 min
Bit rate mode                            : Constant
Bit rate                                 : 768 kb/s
Channel(s)                               : 2 channels
Channel positions                        : Front: L R
Sampling rate                            : 48.0 kHz
Frame rate                               : 93.750 FPS (512 spf)
Bit depth                                : 16 bits
Compression mode                         : Lossy
Stream size                              : 483 MiB (16%)
Language                                 : English
Default                                  : Yes
Forced                                   : No

Subtitle
ID                                       : 3
Format                                   : PGS
Muxing mode                              : zlib
Codec ID                                 : S_HDMV/PGS
Codec ID/Info                            : Picture based subtitle format used on BDs/HD-DVDs
Duration                                 : 1 h 24 min
Bit rate                                 : 28.9 kb/s
Count of elements                        : 3215
Stream size                              : 17.4 MiB (1%)
Language                                 : English
Default                                  : Yes
Forced                                   : No

Menu
00:00:00.000                             : en:Chapter 01
00:07:39.792                             : en:Chapter 02
00:18:59.513                             : en:Chapter 03
00:30:16.731                             : en:Chapter 04
00:40:56.537                             : en:Chapter 05
00:54:00.403                             : en:Chapter 06
01:09:08.477                             : en:Chapter 07
01:23:57.115                             : en:Chapter 08



Source Information
Release:
Unknown Source/NO-GROUP



Category:Movies > HEVC/x265
Lang:English  English
Total Size:3.00 GB
Info Hash:7c7f209c6f2c6776ce400e5babc78521b6833820
Added By:UTR
Date Added:06-07-2019 04:49:31

Files

File List: 
 File Size
Jury.Duty.(1995).1080p.BluRay.10-bit.x265.DTS.2.0 Qman[UTR].mkv3.00 GB



Loading...
Comments

There are currently no comments. Be the first one to write something !