brightburn 2019 Mindhunter yts ma 2019 once upon a time in hollywood 2019 47 meters down uncaged 2019 flatland s01e01 Angel Has Fallen hellboy 2019 the hustle 2019 Xxx angel has fallen 2019 john wick chapter 3 – parabellum 2019 2.0 (2018) spider man far from home 2019 13 reasons why snowfall s03e07 night hunter 2019 dora and the lost city of gold 2019 crawl 2019 the angry birds movie 2 2019 Hard Knocks s14e03 the lion king 2019 13 reasons why s03 etmovies the kitchen 2019 the boys scary stories to tell in the dark 2019 ettv men in black international yellowstone s02e09 aladdin midsommar 2019 marvel week etrg dark phoenix dark phoenix 2019 ready or not 2019 the outpost queen of the south s04e12 john wick arrow español reef break suits hindi good boys 2019 evo kabir singh sextuplets 2019 animal kingdom s04e13 men in black international 2019 toy story 4 2019 the secret life of pets 2 2019 annabelle comes home 2019 avengers endgame 2019 shazam 2019 queen sugar s04e10 Suits s09e06 queen of the south fast furious presents hobbs shaw 2019 yellowstone john wick 3 13 reasons why season 3 avengers endgame wwe aladdin 2019 ddr dc week men in black godzilla king of the monsters 2019 ethd 
Warning! Use a VPN When Downloading Torrents!
Your IP Address is 34.238.189.171. Location is United States
Your Internet Provider is tracking your torrent activity! Hide your IP ADDRESS with a VPN!
We strongly recommend using ExpressVPN to anonymize your torrenting. 30 Day Money Back Guarantee!
Try it Now!
ETTV Recommended TV Shows
The.Outpost.S02E07.HDTV.x264-LucidTV[ettv] torrent
Queen.of.the.South.S04E12.HDTV.x264-SVA[ettv] torrent
Reef.Break.S01E09.WEB.H264-iNSiDiOUS[ettv] torrent
Yellowstone.2018.S02E09.WEBRip.x264-KOMPOST[ettv] torrent

ETTV Recommended SD
Hot.Air.2019.HDRip.XViD-ETRG torrent
Men in Black International.2019.BRRip.XviD.AC3-EVO[EtMovies] torrent
Jacobs Ladder.2019.HDRip.XViD-ETRG torrent
The Creatress.2019.BDRip.XviD.AC3-EVO[EtMovies] torrent

ETTV Recommended HD
Burn.2019.1080p.WEB-DL.H264.AC3-EVO[EtHD] torrent
Men.in.Black.International.2019.1080p.BluRay.x264-GECKOS[EtHD] torrent
John.Wick.Chapter.3.Parabellum.2019.1080p.AMZN.WEB-DL.DDP5.1.H.264-NTG[EtHD] torrent
Astro.Kid.2019.1080p.Bluray.x264-EVO[EtHD] torrent

ETTV Recommended UHD
Darkest Hour 2017.MULTi.UHD.Blu-ray.2160p.HDR.Atmos.7.1.HEVC-DDR torrent
Downsizing 2017.MULTi.UHD.Blu-ray.2160p.HDR..DTS-HDMA.7.1.HEVC-DDR torrent
The Shallows - Paradise Beach - Dentro L incubo (2016) [Bluray 2160p 4k UHD HDR10 HEVC Eng TrueHD Atmos 7.1 MultiLang Ac3 5.1 - Multisubs] torrent
John Wick Chapter 3 Parabellum 2019.UHD.2160p.HDR.WEB.Rip.DDP.5.1.HEVC-DDR[EtHD] torrent

ETTV Recommended Cam
Good Boys 2019 HDCAM x264 AC3-ETRG torrent
Crawl 2019 NEW HDCAM x264 AC3-ETRG torrent
Angel Has Fallen 2019 HDCAM x264 AC3-ETRG torrent
The Lion King 2019 NEW 720p HDCAM No Ads x264 AC3-SeeHD torrent

ETTV Recommended Foreign
Article.15.2019.1080p.NF.DL.H264.DDP.5.1.ESUBS.Telly torrent
No.Mercy.2019.MULTi.1080p.DTS-HDMA.5.1.HEVC-DDR[EtHD] torrent
Kobiety mafii 2 (2019)  [WEB-DL] [XviD-KiT] [Napisy PL] torrent
Kelebekler (2018) 1080p NF WEB-DL DDP5.1 H264 - TURG[EtHD] torrent


Download Torrent "Stranger Things (2016) Season 03 S03 (1080p NF WEB-DL x265 HEVC 10bit AC3 5..."

IMDB Details
Description:

When a young boy disappears, his mother, a police chief, and his friends must confront terrifying forces in order to get him back.

Genre:

Drama, Fantasy, Horror, Mystery, Sci-Fi, Thriller

Download Torrent (Magnet)
Download Torrent (File)
Seeds: 1,294
Leechers: 1,203
Completed: 6,524 
Last Checked: 06-07-2019 05:53:29


Loading...
Details
Title:Stranger Things (2016) Season 03 S03 (1080p NF WEB-DL x265 HEVC 10bit AC3 5...
Description:


























Media Information

Media InformationGeneral
Format                                   : Matroska
Format version                           : Version 4 / Version 2
File size                                : 1.77 GiB
Duration                                 : 50 min 33 s
Overall bit rate                         : 5 007 kb/s
Encoded date                             : UTC 2019-07-06 02:47:46
Writing application                      : mkvmerge v30.1.0 ('Forever And More') 64-bit
Writing library                          : libebml v1.3.6 + libmatroska v1.4.9

Video
ID                                       : 1
Format                                   : HEVC
Format/Info                              : High Efficiency Video Coding
Format profile                           : Main [email protected]@Main
Codec ID                                 : V_MPEGH/ISO/HEVC
Duration                                 : 50 min 33 s
Bit rate                                 : 4 362 kb/s
Width                                    : 1 920 pixels
Height                                   : 1 080 pixels
Display aspect ratio                     : 16:9
Frame rate mode                          : Constant
Frame rate                               : 23.976 (24000/1001) FPS
Color space                              : YUV
Chroma subsampling                       : 4:2:0
Bit depth                                : 10 bits
Bits/(Pixel*Frame)                       : 0.088
Stream size                              : 1.54 GiB (87%)
Writing library                          : x265 3.1_RC1+3-3bdf06e3c628:[Windows][GCC 9.1.1][64 bit] 10bit
Encoding settings                        : cpuid=1111039 / frame-threads=4 / numa-pools=16 / wpp / no-pmode / no-pme / no-psnr / no-ssim / log-level=2 / input-csp=1 / input-res=1920x1080 / interlace=0 / total-frames=72733 / level-idc=0 / high-tier=1 / uhd-bd=0 / ref=4 / no-allow-non-conformance / no-repeat-headers / annexb / no-aud / no-hrd / info / hash=0 / no-temporal-layers / open-gop / min-keyint=23 / keyint=250 / gop-lookahead=0 / bframes=8 / b-adapt=2 / b-pyramid / bframe-bias=0 / rc-lookahead=80 / lookahead-slices=4 / scenecut=40 / radl=0 / no-splice / no-intra-refresh / ctu=64 / min-cu-size=8 / no-rect / no-amp / max-tu-size=32 / tu-inter-depth=1 / tu-intra-depth=1 / limit-tu=0 / rdoq-level=2 / dynamic-rd=0.00 / no-ssim-rd / signhide / no-tskip / nr-intra=0 / nr-inter=0 / no-constrained-intra / no-strong-intra-smoothing / max-merge=3 / limit-refs=3 / limit-modes / me=3 / subme=5 / merange=57 / temporal-mvp / weightp / no-weightb / no-analyze-src-pics / deblock=1:1 / no-sao / no-sao-non-deblock / rd=4 / no-early-skip / no-rskip / no-fast-intra / no-tskip-fast / no-cu-lossless / no-b-intra / no-splitrd-skip / rdpenalty=0 / psy-rd=1.50 / psy-rdoq=1.00 / no-rd-refine / no-lossless / cbqpoffs=0 / crqpoffs=0 / rc=crf / crf=21.5 / qcomp=0.60 / qpstep=4 / stats-write=0 / stats-read=0 / ipratio=1.40 / pbratio=1.30 / aq-mode=3 / aq-strength=1.00 / cutree / zone-count=0 / no-strict-cbr / qg-size=32 / no-rc-grain / qpmax=69 / qpmin=0 / no-const-vbv / sar=0 / overscan=0 / videoformat=5 / range=0 / colorprim=2 / transfer=2 / colormatrix=2 / chromaloc=0 / display-window=0cll=0,0 / min-luma=0 / max-luma=1023 / log2-max-poc-lsb=8 / vui-timing-info / vui-hrd-info / slices=1 / no-opt-qp-pps / no-opt-ref-list-length-pps / no-multi-pass-opt-rps / scenecut-bias=0.05 / no-opt-cu-delta-qp / no-aq-motion / no-hdr / no-hdr-opt / no-dhdr10-opt / no-idr-recovery-sei / analysis-reuse-level=5 / scale-factor=0 / refine-intra=0 / refine-inter=0 / refine-mv=0 / refine-ctu-distortion=0 / no-limit-sao / ctu-info=0 / no-lowpass-dct / refine-analysis-type=0 / copy-pic=1 / max-ausize-factor=1.0 / no-dynamic-refine / no-single-sei / no-hevc-aq / no-svt / no-field / qp-adaptation-range=1.00
Language                                 : English
Default                                  : Yes
Forced                                   : No

Audio
ID                                       : 2
Format                                   : E-AC-3
Format/Info                              : Enhanced Audio Coding 3
Format settings, Endianness              : Big
Codec ID                                 : A_EAC3
Duration                                 : 50 min 33 s
Bit rate mode                            : Constant
Bit rate                                 : 640 kb/s
Channel(s)                               : 6 channels
Channel positions                        : Front: L C R, Side: L R, LFE
Sampling rate                            : 48.0 kHz
Frame rate                               : 187.500 FPS (256 spf)
Compression mode                         : Lossy
Stream size                              : 231 MiB (13%)
Language                                 : English
Default                                  : Yes
Forced                                   : No

Subtitle #1
ID                                       : 3
Format                                   : UTF-8
Codec ID                                 : S_TEXT/UTF8
Codec ID/Info                            : UTF-8 Plain Text
Duration                                 : 39 min 59 s
Bit rate                                 : 0 b/s
Count of elements                        : 14
Stream size                              : 297 Bytes (0%)
Language                                 : English
Default                                  : Yes
Forced                                   : Yes

Subtitle #2
ID                                       : 4
Format                                   : UTF-8
Codec ID                                 : S_TEXT/UTF8
Codec ID/Info                            : UTF-8 Plain Text
Duration                                 : 42 min 52 s
Bit rate                                 : 55 b/s
Count of elements                        : 622
Stream size                              : 17.5 KiB (0%)
Language                                 : English
Default                                  : No
Forced                                   : No

Subtitle #3
ID                                       : 5
Format                                   : UTF-8
Codec ID                                 : S_TEXT/UTF8
Codec ID/Info                            : UTF-8 Plain Text
Duration                                 : 48 min 53 s
Bit rate                                 : 59 b/s
Count of elements                        : 778
Stream size                              : 21.2 KiB (0%)
Language                                 : English
Default                                  : No
Forced                                   : No

Subtitle #4
ID                                       : 6
Format                                   : UTF-8
Codec ID                                 : S_TEXT/UTF8
Codec ID/Info                            : UTF-8 Plain Text
Duration                                 : 48 min 40 s
Bit rate                                 : 73 b/s
Count of elements                        : 540
Stream size                              : 26.2 KiB (0%)
Language                                 : Arabic
Default                                  : No
Forced                                   : No

Subtitle #5
ID                                       : 7
Format                                   : UTF-8
Codec ID                                 : S_TEXT/UTF8
Codec ID/Info                            : UTF-8 Plain Text
Duration                                 : 48 min 40 s
Bit rate                                 : 38 b/s
Count of elements                        : 531
Stream size                              : 13.8 KiB (0%)
Language                                 : Czech
Default                                  : No
Forced                                   : No

Subtitle #6
ID                                       : 8
Format                                   : UTF-8
Codec ID                                 : S_TEXT/UTF8
Codec ID/Info                            : UTF-8 Plain Text
Duration                                 : 48 min 40 s
Bit rate                                 : 38 b/s
Count of elements                        : 519
Stream size                              : 13.7 KiB (0%)
Language                                 : Danish
Default                                  : No
Forced                                   : No

Subtitle #7
ID                                       : 9
Format                                   : UTF-8
Codec ID                                 : S_TEXT/UTF8
Codec ID/Info                            : UTF-8 Plain Text
Duration                                 : 48 min 40 s
Bit rate                                 : 36 b/s
Count of elements                        : 506
Stream size                              : 13.0 KiB (0%)
Language                                 : German
Default                                  : No
Forced                                   : No

Subtitle #8
ID                                       : 10
Format                                   : UTF-8
Codec ID                                 : S_TEXT/UTF8
Codec ID/Info                            : UTF-8 Plain Text
Duration                                 : 48 min 40 s
Bit rate                                 : 61 b/s
Count of elements                        : 545
Stream size                              : 22.0 KiB (0%)
Language                                 : Greek
Default                                  : No
Forced                                   : No

Subtitle #9
ID                                       : 11
Format                                   : UTF-8
Codec ID                                 : S_TEXT/UTF8
Codec ID/Info                            : UTF-8 Plain Text
Duration                                 : 48 min 40 s
Bit rate                                 : 36 b/s
Count of elements                        : 541
Stream size                              : 13.0 KiB (0%)
Language                                 : Spanish
Default                                  : No
Forced                                   : No

Subtitle #10
ID                                       : 12
Format                                   : UTF-8
Codec ID                                 : S_TEXT/UTF8
Codec ID/Info                            : UTF-8 Plain Text
Duration                                 : 48 min 40 s
Bit rate                                 : 37 b/s
Count of elements                        : 531
Stream size                              : 13.3 KiB (0%)
Title                                    : European
Language                                 : Spanish
Default                                  : No
Forced                                   : No

Subtitle #11
ID                                       : 13
Format                                   : UTF-8
Codec ID                                 : S_TEXT/UTF8
Codec ID/Info                            : UTF-8 Plain Text
Duration                                 : 48 min 40 s
Bit rate                                 : 35 b/s
Count of elements                        : 414
Stream size                              : 12.8 KiB (0%)
Language                                 : Finnish
Default                                  : No
Forced                                   : No

Subtitle #12
ID                                       : 14
Format                                   : UTF-8
Codec ID                                 : S_TEXT/UTF8
Codec ID/Info                            : UTF-8 Plain Text
Duration                                 : 48 min 40 s
Bit rate                                 : 39 b/s
Count of elements                        : 505
Stream size                              : 14.0 KiB (0%)
Language                                 : French
Default                                  : No
Forced                                   : No

Subtitle #13
ID                                       : 15
Format                                   : UTF-8
Codec ID                                 : S_TEXT/UTF8
Codec ID/Info                            : UTF-8 Plain Text
Duration                                 : 48 min 40 s
Bit rate                                 : 67 b/s
Count of elements                        : 543
Stream size                              : 23.9 KiB (0%)
Language                                 : Hebrew
Default                                  : No
Forced                                   : No

Subtitle #14
ID                                       : 16
Format                                   : UTF-8
Codec ID                                 : S_TEXT/UTF8
Codec ID/Info                            : UTF-8 Plain Text
Duration                                 : 48 min 40 s
Bit rate                                 : 40 b/s
Count of elements                        : 520
Stream size                              : 14.4 KiB (0%)
Language                                 : Hungarian
Default                                  : No
Forced                                   : No

Subtitle #15
ID                                       : 17
Format                                   : UTF-8
Codec ID                                 : S_TEXT/UTF8
Codec ID/Info                            : UTF-8 Plain Text
Duration                                 : 48 min 40 s
Bit rate                                 : 36 b/s
Count of elements                        : 544
Stream size                              : 13.1 KiB (0%)
Language                                 : Indonesian
Default                                  : No
Forced                                   : No

Subtitle #16
ID                                       : 18
Format                                   : UTF-8
Codec ID                                 : S_TEXT/UTF8
Codec ID/Info                            : UTF-8 Plain Text
Duration                                 : 48 min 40 s
Bit rate                                 : 36 b/s
Count of elements                        : 515
Stream size                              : 13.0 KiB (0%)
Language                                 : Italian
Default                                  : No
Forced                                   : No

Subtitle #17
ID                                       : 19
Format                                   : UTF-8
Codec ID                                 : S_TEXT/UTF8
Codec ID/Info                            : UTF-8 Plain Text
Duration                                 : 48 min 40 s
Bit rate                                 : 35 b/s
Count of elements                        : 579
Stream size                              : 12.8 KiB (0%)
Language                                 : Japanese
Default                                  : No
Forced                                   : No

Subtitle #18
ID                                       : 20
Format                                   : UTF-8
Codec ID                                 : S_TEXT/UTF8
Codec ID/Info                            : UTF-8 Plain Text
Duration                                 : 48 min 40 s
Bit rate                                 : 47 b/s
Count of elements                        : 544
Stream size                              : 16.9 KiB (0%)
Language                                 : Korean
Default                                  : No
Forced                                   : No

Subtitle #19
ID                                       : 21
Format                                   : UTF-8
Codec ID                                 : S_TEXT/UTF8
Codec ID/Info                            : UTF-8 Plain Text
Duration                                 : 48 min 40 s
Bit rate                                 : 35 b/s
Count of elements                        : 489
Stream size                              : 12.5 KiB (0%)
Language                                 : Norwegian Bokmal
Default                                  : No
Forced                                   : No

Subtitle #20
ID                                       : 22
Format                                   : UTF-8
Codec ID                                 : S_TEXT/UTF8
Codec ID/Info                            : UTF-8 Plain Text
Duration                                 : 48 min 40 s
Bit rate                                 : 35 b/s
Count of elements                        : 439
Stream size                              : 12.7 KiB (0%)
Language                                 : Dutch
Default                                  : No
Forced                                   : No

Subtitle #21
ID                                       : 23
Format                                   : UTF-8
Codec ID                                 : S_TEXT/UTF8
Codec ID/Info                            : UTF-8 Plain Text
Duration                                 : 48 min 40 s
Bit rate                                 : 35 b/s
Count of elements                        : 528
Stream size                              : 12.8 KiB (0%)
Language                                 : Polish
Default                                  : No
Forced                                   : No

Subtitle #22
ID                                       : 24
Format                                   : UTF-8
Codec ID                                 : S_TEXT/UTF8
Codec ID/Info                            : UTF-8 Plain Text
Duration                                 : 48 min 40 s
Bit rate                                 : 39 b/s
Count of elements                        : 542
Stream size                              : 14.0 KiB (0%)
Language                                 : Portuguese
Default                                  : No
Forced                                   : No

Subtitle #23
ID                                       : 25
Format                                   : UTF-8
Codec ID                                 : S_TEXT/UTF8
Codec ID/Info                            : UTF-8 Plain Text
Duration                                 : 48 min 42 s
Bit rate                                 : 38 b/s
Count of elements                        : 542
Stream size                              : 13.8 KiB (0%)
Title                                    : Brazilian
Language                                 : Portuguese
Default                                  : No
Forced                                   : No

Subtitle #24
ID                                       : 26
Format                                   : UTF-8
Codec ID                                 : S_TEXT/UTF8
Codec ID/Info                            : UTF-8 Plain Text
Duration                                 : 48 min 40 s
Bit rate                                 : 44 b/s
Count of elements                        : 524
Stream size                              : 15.9 KiB (0%)
Language                                 : Romanian
Default                                  : No
Forced                                   : No

Subtitle #25
ID                                       : 27
Format                                   : UTF-8
Codec ID                                 : S_TEXT/UTF8
Codec ID/Info                            : UTF-8 Plain Text
Duration                                 : 48 min 40 s
Bit rate                                 : 60 b/s
Count of elements                        : 496
Stream size                              : 21.7 KiB (0%)
Language                                 : Russian
Default                                  : No
Forced                                   : No

Subtitle #26
ID                                       : 28
Format                                   : UTF-8
Codec ID                                 : S_TEXT/UTF8
Codec ID/Info                            : UTF-8 Plain Text
Duration                                 : 48 min 37 s
Bit rate                                 : 38 b/s
Count of elements                        : 491
Stream size                              : 13.6 KiB (0%)
Language                                 : Swedish
Default                                  : No
Forced                                   : No

Subtitle #27
ID                                       : 29
Format                                   : UTF-8
Codec ID                                 : S_TEXT/UTF8
Codec ID/Info                            : UTF-8 Plain Text
Duration                                 : 48 min 40 s
Bit rate                                 : 98 b/s
Count of elements                        : 544
Stream size                              : 35.2 KiB (0%)
Language                                 : Thai
Default                                  : No
Forced                                   : No

Subtitle #28
ID                                       : 30
Format                                   : UTF-8
Codec ID                                 : S_TEXT/UTF8
Codec ID/Info                            : UTF-8 Plain Text
Duration                                 : 48 min 40 s
Bit rate                                 : 41 b/s
Count of elements                        : 518
Stream size                              : 14.8 KiB (0%)
Language                                 : Turkish
Default                                  : No
Forced                                   : No

Subtitle #29
ID                                       : 31
Format                                   : UTF-8
Codec ID                                 : S_TEXT/UTF8
Codec ID/Info                            : UTF-8 Plain Text
Duration                                 : 48 min 40 s
Bit rate                                 : 56 b/s
Count of elements                        : 536
Stream size                              : 20.1 KiB (0%)
Language                                 : Vietnamese
Default                                  : No
Forced                                   : No

Subtitle #30
ID                                       : 32
Format                                   : UTF-8
Codec ID                                 : S_TEXT/UTF8
Codec ID/Info                            : UTF-8 Plain Text
Duration                                 : 48 min 40 s
Bit rate                                 : 44 b/s
Count of elements                        : 546
Stream size                              : 15.8 KiB (0%)
Title                                    : Simplified
Language                                 : Chinese
Default                                  : No
Forced                                   : No

Subtitle #31
ID                                       : 33
Format                                   : UTF-8
Codec ID                                 : S_TEXT/UTF8
Codec ID/Info                            : UTF-8 Plain Text
Duration                                 : 48 min 40 s
Bit rate                                 : 39 b/s
Count of elements                        : 543
Stream size                              : 14.0 KiB (0%)
Title                                    : Traditional
Language                                 : Chinese
Default                                  : No
Forced                                   : No

Menu
00:05:06.015                             : en:Intro start
00:05:54.521                             : en:Intro end



Source InformationRelease:
Unknown Source/NO-GROUP



Category:TV > HEVC/x265
Lang:English  English
Total Size:14.05 GB
Info Hash:10d92d4480f80f4878ce164c293ebb91e3ec1c70
Added By:UTR
Date Added:06-07-2019 05:53:26

Files

File List: 
 File Size
Stranger.Things.S03E01.1080p.NF.WEB-DL.x265.10bit.EAC3.6.0-Qman[UTR].mkv1.77 GB
Stranger.Things.S03E02.1080p.NF.WEB-DL.x265.10bit.EAC3.6.0-Qman[UTR].mkv1.51 GB
Stranger.Things.S03E03.1080p.NF.WEB-DL.x265.10bit.EAC3.6.0-Qman[UTR].mkv1.38 GB
Stranger.Things.S03E04.1080p.NF.WEB-DL.x265.10bit.EAC3.6.0-Qman[UTR].mkv1.54 GB
Stranger.Things.S03E05.1080p.NF.WEB-DL.x265.10bit.EAC3.6.0-Qman[UTR].mkv1.54 GB
Stranger.Things.S03E06.1080p.NF.WEB-DL.x265.10bit.EAC3.6.0-Qman[UTR].mkv2.24 GB
Stranger.Things.S03E07.1080p.NF.WEB-DL.x265.10bit.EAC3.6.0-Qman[UTR].mkv1.74 GB
Stranger.Things.S03E08.1080p.NF.WEB-DL.x265.10bit.EAC3.6.0-Qman[UTR].mkv2.33 GB



Loading...
Comments

There are currently no comments. Be the first one to write something !