bull BATWOMAN proper godfather of harlem s01e03 all rise s01e04 0 zombieland double tap 2019 mr robot s04e02 bull s04e04 etmovies ncis it chapter two 2019 The Lion King power s06e08 scary stories to tell in the dark 2019 the flash  spider man far from home 2019 all american s02e02 toy story 4 2019 joker 2019 prodigal son 9 1 1 s03e04 el camino the addams family None MR ROBOT love hip hop hollywood s06e11 ballers s05e08 bluff city law s01e04 black lightning s03e02 ddr xxx titans the good doctor s03e04 Evo black lightning the lion king 2019 evo 浆果儿 once upon a time in hollywood 2019 yts fast furious presents hobbs shaw 2019 Ettv etrg supergirl angel has fallen 2019 HINDI 9-1-1 the walking dead s10e02 rambo last blood 2019 south park joker prodigal son s01e04 Power the rookie s02e03 ad astra the irishman 2019 supergirl s05e02 The Deuce wwe ethd the walking dead avengers endgame 2019 titans s02e06 el camino a breaking bad movie 2019 batwoman s01e02 succession gemini man 2019 Ballers the good doctor hustlers 2019 
Warning! Use a VPN,When Downloading Torrents!
Your IP Address is 100.24.122.228. Location is United States
Your Internet Provider is tracking your torrent activity! Hide your IP ADDRESS with a VPN!
We strongly recommend using ExpressVPN to anonymize your torrenting. 30 Day Money Back Guarantee!
Try it Now!
ETTV Recommended TV Shows
Arrow.S08E01.HDTV.x264-SVA[ettv] torrent
FBI.S02E04.HDTV.x264-SVA[ettv] torrent
NCIS.S17E04.HDTV.x264-SVA[ettv] torrent
The.Flash.2014.S06E02.HDTV.x264-SVA[ettv] torrent
Emergence.S01E04.HDTV.x264-KILLERS[ettv] torrent
New.Amsterdam.2018.S02E04.HDTV.x264-KILLERS[ettv] torrent
The.Resident.S03E04.WEB.x264-TBS[ettv] torrent
The.Purge.S02E01.HDTV.x264-SVA[ettv] torrent

ETTV Recommended SD
The.Drone.2019.HDRip.XviD.AC3-EVO torrent
100.Acres.Of.Hell.2019.HDRip.XviD.AC3-EVO torrent
Portal.2019.HDRip.XViD-ETRG torrent
The Catcher Was a Spy.2019.BDRip.XviD.AC3-EVO torrent

ETTV Recommended HD
Crawl.2019.MULTi.BluRay.1080p.DTS-HD.MA.7.1.HEVC-DDR[EtHD] torrent
Shadow.Wolves.2019.1080p.Blu-ray.DTS-HD.MA.5.1.HEVC-DDR[EtHD] torrent
Among.Thieves.2019.1080p.WEB-DL.H264.AC3-EVO[EtHD] torrent
The Catcher Was a Spy.2019.1080p.Bluray.X264-EVO[EtHD] torrent

ETTV Recommended UHD
Scarface.1983.MULTi.UHD.Blu-ray.2160p.HDR.DTS-X.7.1.HEVC-DDR torrent
Hellboy 2004.MULTi.UHD.Blu-ray.2160p.HDR.Atmos.7.1.HEVC-DDR torrent
The.Death.and.Return.of.Superman.2019.MULTi.UHD.Blu-ray.2160p.HDR.DTS-HDMA.5.1.HEVC-DDR torrent
American.Gangster.2007.MULTi.UHD.Blu-ray.2160p.HDR.DTS-X.7.1.HEVC.DDR torrent

ETTV Recommended Cam
Zombieland Double Tap 2019 720p HDCAM-GETB8 torrent
The Addams Family 2019 720p HDCAM-GETB8 torrent
Dora and the Lost City of Gold 2019 720p NEW HDCAM-GETB8 torrent
Joker.2019.HDTS.x264.AC3-ETRG torrent

ETTV Recommended Foreign
War.2019.Hindi.1CD.Pre.Rip.XviD.MP3.Multi.SuB.DusIcTv torrent
La.camarista.2018.REPACK.1080p.AMZN.WEB-DL.DDP5.1.H.264-NTG[EtHD] torrent
Little Monsters (2019) 720p HDRip [Hindi-Dub] Dul-Audio x264 1XBET - KatmovieHD torrent
Asterix And Obelix Mansion Of The Gods (2014) x264 720p UNCUT BluRay [Hindi ORG DD 2.0 + ENG 2.0] Exclusive By DREDD torrent


Download Torrent "Elementary S07E07 (1080p AMZN WEB-DL x265 HEVC 10bit AC3 5.1 Qman) [UTR]"

IMDB Details
Description:

N/A

Genre:

N/A

Download Torrent (Magnet)
Download Torrent (File)
Seeds: 314
Leechers: 54
Completed: 2,898 
Last Checked: 06-07-2019 15:24:46


Loading...
Details
Title:Elementary S07E07 (1080p AMZN WEB-DL x265 HEVC 10bit AC3 5.1 Qman) [UTR]
Description:







Media Information

Media Information
General
Format                                   : Matroska
Format version                           : Version 4 / Version 2
File size                                : 1.01 GiB
Duration                                 : 41 min 3 s
Overall bit rate                         : 3 538 kb/s
Encoded date                             : UTC 2019-07-06 06:47:43
Writing application                      : mkvmerge v30.1.0 ('Forever And More') 64-bit
Writing library                          : libebml v1.3.6 + libmatroska v1.4.9

Video
ID                                       : 1
Format                                   : HEVC
Format/Info                              : High Efficiency Video Coding
Format profile                           : Main [email protected]@Main
Codec ID                                 : V_MPEGH/ISO/HEVC
Duration                                 : 41 min 3 s
Bit rate                                 : 2 896 kb/s
Width                                    : 1 920 pixels
Height                                   : 1 080 pixels
Display aspect ratio                     : 16:9
Frame rate mode                          : Constant
Frame rate                               : 23.976 (24000/1001) FPS
Color space                              : YUV
Chroma subsampling                       : 4:2:0
Bit depth                                : 10 bits
Bits/(Pixel*Frame)                       : 0.058
Stream size                              : 850 MiB (82%)
Writing library                          : x265 3.0_Au+27-3f4fb9a2ac68:[Windows][MSVC 1920][64 bit] 10bit
Encoding settings                        : cpuid=1111039 / frame-threads=2 / numa-pools=4 / wpp / no-pmode / no-pme / no-psnr / no-ssim / log-level=2 / input-csp=1 / input-res=1920x1080 / interlace=0 / total-frames=59057 / level-idc=0 / high-tier=1 / uhd-bd=0 / ref=4 / no-allow-non-conformance / no-repeat-headers / annexb / no-aud / no-hrd / info / hash=0 / no-temporal-layers / open-gop / min-keyint=23 / keyint=250 / gop-lookahead=0 / bframes=8 / b-adapt=2 / b-pyramid / bframe-bias=0 / rc-lookahead=50 / lookahead-slices=4 / scenecut=40 / radl=0 / no-splice / no-intra-refresh / ctu=64 / min-cu-size=8 / no-rect / no-amp / max-tu-size=32 / tu-inter-depth=1 / tu-intra-depth=1 / limit-tu=0 / rdoq-level=2 / dynamic-rd=0.00 / no-ssim-rd / signhide / no-tskip / nr-intra=0 / nr-inter=0 / no-constrained-intra / no-strong-intra-smoothing / max-merge=3 / limit-refs=3 / limit-modes / me=3 / subme=3 / merange=57 / temporal-mvp / weightp / no-weightb / no-analyze-src-pics / deblock=1:1 / no-sao / no-sao-non-deblock / rd=4 / no-early-skip / no-rskip / no-fast-intra / no-tskip-fast / no-cu-lossless / no-b-intra / no-splitrd-skip / rdpenalty=0 / psy-rd=1.40 / psy-rdoq=1.00 / no-rd-refine / no-lossless / cbqpoffs=0 / crqpoffs=0 / rc=crf / crf=21.0 / qcomp=0.60 / qpstep=4 / stats-write=0 / stats-read=0 / ipratio=1.40 / pbratio=1.30 / aq-mode=2 / aq-strength=1.00 / cutree / zone-count=0 / no-strict-cbr / qg-size=32 / no-rc-grain / qpmax=69 / qpmin=0 / no-const-vbv / sar=0 / overscan=0 / videoformat=5 / range=0 / colorprim=2 / transfer=2 / colormatrix=2 / chromaloc=0 / display-window=0 / max-cll=0,0 / min-luma=0 / max-luma=1023 / log2-max-poc-lsb=8 / vui-timing-info / vui-hrd-info / slices=1 / no-opt-qp-pps / no-opt-ref-list-length-pps / no-multi-pass-opt-rps / scenecut-bias=0.05 / no-opt-cu-delta-qp / no-aq-motion / no-hdr / no-hdr-opt / no-dhdr10-opt / no-idr-recovery-sei / analysis-reuse-level=5 / scale-factor=0 / refine-intra=0 / refine-inter=0 / refine-mv=0 / refine-ctu-distortion=0 / no-limit-sao / ctu-info=0 / no-lowpass-dct / refine-analysis-type=0 / copy-pic=1 / max-ausize-factor=1.0 / no-dynamic-refine / no-single-sei / no-hevc-aq / no-svt / qp-adaptation-range=1.00
Language                                 : English
Default                                  : Yes
Forced                                   : No

Audio
ID                                       : 2
Format                                   : E-AC-3
Format/Info                              : Enhanced Audio Coding 3
Format settings, Endianness              : Big
Codec ID                                 : A_EAC3
Duration                                 : 41 min 3 s
Bit rate mode                            : Constant
Bit rate                                 : 640 kb/s
Channel(s)                               : 6 channels
Channel positions                        : Front: L C R, Side: L R, LFE
Sampling rate                            : 48.0 kHz
Frame rate                               : 187.500 FPS (256 spf)
Compression mode                         : Lossy
Stream size                              : 188 MiB (18%)
Language                                 : English
Default                                  : Yes
Forced                                   : No

Subtitle
ID                                       : 3
Format                                   : UTF-8
Codec ID                                 : S_TEXT/UTF8
Codec ID/Info                            : UTF-8 Plain Text
Duration                                 : 40 min 36 s
Bit rate                                 : 111 b/s
Count of elements                        : 987
Stream size                              : 33.0 KiB (0%)
Language                                 : English
Default                                  : Yes
Forced                                   : No



Source Information
Release: Unknown Source/NO-GROUP



Note From UTR
We have no issue with individuals posting or re-uploading our torrents on a platform we aren't on. However, if this is something you'd like to do, please do so in a 'as-is' format. We ask that you do not create a new torrent, include all descriptions you see above including the UTR logo, tags, notes and screenshots. If you'd like to become a permanent poster on a website we don't post to, feel free to get in contact with a UniTeam member.

If possible please donate: BTC 1QA5fum5AyXvWzdVCkQzUNvw3Ef15fHRaR




Category:TV > HEVC/x265
Lang:English  English
Total Size:1.01 GB
Info Hash:7ed635b34028ab05228a086e50badd7d4b7edd3a
Added By:UTR
Date Added:06-07-2019 15:24:43

Files

File List: 
 File Size
Elementary.S07E07.1080p.AMZN.WEB-DL.x265.10bit.EAC3.6.0-Qman[UTR].mkv1.01 GB



Loading...
Comments

There are currently no comments. Be the first one to write something !