MR ROBOT avengers endgame 2019 the walking dead ddr good boys 2019 ettv supernatural s15e02 it chapter two 2019 spider man far from home 2019 south park blue bloods the irishman 2019 Seal Team titans charmed titans s02e07 angel has fallen 2019 once upon a time in hollywood 2019 fast furious presents hobbs shaw 2019 blue bloods s10e04 zombieland double tap 2019 van helsing the lion king 2019 hustlers 2019 the good place the addams family 2019 mr mercedes joker 2019 joker maleficent mistress of evil 2019 gemini man 2019 the blacklist young sheldon ufc xxx etrg 浆果儿 hindi blacklist 幼女 el camino a breaking bad movie 2019 american horror story 萝莉 Saaho gold rush s10e02 evo Modern Family rambo last blood 2019 supernatural etmovies wwe the blacklist s07e03 0 ethd van helsing s04e04 arrow evil s01e04 gold rush scary stories to tell in the dark 2019 Supergirl the flash GREYS ANATOMY S16E04 yts aladdin 2019 once upon a time in hollywood toy story 4 2019 stuber 2019 Greys Anatomy  creepshow walking dead 
Warning! Use a VPN,When Downloading Torrents!
Your IP Address is 34.204.173.45. Location is United States
Your Internet Provider is tracking your torrent activity! Hide your IP ADDRESS with a VPN!
We strongly recommend using ExpressVPN to anonymize your torrenting. 30 Day Money Back Guarantee!
Try it Now!
ETTV Recommended TV Shows
Hawaii.Five-0.2010.S10E04.HDTV.x264-SVA[ettv] torrent
Magnum.P.I.2018.S02E04.HDTV.x264-SVA[ettv] torrent
Blue.Bloods.S10E04.HDTV.x264-SVA[ettv] torrent
Van.Helsing.S04E04.HDTV.x264-SVA[ettv] torrent
WWE Friday Night SmackDown 2019 10 18 HDTV x264-NWCHD [TJET] torrent
UFC on ESPN 6 WEB-DL H264 Fight-BB torrent

ETTV Recommended SD
Miss.Virginia.2019.HDRip.XviD.AC3-EVO torrent
William.2019.HDRip.XviD.AC3-EVO torrent
Eli.2019.HDRip.XviD.AC3-EVO torrent
Extra Ordinary.2019.HDRip.XviD.AC3-EVO torrent

ETTV Recommended HD
Wounds.2019.REPACK.1080p.HULU.WEB-DL.DDP5.1.H.264-NTG[EtHD] torrent
The.Laundromat.2019.1080p.NF.WEB-DL.DDP5.1.x264-NTG[EtHD] torrent
Passengers.2016.BDRip.1080p.x264.Multilang.DTS.DD5.1.Gerald torrent
The.Wolf.of.Wall.Street.2013.1080p.NF.WEB-DL.H264-ETRG[EtHD] torrent

ETTV Recommended UHD
The.Secret.Life.of.Pets.2.2019.4K.HDR.2160p.BDRip Ita Eng x265-NAHOM torrent
Alita.Battle.Angel.2019.4K.HDR10+.2160p.BDRip Ita Eng x265-NAHOM torrent
Casino.Royale.2006.2160p.UHD.BluRay.X265-IAMABLE torrent
Hellboy.2004.DC.4K.HDR.2160p.BDRip Ita Eng x265-NAHOM torrent

ETTV Recommended Cam
Joker.2019.HDTS.x264.AC3-ETRG torrent
Maleficent Mistress of Evil 2019 720p HDCAM-GETB8 torrent
The Lighthouse 2019 720p HDCAM-GETB8 torrent
Jojo Rabbit 2019 720p HDCAM-GETB8 torrent

ETTV Recommended Foreign
Infernal (2015) x264 720p UNRATED WEB-DL {Dual Audio} [Hindi ORG DD 2.0 + English 2.0] Exclusive By DREDD torrent
Thadam (2019) 720p UNCUT HDRip x264 Eng Subs [Dual Audio] [Hindi DD 2.0 - Tamil 5.1] Exclusive By -=!Dr.STAR!=- torrent
Qahwat.Bursat.Misr.2019.1080p.HDTV.Arabic.قهوة بورصة مصر-Holly[ETArabia] torrent
Saaho.2019.Hindi.1080p.AMZN.WeB.DL.AVC.MP3.Line.Audio.DusIcTv torrent


Download Torrent "Pokemon Ranger and the Temple of the Sea (2006) 1080p BDRip x265 AC3 2.0 Go..."

IMDB Details
Description:

Our heroes must protect the Prince of the Sea, Manaphy, from the evil pirate Phantom, and return the young Pokémon to the Sea Temple with the help of the the People of the Water and Jackie the Pokémon Ranger.

Genre:

Animation, Action, Adventure, Family, Fantasy, Sci-Fi

Download Torrent (Magnet)
Download Torrent (File)
Seeds: 88
Leechers: 76
Completed: 508 
Last Checked: 10-07-2019 13:31:10


Loading...
Details
Title:Pokemon Ranger and the Temple of the Sea (2006) 1080p BDRip x265 AC3 2.0 Go...
Description:




Screenshots





Media Information

Unique ID                                : 194126096760648072545214271736599469736 (0x920B5386AE9931AFBFDD12549A4EDEA8)
Complete name                            : Pokemon Ranger and the Temple of the Sea (2006) 1080p BDRip x265 AC3 2.0 Goki [SEV].mkv
Format                                   : Matroska
Format version                           : Version 4
File size                                : 3.32 GiB
Duration                                 : 1 h 46 min
Overall bit rate                         : 4 452 kb/s
Movie name                               : Pokemon Ranger and the Temple of the Sea (2006) 1080p BDRip x265 AC3 2.0 Goki [SEV]
Encoded date                             : UTC 2019-07-10 11:42:24
Writing application                      : mkvmerge v28.2.0 ('The Awakening') 64-bit
Writing library                          : libebml v1.3.6 + libmatroska v1.4.9

Video
ID                                       : 1
Format                                   : HEVC
Format/Info                              : High Efficiency Video Coding
Format profile                           : Main [email protected]@Main
Codec ID                                 : V_MPEGH/ISO/HEVC
Duration                                 : 1 h 46 min
Bit rate                                 : 3 807 kb/s
Width                                    : 1 920 pixels
Height                                   : 1 080 pixels
Display aspect ratio                     : 16:9
Frame rate mode                          : Constant
Frame rate                               : 23.976 (24000/1001) FPS
Color space                              : YUV
Chroma subsampling                       : 4:2:0
Bit depth                                : 10 bits
Bits/(Pixel*Frame)                       : 0.077
Stream size                              : 2.84 GiB (86%)
Writing library                          : x265 2.9+8-27d8424c799d:[Windows][MSVC 1915][64 bit] 10bit
Encoding settings                        : cpuid=1111039 / frame-threads=2 / numa-pools=4 / wpp / no-pmode / no-pme / no-psnr / no-ssim / log-level=2 / input-csp=1 / input-res=1920x1080 / interlace=0 / total-frames=0 / level-idc=0 / high-tier=1 / uhd-bd=0 / ref=4 / no-allow-non-conformance / no-repeat-headers / annexb / no-aud / no-hrd / info / hash=0 / no-temporal-layers / open-gop / min-keyint=23 / keyint=250 / gop-lookahead=0 / bframes=8 / b-adapt=2 / b-pyramid / bframe-bias=0 / rc-lookahead=100 / lookahead-slices=4 / scenecut=40 / radl=0 / no-intra-refresh / ctu=64 / min-cu-size=8 / no-rect / no-amp / max-tu-size=32 / tu-inter-depth=2 / tu-intra-depth=2 / limit-tu=4 / rdoq-level=2 / dynamic-rd=0.00 / no-ssim-rd / signhide / no-tskip / nr-intra=0 / nr-inter=0 / no-constrained-intra / no-strong-intra-smoothing / max-merge=3 / limit-refs=2 / limit-modes / me=3 / subme=5 / merange=57 / temporal-mvp / weightp / weightb / no-analyze-src-pics / deblock=0:0 / sao / no-sao-non-deblock / rd=6 / no-early-skip / rskip / no-fast-intra / no-tskip-fast / no-cu-lossless / b-intra / no-splitrd-skip / rdpenalty=0 / psy-rd=1.30 / psy-rdoq=2.00 / no-rd-refine / no-lossless / cbqpoffs=0 / crqpoffs=0 / rc=crf / crf=17.0 / qcomp=0.60 / qpstep=4 / stats-write=0 / stats-read=0 / ipratio=1.40 / pbratio=1.30 / aq-mode=2 / aq-strength=1.10 / cutree / zone-count=0 / no-strict-cbr / qg-size=32 / no-rc-grain / qpmax=69 / qpmin=0 / no-const-vbv / sar=1 / overscan=0 / videoformat=5 / range=0 / colorprim=2 / transfer=2 / colormatrix=2 / chromaloc=0 / display-window=0 / max-cll=0,0 / min-luma=0 / max-luma=1023 / log2-max-poc-lsb=8 / vui-timing-info / vui-hrd-info / slices=1 / no-opt-qp-pps / no-opt-ref-list-length-pps / no-multi-pass-opt-rps / scenecut-bias=0.05 / no-opt-cu-delta-qp / no-aq-motion / no-hdr / no-hdr-opt / no-dhdr10-opt / no-idr-recovery-sei / analysis-reuse-level=5 / scale-factor=0 / refine-intra=0 / refine-inter=0 / refine-mv=0 / no-limit-sao / ctu-info=0 / no-lowpass-dct / refine-mv-type=0 / copy-pic=1 / max-ausize-factor=1.0 / no-dynamic-refine / no-single-sei
Language                                 : Japanese
Default                                  : Yes
Forced                                   : No

Audio #1
ID                                       : 2
Format                                   : AC-3
Format/Info                              : Audio Coding 3
Commercial name                          : Dolby Digital
Codec ID                                 : A_AC3
Duration                                 : 1 h 45 min
Bit rate mode                            : Constant
Bit rate                                 : 192 kb/s
Channel(s)                               : 2 channels
Channel layout                           : L R
Sampling rate                            : 48.0 kHz
Frame rate                               : 31.250 FPS (1536 SPF)
Bit depth                                : 16 bits
Compression mode                         : Lossy
Delay relative to video                  : 1 s 300 ms
Stream size                              : 145 MiB (4%)
Title                                    : Dolby Digital 2.0
Language                                 : English
Service kind                             : Complete Main
Default                                  : Yes
Forced                                   : No

Audio #2
ID                                       : 3
Format                                   : AAC LC
Format/Info                              : Advanced Audio Codec Low Complexity
Codec ID                                 : A_AAC-2
Duration                                 : 1 h 46 min
Bit rate                                 : 448 kb/s
Channel(s)                               : 6 channels
Channel layout                           : C L R Ls Rs LFE
Sampling rate                            : 48.0 kHz
Frame rate                               : 46.875 FPS (1024 SPF)
Compression mode                         : Lossy
Delay relative to video                  : 9 ms
Stream size                              : 342 MiB (10%)
Title                                    : AAC 5.1
Language                                 : Japanese
Default                                  : No
Forced                                   : No

Text
ID                                       : 4
Format                                   : VobSub
Codec ID                                 : S_VOBSUB
Codec ID/Info                            : Picture based subtitle format used on DVDs
Duration                                 : 1 h 45 min
Bit rate                                 : 4 833 b/s
Count of elements                        : 1573
Stream size                              : 3.63 MiB (0%)
Language                                 : English
Default                                  : No
Forced                                   : No

Menu
00:00:00.000                             : :00:00:00.000
00:04:34.608                             : :00:04:34.608
00:09:05.170                             : :00:09:05.170
00:14:13.686                             : :00:14:13.686
00:18:33.279                             : :00:18:33.279
00:22:45.364                             : :00:22:45.364
00:26:26.627                             : :00:26:26.627
00:32:41.543                             : :00:32:41.543
00:36:23.098                             : :00:36:23.098
00:41:19.018                             : :00:41:19.018
00:45:15.296                             : :00:45:15.296
00:49:47.026                             : :00:49:47.026
00:53:18.362                             : :00:53:18.362
00:57:20.437                             : :00:57:20.437
01:01:55.545                             : :01:01:55.545
01:06:12.093                             : :01:06:12.093
01:10:50.913                             : :01:10:50.913
01:15:32.403                             : :01:15:32.403
01:19:11.121                             : :01:19:11.121
01:24:09.127                             : :01:24:09.127
01:27:54.436                             : :01:27:54.436
01:32:01.141                             : :01:32:01.141
01:37:12.785                             : :01:37:12.785
01:41:59.113                             : :01:41:59.113
01:45:26.320                             : :01:45:26.320

Source Information

Unique ID                                : 214146270506102412085728329779617416069 (0xA11B124CD1802832BB9ECF6075234385)
Complete name                            : Pokémon Movie 09 Pokémon Ranger and the Temple of the Sea 2006 1080p Bluray Remux AVC TrueHD AC3 - BluDragon.mkv
Format                                   : Matroska
Format version                           : Version 4
File size                                : 18.2 GiB
Duration                                 : 1 h 46 min
Overall bit rate mode                    : Variable
Overall bit rate                         : 24.5 Mb/s
Encoded date                             : UTC 2010-02-22 21:41:31
Writing application                      : mkvmerge v5.9.0 ('On The Loose') built on Dec  9 2012 15:37:01
Writing library                          : libebml v1.3.0 + libmatroska v1.4.0

Video
ID                                       : 1
Format                                   : AVC
Format/Info                              : Advanced Video Codec
Format profile                           : [email protected]
Format settings                          : CABAC / 2 Ref Frames
Format settings, CABAC                   : Yes
Format settings, RefFrames               : 2 frames
Muxing mode                              : Container [email protected]
Codec ID                                 : V_MPEG4/ISO/AVC
Duration                                 : 1 h 46 min
Bit rate mode                            : Variable
Width                                    : 1 920 pixels
Height                                   : 1 080 pixels
Display aspect ratio                     : 16:9
Frame rate mode                          : Constant
Frame rate                               : 23.976 (24000/1001) FPS
Color space                              : YUV
Chroma subsampling                       : 4:2:0
Bit depth                                : 8 bits
Scan type                                : Progressive
Title                                    : Pokémon Movie 09: Pokémon Ranger and the Prince of the Sea
Language                                 : Japanese
Default                                  : No
Forced                                   : No

Audio #1
ID                                       : 2
Format                                   : AC-3
Format/Info                              : Audio Coding 3
Commercial name                          : Dolby Digital
Codec ID                                 : A_AC3
Duration                                 : 1 h 46 min
Bit rate mode                            : Constant
Bit rate                                 : 192 kb/s
Channel(s)                               : 2 channels
Channel layout                           : L R
Sampling rate                            : 48.0 kHz
Frame rate                               : 31.250 FPS (1536 SPF)
Bit depth                                : 16 bits
Compression mode                         : Lossy
Delay relative to video                  : 1 s 300 ms
Stream size                              : 147 MiB (1%)
Title                                    : Dolby Digital 2.0
Language                                 : English
Service kind                             : Complete Main
Default                                  : Yes
Forced                                   : No

Audio #2
ID                                       : 3
Format                                   : MLP FBA
Format/Info                              : Meridian Lossless Packing FBA
Commercial name                          : Dolby TrueHD
Codec ID                                 : A_TRUEHD
Duration                                 : 1 h 46 min
Bit rate mode                            : Variable
Maximum bit rate                         : 2 811 kb/s
Channel(s)                               : 6 channels
Channel layout                           : L R C LFE Ls Rs
Sampling rate                            : 48.0 kHz
Frame rate                               : 1 200.000 FPS (40 SPF)
Compression mode                         : Lossless
Title                                    : TrueHD 5.1
Language                                 : Japanese
Default                                  : No
Forced                                   : No

Text
ID                                       : 4
Format                                   : VobSub
Muxing mode                              : zlib
Codec ID                                 : S_VOBSUB
Codec ID/Info                            : Picture based subtitle format used on DVDs
Title                                    : Vobsub: Dialogue
Language                                 : English
Default                                  : No
Forced                                   : No

Menu
00:00:00.000                             : en:00:00:00.000
00:04:34.608                             : en:00:04:34.608
00:09:05.170                             : en:00:09:05.170
00:14:13.686                             : en:00:14:13.686
00:18:33.279                             : en:00:18:33.279
00:22:45.364                             : en:00:22:45.364
00:26:26.627                             : en:00:26:26.627
00:32:41.543                             : en:00:32:41.543
00:36:23.098                             : en:00:36:23.098
00:41:19.018                             : en:00:41:19.018
00:45:15.296                             : en:00:45:15.296
00:49:47.026                             : en:00:49:47.026
00:53:18.362                             : en:00:53:18.362
00:57:20.437                             : en:00:57:20.437
01:01:55.545                             : en:01:01:55.545
01:06:12.093                             : en:01:06:12.093
01:10:50.913                             : en:01:10:50.913
01:15:32.403                             : en:01:15:32.403
01:19:11.121                             : en:01:19:11.121
01:24:09.127                             : en:01:24:09.127
01:27:54.436                             : en:01:27:54.436
01:32:01.141                             : en:01:32:01.141
01:37:12.785                             : en:01:37:12.785
01:41:59.113                             : en:01:41:59.113
01:45:26.320                             : en:01:45:26.320


.........................................................................................................................................

We have no issue with individuals posting or re-uploading our torrents on a platform we aren't on. However, if this is something you'd like to do, please do so in a 'as-is' format. We ask that you do not create a new torrent, include all descriptions you see above including the SEV logo, tags, notes and screenshots. If you'd like to become a permanent poster on a website we don't post to, feel free to get in contact with a Sublime Encoded Video member.


We are recruiting/training new members for SEV & seedbox providers as well as people to help out with subtitles.
As you already know, we deliver quality, so you know the standard.
If you're interested, feel free to contact any of the team members.

Category:Anime > Dubbed/Subbed
Lang:English  English
Total Size:3.32 GB
Info Hash:85eff15ba95c9c79cd527144644c57a78353e981
Added By:Goki
Date Added:10-07-2019 13:31:06

Files

File List: 
 File Size
Pokemon Ranger and the Temple of the Sea (2006) 1080p BDRip x265 AC3 2.0 Goki [SEV]-clearlogo.png305.02 kB
Pokemon Ranger and the Temple of the Sea (2006) 1080p BDRip x265 AC3 2.0 Goki [SEV]-fanart.jpg41.80 kB
Pokemon Ranger and the Temple of the Sea (2006) 1080p BDRip x265 AC3 2.0 Goki [SEV]-logo.png305.02 kB
Pokemon Ranger and the Temple of the Sea (2006) 1080p BDRip x265 AC3 2.0 Goki [SEV]-poster.jpg107.55 kB
Pokemon Ranger and the Temple of the Sea (2006) 1080p BDRip x265 AC3 2.0 Goki [SEV].mkv3.32 GB
Pokemon Ranger and the Temple of the Sea (2006) 1080p BDRip x265 AC3 2.0 Goki [SEV].nfo6.01 kB



Loading...
Comments

There are currently no comments. Be the first one to write something !