swat s03e08 south park 0 the mandalorian s01e01 charlies angels 2019 gemini man 2019 aew seal team s03e07 ford v ferrari 2019 DC Week marvel week zombieland double tap 2019 ethd Chicago Fire Supergirl watchmen riverdale maleficent mistress of evil 2019 Chicago Med seal team WWE joker 2019 Dream girl  ncis s17e08 Chicago PD s07e09 READY OR NOT Joker frozen ii 2019 always sunny His Dark Materials angel has fallen 2019 The flash evo hindi The Mandalorian s01e02 titans riverdale s04e07 xxx the flash s06e06 stumptown Mandalorian Arrow once upon a time in hollywood 2019 ncis Chicago Fire s08e09 the irishman 2019 SURVIVOR yts etmovies The Mandalorian Silicon Valley stumptown s01e07 Conan the walking dead modern family s11e07 treadstone s01e06 ettv fast furious presents hobbs shaw 2019 rick and morty chicago med s05e09 Treadstone rambo last blood 2019 terminator dark fate 2019 see Once Upon A Time In Hollywood arrow s08e05 gemini man nancy drew ddr Chicago PD etrg Modern Family 
Warning! Use a V.P.N When Downloading Torrents!
Your IP Address is 3.92.92.168. Location is United States
Your Internet Provider is tracking your torrent activity! Hide your IP ADDRESS with a V.P.N!
We strongly recommend using ExpressV.P.N to anonymize your torrenting. 30 Day Money Back Guarantee!
Try it Now!
ETTV Recommended TV Shows
Young.Sheldon.S03E08.HDTV.x264-SVA[ettv] torrent
The.Good.Place.S04E09.HDTV.x264-SVA[ettv] torrent
Greys.Anatomy.S16E09.HDTV.x264-SVA[ettv] torrent
Supernatural.S15E06.HDTV.x264-SVA[ettv] torrent
How.to.Get.Away.with.Murder.S06E09.HDTV.x264-SVA[ettv] torrent
Legacies.S02E06.HDTV.x264-SVA[ettv] torrent
Evil.S01E08.HDTV.x264-SVA[ettv] torrent
Law.and.Order.SVU.S21E09.HDTV.x264-SVA[ettv] torrent

ETTV Recommended SD
Ready.or.Not.2019.BDRip.XviD.AC3-EVO torrent
Rambo.Last.Blood.2019.HC.HDRip.XViD-ETRG torrent
Overcomer.2019.HDRip.XviD.AC3-EVO[EtMovies] torrent
The.Furies.2019.BDRip.XviD.AC3-EVO[EtMovies] torrent

ETTV Recommended HD
Ready.or.Not.2019.1080p.Bluray.DTS-HD.MA.5.1.X264-EVO[EtHD] torrent
Rambo.Last.Blood.2019.HC.1080p.HDRip.X264.AC3-EVO[EtHD] torrent
The.Furies.2019.1080p.Bluray.DTS-HD.MA.5.1.X264-EVO[EtHD] torrent
Once.Upon.a.Time.in.Hollywood.2019.1080p.WEB-DL.DD5.1.H264-CMRG[EtHD] torrent

ETTV Recommended UHD
Three.Billboards.Outside.Ebbing.Missouri.2017.MULTi.UHD.Blu-ray.2160p.HDR.DTS-HDMA.5.1.HEVC-DDR torrent
Angel.Has.Fallen.2019.MULTi.UHD.BluRay.2160p.HDR.Atmos.7.1.HEVC-DDR torrent
Midsommar.2019.MULTi.UHD.Bluray.2160p.HDR.DTS-HDMA.5.1.HEVC-DDR torrent
Independence Day.1996.EXTENDED.4K.HDR.2160p.BDRip Ita Eng x265-NAHOM torrent

ETTV Recommended Cam
Hustlers 2019 NEW HDTS x264 AC3-ETRG torrent
Ford v Ferrari 2019 NEW HDCAM X264-ETRG torrent
Charlies Angels 2019 NEW HD-TS  x264-ETRG torrent
Frozen 2 2019 720p HDCAM-GETB8 torrent

ETTV Recommended Foreign
Devadas (2018) 720p UNCUT HDRip x264 Eng Subs [Dual Audio] [Hindi DD 2.0 - Telugu 5.1] Exclusive By -=!Dr.STAR!=- torrent
Dream Girl.2019.Hindi.1080p.WEB-DL.x264.AAC -DDR[EtHD] torrent
Dora And The Lost City Of Gold (2019)[720p BDRip - Original Auds - [Tamil + Telugu + Hin + Eng] - x264 - 1GB - ESubs] torrent
Doorbeen (2019) Punjabi 720p HDRip x264 AAC ESubs - Downloadhub torrent


Download Torrent "APOLLO 11(2019)Mp-4 X264 1080p AAC[DaScubaDude]"

IMDB Details
Description:

A look at the Apollo 11 mission to land on the moon led by commander Neil Armstrong and pilots Buzz Aldrin and Michael Collins.

Genre:

Documentary, History

Download Torrent (Magnet)
Download Torrent (File)
Seeds: 63
Leechers: 16
Completed: 385 
Last Checked: 12-07-2019 06:09:43


Details
Title:APOLLO 11(2019)Mp-4 X264 1080p AAC[DaScubaDude]
Description:
General
Complete name                            : APOLLO_11.Title20.mp4
Format                                   : MPEG-4
Format profile                           : Base Media / Version 2
Codec ID                                 : mp42 (mp42/isom/avc1)
File size                                : 1.57 GiB
Duration                                 : 1 h 33 min
Overall bit rate mode                    : Variable
Overall bit rate                         : 2 412 kb/s
Movie name                               : APOLLO_11.Title20
Album                                    : APOLLO_11
Encoded date                             : UTC 2019-07-11 23:21:15
Tagged date                              : UTC 2019-07-12 00:09:09
Writing application                      : DVDFab 11.0.3.7
Cover                                    : Yes

Video
ID                                       : 1
Format                                   : AVC
Format/Info                              : Advanced Video Codec
Format profile                           : [email protected]
Format settings                          : CABAC / 2 Ref Frames
Format settings, CABAC                   : Yes
Format settings, RefFrames               : 2 frames
Format settings, GOP                     : M=1, N=24
Codec ID                                 : avc1
Codec ID/Info                            : Advanced Video Coding
Duration                                 : 1 h 33 min
Bit rate mode                            : Variable
Bit rate                                 : 1 953 kb/s
Maximum bit rate                         : 3 010 kb/s
Width                                    : 1 920 pixels
Height                                   : 872 pixels
Display aspect ratio                     : 2.2:1
Frame rate mode                          : Constant
Frame rate                               : 23.976 (24000/1001) FPS
Color space                              : YUV
Chroma subsampling                       : 4:2:0
Bit depth                                : 8 bits
Scan type                                : Progressive
Bits/(Pixel*Frame)                       : 0.049
Stream size                              : 1.27 GiB (81%)
Encoded date                             : UTC 2019-07-11 23:21:15
Tagged date                              : UTC 2019-07-12 00:09:08
Color primaries                          : BT.709
Transfer characteristics                 : BT.709
Matrix coefficients                      : BT.709
Menus                                    : 4

Audio
ID                                       : 2
Format                                   : AAC
Format/Info                              : Advanced Audio Codec
Format profile                           : LC
Codec ID                                 : mp4a-40-2
Duration                                 : 1 h 33 min
Bit rate mode                            : Variable
Bit rate                                 : 448 kb/s
Maximum bit rate                         : 453 kb/s
Channel(s)                               : 6 channels
Channel positions                        : Front: L C R, Side: L R, LFE
Sampling rate                            : 48.0 kHz
Frame rate                               : 46.875 FPS (1024 SPF)
Compression mode                         : Lossy
Stream size                              : 298 MiB (19%)
Title                                    : English (aac 5.1)
Language                                 : English
Default                                  : Yes
Alternate group                          : 1
Encoded date                             : UTC 2019-07-11 23:21:15
Tagged date                              : UTC 2019-07-12 00:09:08

Text
ID                                       : 3
Format                                   : VobSub
Codec ID                                 : mp4s-E0
Codec ID/Info                            : The same subtitle format used on DVDs
Duration                                 : 1 h 32 min
Bit rate mode                            : Variable
Bit rate                                 : 8 051 b/s
Maximum bit rate                         : 4 249 Mb/s
Stream size                              : 5.30 MiB (0%)
Language                                 : English
Default                                  : Yes
Forced                                   : No
Alternate group                          : 2
Encoded date                             : UTC 2019-07-11 23:21:15
Tagged date                              : UTC 2019-07-12 00:08:34
Category:Movies > HD 1080p
Lang:English  English
Total Size:1.57 GB
Info Hash:06d8c327a8b5e65c6ed0a6a46547dc0d6ff287c8
Added By:DaScubaDude
Date Added:12-07-2019 06:09:39

  

Files

File List: 
 File Size
APOLLO_11.Title20.mp41.57 GB



Loading...
Comments

There are currently no comments. Be the first one to write something !