doctor who s12e08 sonic the hedgehog 2020 jumanji Last Week Tonight etrg The outsider s01e07 ethd family guy s18e11 1917 2019 ettv parasite Star Wars The Rise of Skywalker 2019 avenue 5 s01e05 Outlander S05E01 Joker 2019 homeland knives out Avenue 5 Star Trek Picard S01E04 rq.mp4 picard Curb Your Enthusiasm S10E05 ncis bad boys for life 2020 Fantasy Island 2020 the gentlemen 2020 star wars Homeland S08E02 vikings Supergirl S05E12 NCIS New Orleans S06E11 birds of prey (and the fantabulous emancipation of one harley quinn) 2020 21 bridges 2019 batwoman s01e12 Brooklyn Nine Nine S07E03 yts Dolittle 2020 batwoman Ford v Ferrari 2019 xxx evo 0 Endeavour s07e02 Good Girls jumanji the next level 2019 little women 2019 underwater 2020 The Gentlemen 2019 Outlander The outsider nascar Harley Quinn Hindi parasite 2019 WWE NCIS Los Angeles S11E14 doctor who etmovies curb your enthusiasm terminator dark fate 2019 Good Girls S03E01 ddr midway 2019 Knives Out 2019 Charlies Angels 2019 Endeavour jojo rabbit 2019 supergirl Frozen II 2019 family guy 
Warning! Use a V.P.N When Downloading Torrents!
Your IP Address is 3.214.224.224. Location is United States
Your Internet Provider is tracking your torrent activity! Hide your IP ADDRESS with a V.P.N!
We strongly recommend using ExpressV.P.N to anonymize your torrenting. 30 Day Money Back Guarantee!
Try it Now!
ETTV Recommended TV Shows
9-1-1.Lone.Star.S01E06.WEB.x264-XLF[ettv] torrent
Nurses.2020.S01E07.HDTV.x264-aAF[ettv] torrent
All.Rise.S01E16.HDTV.x264-SVA[ettv] torrent
The.Good.Doctor.S03E15.HDTV.x264-SVA[ettv] torrent
Manifest.S02E07.HDTV.x264-SVA[ettv] torrent
Prodigal.Son.S01E15.WEBRip.x264-XLF[ettv] torrent

ETTV Recommended SD
Dead.Fred.2019.HDRip.XviD.AC3-EVO torrent
Dark.Waters.2019.HDRip.XviD.AC3-EVO torrent
The.Dawn.2020.HDRip.XViD.AC3-ETRG torrent
Queen.and.Slim.2019.HDRip.XViD.AC3-ETRG torrent

ETTV Recommended HD
Demon.Eye.2019.1080p.AMZN.WEB-DL.DDP5.1.H.264-NTG[EtHD] torrent
Picture Perfect Mysteries Dead Over DIamonds (2020) 720p HDTV X264 Solar torrent
Star.Wars.The.Last.Jedi.2017.BRRip.HEVC.HDR.Eng.Spa.DD5.1.ETRG torrent
Queen.and.Slim.2019.1080p.WEB-DL.H264.AC3-EVO[EtHD] torrent

ETTV Recommended UHD
Frozen.II.2019.2160p.UHD.BluRay.x265-TERMiNAL torrent
Rogue.One.A.Star Wars Story 2016.4K.HDR.2160p.WEBDL Ita Eng x265-NAHOM torrent
Abominable.2019.4K.HDR.2160p.BDRip Ita Eng x265-NAHOM torrent
Star.Wars.The.Last.Jedi.2017.BDRip.UHD.HDR.Eng.Spa.TrueHD.ETRG torrent

ETTV Recommended Cam
Fantasy Island 2020 HDCAM x264-ETRG torrent
The Photograph 2020 720p HDCAM-C1NEM4 torrent
Emma 2020 720p HDCAM-C1NEM4 torrent
Sonic the Hedgehog.2020.READNFO.HDCAM.x264-ETRG torrent

ETTV Recommended Foreign
Panipat - The Great Betrayal.2019.540p.NF.WEB-DL.DD+5.1.x264-Telly torrent
Air.Strike.1080p.AMZN.WEB-DL.HIN-Multi.DD+5.1.x264-Telly torrent
Dabangg.3.2019.720p.AMZN.WEB-DL.x264.AAC-ETRG torrent
Parasite (2019) BluRay 720p [Hindi-Dub] x264 - KatmovieHD torrent


Download Torrent "Apocalypse Now (1979) Final Cut (2160p BluRay x265 HEVC SDR 10bit TrueHD 7...."

IMDB Details
Description:

A U.S. Army officer serving in Vietnam is tasked with assassinating a renegade Special Forces Colonel who sees himself as a god.

Genre:

Drama, War

Download Torrent (Magnet)
Download Torrent (File)
Seeds: 157
Leechers: 150
Completed: 1,461 
Last Checked: 31-08-2019 09:01:58


Loading...
Details
Title:Apocalypse Now (1979) Final Cut (2160p BluRay x265 HEVC SDR 10bit TrueHD 7....
Description:


IMDb (8.4/10)

Genres
Drama, Mystery, War

Actors
Martin Sheen, Marlon Brando, Robert Duvall

Plot Summary
A U.S. Army officer serving in Vietnam is tasked with assassinating a renegade Special Forces Colonel who sees himself as a god.



Media Information
General
Format                                   : Matroska
Format version                           : Version 4 / Version 2
File size                                : 23.1 GiB
Duration                                 : 3 h 1 min
Overall bit rate mode                    : Variable
Overall bit rate                         : 18.2 Mb/s
Encoded date                             : UTC 2019-08-31 05:19:58
Writing application                      : mkvmerge v36.0.0 ('Is That Jazz?') 64-bit
Writing library                          : libebml v1.3.9 + libmatroska v1.5.2

Video
ID                                       : 1
Format                                   : HEVC
Format/Info                              : High Efficiency Video Coding
Format profile                           : Main [email protected]@Main
Codec ID                                 : V_MPEGH/ISO/HEVC
Duration                                 : 3 h 1 min
Bit rate                                 : 12.2 Mb/s
Width                                    : 3 840 pixels
Height                                   : 1 600 pixels
Display aspect ratio                     : 2.40:1
Frame rate mode                          : Constant
Frame rate                               : 23.976 (24000/1001) FPS
Color space                              : YUV
Chroma subsampling                       : 4:2:0
Bit depth                                : 10 bits
Bits/(Pixel*Frame)                       : 0.083
Stream size                              : 15.6 GiB (67%)
Writing library                          : x265 3.1+8-21db162c8622:[Windows][MSVC 1921][64 bit] 10bit
Encoding settings                        : cpuid=1111039 / frame-threads=4 / numa-pools=16 / wpp / no-pmode / no-pme / no-psnr / no-ssim / log-level=2 / input-csp=1 / input-res=3840x1600 / interlace=0 / total-frames=261792 / level-idc=0 / high-tier=1 / uhd-bd=0 / ref=4 / no-allow-non-conformance / no-repeat-headers / annexb / no-aud / no-hrd / info / hash=0 / no-temporal-layers / open-gop / min-keyint=23 / keyint=250 / gop-lookahead=0 / bframes=8 / b-adapt=2 / b-pyramid / bframe-bias=0 / rc-lookahead=80 / lookahead-slices=4 / scenecut=40 / radl=0 / no-splice / no-intra-refresh / ctu=64 / min-cu-size=8 / no-rect / no-amp / max-tu-size=32 / tu-inter-depth=1 / tu-intra-depth=1 / limit-tu=0 / rdoq-level=2 / dynamic-rd=0.00 / no-ssim-rd / signhide / no-tskip / nr-intra=0 / nr-inter=0 / no-constrained-intra / no-strong-intra-smoothing / max-merge=3 / limit-refs=3 / limit-modes / me=3 / subme=5 / merange=57 / temporal-mvp / no-hme / weightp / no-weightb / no-analyze-src-pics / deblock=-1:-1 / no-sao / no-sao-non-deblock / rd=4 / no-early-skip / no-rskip / no-fast-intra / no-tskip-fast / no-cu-lossless / no-b-intra / no-splitrd-skip / rdpenalty=0 / psy-rd=1.00 / psy-rdoq=5.00 / no-rd-refine / no-lossless / cbqpoffs=0 / crqpoffs=0 / rc=crf / crf=24.0 / qcomp=0.50 / qpstep=4 / stats-write=0 / stats-read=0 / ipratio=1.40 / pbratio=1.30 / aq-mode=2 / aq-strength=1.00 / cutree / zone-count=0 / no-strict-cbr / qg-size=32 / no-rc-grain / qpmax=69 / qpmin=0 / no-const-vbv / sar=0 / overscan=0 / videoformat=5 / range=0 / colorprim=2 / transfer=2 / colormatrix=2 / chromaloc=0 / display-window=0cll=0,0 / min-luma=0 / max-luma=1023 / log2-max-poc-lsb=8 / vui-timing-info / vui-hrd-info / slices=1 / no-opt-qp-pps / no-opt-ref-list-length-pps / no-multi-pass-opt-rps / scenecut-bias=0.05 / no-opt-cu-delta-qp / no-aq-motion / no-hdr / no-hdr-opt / no-dhdr10-opt / no-idr-recovery-sei / analysis-reuse-level=5 / scale-factor=0 / refine-intra=0 / refine-inter=0 / refine-mv=0 / refine-ctu-distortion=0 / no-limit-sao / ctu-info=0 / no-lowpass-dct / refine-analysis-type=0 / copy-pic=1 / max-ausize-factor=1.0 / no-dynamic-refine / no-single-sei / no-hevc-aq / no-svt / no-field / qp-adaptation-range=1.00
Language                                 : English
Default                                  : Yes
Forced                                   : No

Audio
ID                                       : 2
Format                                   : Atmos / TrueHD
Codec ID                                 : A_TRUEHD
Duration                                 : 3 h 1 min
Bit rate mode                            : Variable
Bit rate                                 : 5 882 kb/s
Maximum bit rate                         : 10.2 Mb/s
Channel(s)                               : Object Based / 8 channels
Channel positions                        : Object Based / Front: L C R, Side: L R, Back: L R, LFE
Sampling rate                            :  / 48.0 kHz
Frame rate                               : 1 200.000 FPS (40 spf)
Compression mode                         : Lossless
Stream size                              : 7.48 GiB (32%)
Language                                 : English
Default                                  : No
Forced                                   : No

Subtitle
ID                                       : 3
Format                                   : VobSub
Muxing mode                              : zlib
Codec ID                                 : S_VOBSUB
Codec ID/Info                            : Picture based subtitle format used on DVDs
Duration                                 : 2 h 51 min
Bit rate                                 : 10.7 kb/s
Count of elements                        : 1695
Stream size                              : 13.0 MiB (0%)
Language                                 : English
Default                                  : Yes
Forced                                   : No

Menu
00:00:00.000                             : en:Chapter 01
00:09:23.480                             : en:Chapter 02
00:20:22.638                             : en:Chapter 03
00:24:09.073                             : en:Chapter 04
00:31:13.330                             : en:Chapter 05
00:34:09.589                             : en:Chapter 06
00:45:01.240                             : en:Chapter 07
00:52:03.871                             : en:Chapter 08
01:03:18.878                             : en:Chapter 09
01:17:01.951                             : en:Chapter 10
01:23:44.436                             : en:Chapter 11
01:29:00.335                             : en:Chapter 12
01:38:47.130                             : en:Chapter 13
01:44:30.848                             : en:Chapter 14
02:13:24.205                             : en:Chapter 15
02:22:09.938                             : en:Chapter 16
02:31:03.930                             : en:Chapter 17
02:43:31.427                             : en:Chapter 18
02:50:32.389                             : en:Chapter 19

Source Information
Release: Apocalypse.Now.1979.Final.Cut.UHD.BluRay.2160p.TrueHD.Atmos.7.1.HEVC.REMUX-FraMeSToR 71.4GB



Note From UTR
UniTeam Branding and Imagery©
No part of this release may be reproduced, distributed, de-tagged or dumped in any form or by any means, without prior consents and permissions of the UniTeam Representative. For distribution requestings, message the uploader or any other UniTeam Representative. Once and only once the permission has been granted, the individual(s) may publish to the desired location without any alterations whatsoever, retaining complete filenames, UTR tags, logos, imagery and all credits due.
If possible please donate: BTC 1QA5fum5AyXvWzdVCkQzUNvw3Ef15fHRaR



Category:Movies > HEVC/x265
Lang:English  English
Total Size:23.13 GB
Info Hash:ba9a61983b02d6fe9736f2c85b84bd6941349925
Added By:UTR
Date Added:31-08-2019 09:01:55

Files

File List: 
 File Size
Apocalypse.Now.(1979).2160p.BluRay.10-bit.x265.TrueHD.7.1 Qman[UTR].mkv23.13 GB



Loading...
Comments

There are currently no comments. Be the first one to write something !