doctor who s12e08 sonic the hedgehog 2020 jumanji Last Week Tonight etrg The outsider s01e07 ethd family guy s18e11 1917 2019 ettv parasite Star Wars The Rise of Skywalker 2019 avenue 5 s01e05 Outlander S05E01 Joker 2019 homeland knives out Avenue 5 Star Trek Picard S01E04 rq.mp4 picard Curb Your Enthusiasm S10E05 ncis bad boys for life 2020 Fantasy Island 2020 the gentlemen 2020 star wars Homeland S08E02 vikings Supergirl S05E12 NCIS New Orleans S06E11 birds of prey (and the fantabulous emancipation of one harley quinn) 2020 21 bridges 2019 batwoman s01e12 Brooklyn Nine Nine S07E03 yts Dolittle 2020 batwoman Ford v Ferrari 2019 xxx evo 0 Endeavour s07e02 Good Girls jumanji the next level 2019 little women 2019 underwater 2020 The Gentlemen 2019 Outlander The outsider nascar Harley Quinn Hindi parasite 2019 WWE NCIS Los Angeles S11E14 doctor who etmovies curb your enthusiasm terminator dark fate 2019 Good Girls S03E01 ddr midway 2019 Knives Out 2019 Charlies Angels 2019 Endeavour jojo rabbit 2019 supergirl Frozen II 2019 family guy 
Warning! Use a V.P.N When Downloading Torrents!
Your IP Address is 3.214.224.224. Location is United States
Your Internet Provider is tracking your torrent activity! Hide your IP ADDRESS with a V.P.N!
We strongly recommend using ExpressV.P.N to anonymize your torrenting. 30 Day Money Back Guarantee!
Try it Now!
ETTV Recommended TV Shows
9-1-1.Lone.Star.S01E06.WEB.x264-XLF[ettv] torrent
Nurses.2020.S01E07.HDTV.x264-aAF[ettv] torrent
All.Rise.S01E16.HDTV.x264-SVA[ettv] torrent
The.Good.Doctor.S03E15.HDTV.x264-SVA[ettv] torrent
Manifest.S02E07.HDTV.x264-SVA[ettv] torrent
Prodigal.Son.S01E15.WEBRip.x264-XLF[ettv] torrent

ETTV Recommended SD
Dead.Fred.2019.HDRip.XviD.AC3-EVO torrent
Dark.Waters.2019.HDRip.XviD.AC3-EVO torrent
The.Dawn.2020.HDRip.XViD.AC3-ETRG torrent
Queen.and.Slim.2019.HDRip.XViD.AC3-ETRG torrent

ETTV Recommended HD
Demon.Eye.2019.1080p.AMZN.WEB-DL.DDP5.1.H.264-NTG[EtHD] torrent
Picture Perfect Mysteries Dead Over DIamonds (2020) 720p HDTV X264 Solar torrent
Star.Wars.The.Last.Jedi.2017.BRRip.HEVC.HDR.Eng.Spa.DD5.1.ETRG torrent
Queen.and.Slim.2019.1080p.WEB-DL.H264.AC3-EVO[EtHD] torrent

ETTV Recommended UHD
Frozen.II.2019.2160p.UHD.BluRay.x265-TERMiNAL torrent
Rogue.One.A.Star Wars Story 2016.4K.HDR.2160p.WEBDL Ita Eng x265-NAHOM torrent
Abominable.2019.4K.HDR.2160p.BDRip Ita Eng x265-NAHOM torrent
Star.Wars.The.Last.Jedi.2017.BDRip.UHD.HDR.Eng.Spa.TrueHD.ETRG torrent

ETTV Recommended Cam
Fantasy Island 2020 HDCAM x264-ETRG torrent
The Photograph 2020 720p HDCAM-C1NEM4 torrent
Emma 2020 720p HDCAM-C1NEM4 torrent
Sonic the Hedgehog.2020.READNFO.HDCAM.x264-ETRG torrent

ETTV Recommended Foreign
Panipat - The Great Betrayal.2019.540p.NF.WEB-DL.DD+5.1.x264-Telly torrent
Air.Strike.1080p.AMZN.WEB-DL.HIN-Multi.DD+5.1.x264-Telly torrent
Dabangg.3.2019.720p.AMZN.WEB-DL.x264.AAC-ETRG torrent
Parasite (2019) BluRay 720p [Hindi-Dub] x264 - KatmovieHD torrent


Download Torrent "Dark Phoenix (2019) (1080p BluRay x265 HEVC 10bit AAC 7.1 Qman) [UTR]"

IMDB Details
Description:

Jean Grey begins to develop incredible powers that corrupt and turn her into a Dark Phoenix. Now the X-Men will have to decide if the life of a team member is worth more than all of humanity.

Genre:

Action, Adventure, Sci-Fi

Download Torrent (Magnet)
Download Torrent (File)
Seeds: 952
Leechers: 217
Completed: 6,702 
Last Checked: 02-09-2019 06:20:38


Loading...
Details
Title:Dark Phoenix (2019) (1080p BluRay x265 HEVC 10bit AAC 7.1 Qman) [UTR]
Description:




Media Information

General
Format                                   : Matroska
Format version                           : Version 4 / Version 2
File size                                : 4.90 GiB
Duration                                 : 1 h 53 min
Overall bit rate                         : 6 160 kb/s
Encoded date                             : UTC 2019-09-02 04:43:02
Writing application                      : mkvmerge v36.0.0 ('Is That Jazz?') 64-bit
Writing library                          : libebml v1.3.9 + libmatroska v1.5.2

Video
ID                                       : 1
Format                                   : HEVC
Format/Info                              : High Efficiency Video Coding
Format profile                           : Main [email protected]@Main
Codec ID                                 : V_MPEGH/ISO/HEVC
Duration                                 : 1 h 53 min
Bit rate                                 : 4 461 kb/s
Width                                    : 1 920 pixels
Height                                   : 804 pixels
Display aspect ratio                     : 2.40:1
Frame rate mode                          : Constant
Frame rate                               : 23.976 (24000/1001) FPS
Color space                              : YUV
Chroma subsampling                       : 4:2:0
Bit depth                                : 10 bits
Bits/(Pixel*Frame)                       : 0.121
Stream size                              : 3.55 GiB (72%)
Writing library                          : x265 3.1+8-21db162c8622:[Windows][MSVC 1921][64 bit] 10bit
Encoding settings                        : cpuid=1111039 / frame-threads=4 / numa-pools=16 / wpp / no-pmode / no-pme / no-psnr / no-ssim / log-level=2 / input-csp=1 / input-res=1920x804 / interlace=0 / total-frames=163910 / level-idc=0 / high-tier=1 / uhd-bd=0 / ref=4 / no-allow-non-conformance / no-repeat-headers / annexb / no-aud / no-hrd / info / hash=0 / no-temporal-layers / open-gop / min-keyint=23 / keyint=250 / gop-lookahead=0 / bframes=8 / b-adapt=2 / b-pyramid / bframe-bias=0 / rc-lookahead=80 / lookahead-slices=4 / scenecut=40 / radl=0 / no-splice / no-intra-refresh / ctu=64 / min-cu-size=8 / rect / no-amp / max-tu-size=32 / tu-inter-depth=1 / tu-intra-depth=1 / limit-tu=0 / rdoq-level=2 / dynamic-rd=0.00 / no-ssim-rd / signhide / no-tskip / nr-intra=0 / nr-inter=0 / no-constrained-intra / no-strong-intra-smoothing / max-merge=3 / limit-refs=3 / limit-modes / me=3 / subme=5 / merange=57 / temporal-mvp / no-hme / weightp / no-weightb / no-analyze-src-pics / deblock=-3:-3 / no-sao / no-sao-non-deblock / rd=4 / no-early-skip / no-rskip / no-fast-intra / no-tskip-fast / no-cu-lossless / b-intra / no-splitrd-skip / rdpenalty=0 / psy-rd=1.00 / psy-rdoq=5.00 / no-rd-refine / no-lossless / cbqpoffs=0 / crqpoffs=0 / rc=crf / crf=17.0 / qcomp=0.60 / qpstep=4 / stats-write=0 / stats-read=0 / ipratio=1.40 / pbratio=1.30 / aq-mode=2 / aq-strength=1.00 / cutree / zone-count=0 / no-strict-cbr / qg-size=32 / no-rc-grain / qpmax=69 / qpmin=0 / no-const-vbv / sar=0 / overscan=0 / videoformat=5 / range=0 / colorprim=2 / transfer=2 / colormatrix=2 / chromaloc=0 / display-window=0cll=0,0 / min-luma=0 / max-luma=1023 / log2-max-poc-lsb=8 / vui-timing-info / vui-hrd-info / slices=1 / no-opt-qp-pps / no-opt-ref-list-length-pps / no-multi-pass-opt-rps / scenecut-bias=0.05 / no-opt-cu-delta-qp / no-aq-motion / no-hdr / no-hdr-opt / no-dhdr10-opt / no-idr-recovery-sei / analysis-reuse-level=5 / scale-factor=0 / refine-intra=0 / refine-inter=0 / refine-mv=0 / refine-ctu-distortion=0 / no-limit-sao / ctu-info=0 / no-lowpass-dct / refine-analysis-type=0 / copy-pic=1 / max-ausize-factor=1.0 / no-dynamic-refine / no-single-sei / no-hevc-aq / no-svt / no-field / qp-adaptation-range=1.00
Language                                 : English
Default                                  : Yes
Forced                                   : No

Audio #1
ID                                       : 2
Format                                   : AAC
Format/Info                              : Advanced Audio Codec
Format profile                           : LC
Codec ID                                 : A_AAC
Duration                                 : 1 h 53 min
Bit rate                                 : 1 209 kb/s
Channel(s)                               : 8 channels
Channel positions                        : Front: L C R, Side: L R, Back: L R, LFE
Sampling rate                            : 48.0 kHz
Frame rate                               : 46.875 FPS (1024 spf)
Compression mode                         : Lossy
Delay relative to video                  : 9 ms
Stream size                              : 985 MiB (20%)
Language                                 : English
Default                                  : Yes
Forced                                   : No

Audio #2
ID                                       : 3
Format                                   : AC-3
Format/Info                              : Audio Coding 3
Mode extension                           : CM (complete main)
Format settings, Endianness              : Big
Codec ID                                 : A_AC3
Duration                                 : 1 h 53 min
Bit rate mode                            : Constant
Bit rate                                 : 224 kb/s
Channel(s)                               : 2 channels
Channel positions                        : Front: L R
Sampling rate                            : 48.0 kHz
Frame rate                               : 31.250 FPS (1536 spf)
Bit depth                                : 16 bits
Compression mode                         : Lossy
Stream size                              : 183 MiB (4%)
Title                                    : AC3 Comentary by  Simon Kinberg
Language                                 : English
Default                                  : No
Forced                                   : No

Subtitle #1
ID                                       : 4
Format                                   : PGS
Muxing mode                              : zlib
Codec ID                                 : S_HDMV/PGS
Codec ID/Info                            : Picture based subtitle format used on BDs/HD-DVDs
Duration                                 : 1 h 53 min
Bit rate                                 : 65.4 kb/s
Count of elements                        : 4348
Stream size                              : 53.2 MiB (1%)
Language                                 : Norwegian
Default                                  : No
Forced                                   : No

Subtitle #2
ID                                       : 5
Format                                   : PGS
Muxing mode                              : zlib
Codec ID                                 : S_HDMV/PGS
Codec ID/Info                            : Picture based subtitle format used on BDs/HD-DVDs
Duration                                 : 1 h 53 min
Bit rate                                 : 62.4 kb/s
Count of elements                        : 4334
Stream size                              : 50.7 MiB (1%)
Language                                 : Russian
Default                                  : No
Forced                                   : No

Subtitle #3
ID                                       : 6
Format                                   : PGS
Muxing mode                              : zlib
Codec ID                                 : S_HDMV/PGS
Codec ID/Info                            : Picture based subtitle format used on BDs/HD-DVDs
Duration                                 : 1 h 53 min
Bit rate                                 : 76.4 kb/s
Count of elements                        : 4348
Stream size                              : 62.2 MiB (1%)
Language                                 : Swedish
Default                                  : No
Forced                                   : No

Subtitle #4
ID                                       : 7
Format                                   : PGS
Muxing mode                              : zlib
Codec ID                                 : S_HDMV/PGS
Codec ID/Info                            : Picture based subtitle format used on BDs/HD-DVDs
Duration                                 : 1 h 53 min
Bit rate                                 : 75.5 kb/s
Count of elements                        : 4364
Stream size                              : 61.4 MiB (1%)
Title                                    : SDH
Language                                 : English
Default                                  : Yes
Forced                                   : Yes

Subtitle #5
ID                                       : 8
Format                                   : PGS
Muxing mode                              : zlib
Codec ID                                 : S_HDMV/PGS
Codec ID/Info                            : Picture based subtitle format used on BDs/HD-DVDs
Duration                                 : 1 h 53 min
Bit rate                                 : 62.5 kb/s
Count of elements                        : 4342
Stream size                              : 50.8 MiB (1%)
Language                                 : Finnish
Default                                  : No
Forced                                   : No

Subtitle #6
ID                                       : 9
Format                                   : PGS
Muxing mode                              : zlib
Codec ID                                 : S_HDMV/PGS
Codec ID/Info                            : Picture based subtitle format used on BDs/HD-DVDs
Duration                                 : 1 h 53 min
Bit rate                                 : 64.3 kb/s
Count of elements                        : 4348
Stream size                              : 52.3 MiB (1%)
Language                                 : Danish
Default                                  : No
Forced                                   : No

Subtitle #7
ID                                       : 10
Format                                   : PGS
Muxing mode                              : zlib
Codec ID                                 : S_HDMV/PGS
Codec ID/Info                            : Picture based subtitle format used on BDs/HD-DVDs
Duration                                 : 1 h 53 min
Bit rate                                 : 27.8 kb/s
Count of elements                        : 2830
Stream size                              : 22.6 MiB (0%)
Language                                 : English
Default                                  : No
Forced                                   : No

Subtitle #8
ID                                       : 11
Format                                   : PGS
Muxing mode                              : zlib
Codec ID                                 : S_HDMV/PGS
Codec ID/Info                            : Picture based subtitle format used on BDs/HD-DVDs
Duration                                 : 1 h 52 min
Bit rate                                 : 28.8 kb/s
Count of elements                        : 2198
Stream size                              : 23.2 MiB (0%)
Language                                 : Tamil
Default                                  : No
Forced                                   : No

Subtitle #9
ID                                       : 12
Format                                   : PGS
Muxing mode                              : zlib
Codec ID                                 : S_HDMV/PGS
Codec ID/Info                            : Picture based subtitle format used on BDs/HD-DVDs
Duration                                 : 1 h 52 min
Bit rate                                 : 19.3 kb/s
Count of elements                        : 1594
Stream size                              : 15.6 MiB (0%)
Language                                 : Danish
Default                                  : No
Forced                                   : No

Subtitle #10
ID                                       : 13
Format                                   : PGS
Muxing mode                              : zlib
Codec ID                                 : S_HDMV/PGS
Codec ID/Info                            : Picture based subtitle format used on BDs/HD-DVDs
Duration                                 : 1 h 52 min
Bit rate                                 : 21.5 kb/s
Count of elements                        : 2200
Stream size                              : 17.3 MiB (0%)
Language                                 : Russian
Default                                  : No
Forced                                   : No

Subtitle #11
ID                                       : 14
Format                                   : PGS
Muxing mode                              : zlib
Codec ID                                 : S_HDMV/PGS
Codec ID/Info                            : Picture based subtitle format used on BDs/HD-DVDs
Duration                                 : 1 h 52 min
Bit rate                                 : 21.1 kb/s
Count of elements                        : 2202
Stream size                              : 17.1 MiB (0%)
Language                                 : Swedish
Default                                  : No
Forced                                   : No

Subtitle #12
ID                                       : 15
Format                                   : PGS
Muxing mode                              : zlib
Codec ID                                 : S_HDMV/PGS
Codec ID/Info                            : Picture based subtitle format used on BDs/HD-DVDs
Duration                                 : 1 h 52 min
Bit rate                                 : 22.0 kb/s
Count of elements                        : 2198
Stream size                              : 17.8 MiB (0%)
Language                                 : Estonian
Default                                  : No
Forced                                   : No

Subtitle #13
ID                                       : 16
Format                                   : PGS
Muxing mode                              : zlib
Codec ID                                 : S_HDMV/PGS
Codec ID/Info                            : Picture based subtitle format used on BDs/HD-DVDs
Duration                                 : 1 h 52 min
Bit rate                                 : 21.6 kb/s
Count of elements                        : 2204
Stream size                              : 17.4 MiB (0%)
Language                                 : Latvian
Default                                  : No
Forced                                   : No

Subtitle #14
ID                                       : 17
Format                                   : PGS
Muxing mode                              : zlib
Codec ID                                 : S_HDMV/PGS
Codec ID/Info                            : Picture based subtitle format used on BDs/HD-DVDs
Duration                                 : 1 h 52 min
Bit rate                                 : 20.4 kb/s
Count of elements                        : 2198
Stream size                              : 16.5 MiB (0%)
Language                                 : Finnish
Default                                  : No
Forced                                   : No

Subtitle #15
ID                                       : 18
Format                                   : PGS
Muxing mode                              : zlib
Codec ID                                 : S_HDMV/PGS
Codec ID/Info                            : Picture based subtitle format used on BDs/HD-DVDs
Duration                                 : 1 h 52 min
Bit rate                                 : 21.7 kb/s
Count of elements                        : 2206
Stream size                              : 17.5 MiB (0%)
Language                                 : Ukrainian
Default                                  : No
Forced                                   : No

Subtitle #16
ID                                       : 19
Format                                   : PGS
Muxing mode                              : zlib
Codec ID                                 : S_HDMV/PGS
Codec ID/Info                            : Picture based subtitle format used on BDs/HD-DVDs
Duration                                 : 1 h 52 min
Bit rate                                 : 20.5 kb/s
Count of elements                        : 2202
Stream size                              : 16.6 MiB (0%)
Language                                 : Norwegian
Default                                  : No
Forced                                   : No

Subtitle #17
ID                                       : 20
Format                                   : PGS
Muxing mode                              : zlib
Codec ID                                 : S_HDMV/PGS
Codec ID/Info                            : Picture based subtitle format used on BDs/HD-DVDs
Duration                                 : 1 h 52 min
Bit rate                                 : 20.4 kb/s
Count of elements                        : 2200
Stream size                              : 16.5 MiB (0%)
Language                                 : Lithuanian
Default                                  : No
Forced                                   : No

Subtitle #18
ID                                       : 21
Format                                   : PGS
Muxing mode                              : zlib
Codec ID                                 : S_HDMV/PGS
Codec ID/Info                            : Picture based subtitle format used on BDs/HD-DVDs
Duration                                 : 1 h 52 min
Bit rate                                 : 21.9 kb/s
Count of elements                        : 2198
Stream size                              : 17.7 MiB (0%)
Language                                 : Telugu
Default                                  : No
Forced                                   : No

Subtitle #19
ID                                       : 22
Format                                   : PGS
Muxing mode                              : zlib
Codec ID                                 : S_HDMV/PGS
Codec ID/Info                            : Picture based subtitle format used on BDs/HD-DVDs
Duration                                 : 1 h 52 min
Bit rate                                 : 18.3 kb/s
Count of elements                        : 2200
Stream size                              : 14.8 MiB (0%)
Language                                 : Hindi
Default                                  : No
Forced                                   : No

Subtitle #20
ID                                       : 23
Format                                   : PGS
Muxing mode                              : zlib
Codec ID                                 : S_HDMV/PGS
Codec ID/Info                            : Picture based subtitle format used on BDs/HD-DVDs
Duration                                 : 31 min 20 s
Bit rate                                 : 268 b/s
Count of elements                        : 8
Stream size                              : 61.6 KiB (0%)
Title                                    : Forced
Language                                 : English
Default                                  : No
Forced                                   : No

Menu
00:00:00.000                             : en:Chapter 01
00:03:28.875                             : en:Chapter 02
00:07:34.621                             : en:Chapter 03
00:11:42.201                             : en:Chapter 04
00:15:44.110                             : en:Chapter 05
00:18:37.408                             : en:Chapter 06
00:25:24.481                             : en:Chapter 07
00:31:40.357                             : en:Chapter 08
00:34:19.307                             : en:Chapter 09
00:40:07.447                             : en:Chapter 10
00:44:36.090                             : en:Chapter 11
00:49:07.778                             : en:Chapter 12
00:55:38.168                             : en:Chapter 13
00:58:57.409                             : en:Chapter 14
01:02:57.190                             : en:Chapter 15
01:10:40.111                             : en:Chapter 16
01:13:42.418                             : en:Chapter 17
01:19:33.477                             : en:Chapter 18
01:22:35.701                             : en:Chapter 19
01:25:49.061                             : en:Chapter 20
01:30:38.350                             : en:Chapter 21
01:32:48.188                             : en:Chapter 22
01:37:59.624                             : en:Chapter 23
01:45:01.045                             : en:Chapter 24

Source Information
Release:
Dark.Phoenix.2019.1080p.BluRay.REMUX.AVC.DTS-HD.MA7.1-iFT 23.9GB

Note From UTR
Whilst we are happy for our releases to be re-posted on a platform we aren't on, please do so in an 'as-is' format. We ask that you do not create a new torrent, include all descriptions you see above including the UTR logo, tags, notes and screenshots. If you'd like to become a permanent poster on a website we don't post to, feel free to get in contact with a UTR member.
If possible please donate: BTC 1QA5fum5AyXvWzdVCkQzUNvw3Ef15fHRaR



Category:Movies > HEVC/x265
Lang:English  English
Total Size:4.90 GB
Info Hash:d8862e2b4639b704e7813ca092686fdd0ed5131c
Added By:UTR
Date Added:02-09-2019 06:20:34

Files

File List: 
 File Size
Dark.Phoenix.(2019).1080p.BluRay.10-bit.x265.AAC.7.1 Qman[UTR].mkv4.90 GB



Loading...
Comments

There are currently no comments. Be the first one to write something !