scary stories to tell in the dark 2019 power s06e04 hobbs and shaw etrg evo the secret life of pets 2 2019 Suits kabir singh suits s09e09 Joker 2019 dream girl  good boys 2019 spider man far from home pearson s01e10 childs play 2019 Anna  toy story 4 ethd godzilla king of the monsters 2019 HINDI pearson greenleaf s04e03 fast furious presents hobbs shaw 2019 American horror story ettv john wick chapter 3 – parabellum 2019 hustlers 2019 mayans mc s02e03 once upon a time in hollywood 2019 bachelor in paradise the challenge s34e04 yesterday 2019 ad astra 2019 aladdin 2019 avengers endgame 2019 wwe xxx Mr Mercedes toy story 4 2019 spiderman ddr spiderman far from home ITA  mr mercedes s03e02 the lion king 2019 basketball wives s08e14 anna 2019 Crawl 2019 fear the walking dead s05e14 spider man far from home 2019 幼女 mayans titans yts etmovies angel has fallen 2019 rambo last blood 2019 american horror story s09e01 it chapter two 2019 Titans s02e02 2.0 (2018) men in black international 2019 0 marvel week far from home Peaky blinders dark phoenix 2019 proper anal 
Warning! Use a VPN When Downloading Torrents!
Your IP Address is 3.227.233.55. Location is United States
Your Internet Provider is tracking your torrent activity! Hide your IP ADDRESS with a VPN!
We strongly recommend using ExpressVPN to anonymize your torrenting. 30 Day Money Back Guarantee!
Try it Now!
ETTV Recommended TV Shows
Pearson.S01E10.WEBRip.x264-TBS[ettv] torrent
Suits.S09E09.HDTV.x264-aAF[ettv] torrent
Deep.Water.UK.S01E06.HDTV.x264-RiVER[ettv] torrent
American.Horror.Story.S09E01.HDTV.x264-SVA[ettv] torrent

ETTV Recommended SD
Spider-Man.Far.from.Home.2019.BRRip.XViD.AC3-ETRG torrent
Deadtectives.2019.HDRip.XviD.AC3-EVO[EtMovies] torrent
Fast.and.Furious.Presents.Hobbs.and.Shaw.2019..HC.HDRip.x264.AC3-ETRG torrent
The.First.King.2019.BDRip.XviD.AC3-EVO torrent

ETTV Recommended HD
Spider Man Far from Home 2019 BluRay 1080p DTS-HD MA 7.1 x264-MTeam[EtHD] torrent
No.Surrender.2018.MULTi.1080p.BluRay.x264-THREESOME[EtHD] torrent
The.Tracker.2019.1080p.BluRay.x264-SADPANDA[EtHD] torrent
Fast.and.Furious.Presents.Hobbs.and.Shaw.2019.1080p.HC.HDRip.X264.AC3-EVO[EtHD] torrent

ETTV Recommended UHD
Resident Evil Vendetta 2017.MULTi.UHD.Blu-ray.2160p.HDR.Atmos.7.1.HEVC-DDR torrent
Rough Night.2017.MULTi.UHD.Blu-ray.2160p.HDR.Atmos.7.1.HEVC-DDR torrent
Spider-Man.Far From Home 2019.UHD.2160p.WEB-Rip..HDR.DDP.5.1-DDR[EtHD] torrent
Annabelle.Comes.Home.2019.MULTi.UHD.2160p.HDR.WEB-Rip.DDP.5.1.HEVC-DDR[EtHD] torrent

ETTV Recommended Cam
It Chapter Two 2019.HDCAM.x264.AC3-ETRG torrent
Downton Abbey 2019 720p HDCAM-GETB8 torrent
Hustlers 2019 HDCAM x264 AC3-ETRG torrent
Rambo Last Blood 2019 720p NEW HDCAM-GETB8 torrent

ETTV Recommended Foreign
Back Street Girls Gokudols The Movie 2019 720p BluRay x264 Ganool torrent
Kabir.Singh.2019.Hindi.HDRip..x264.AC3-ETRG torrent
Fast & Furious - Hobbs & Shaw (2019)[720p HC HDRip - HQ Line Auds - [Tamil + Telugu + Hin + Eng] - x264 - 1GB] torrent
Long Shot (2019) BRRip 720p [Hindi-Dub] x264 1XBET - KatmovieHD torrent


Download Torrent "Peaky Blinders S05E04 (1080p AMZN WEB-DL x265 HEVC 10bit AC3 5.1 Qman) [UTR..."

IMDB Details
Description:

N/A

Genre:

N/A

Download Torrent (Magnet)
Download Torrent (File)
Seeds: 760
Leechers: 304
Completed: 4,242 
Last Checked: 09-09-2019 18:48:50


Loading...
Details
Title:Peaky Blinders S05E04 (1080p AMZN WEB-DL x265 HEVC 10bit AC3 5.1 Qman) [UTR...
Description:




Media Information

General
Format                                   : Matroska
Format version                           : Version 4 / Version 2
File size                                : 881 MiB
Duration                                 : 57 min 41 s
Overall bit rate                         : 2 134 kb/s
Encoded date                             : UTC 2019-09-09 16:17:58
Writing application                      : mkvmerge v36.0.0 ('Is That Jazz?') 64-bit
Writing library                          : libebml v1.3.9 + libmatroska v1.5.2

Video
ID                                       : 1
Format                                   : HEVC
Format/Info                              : High Efficiency Video Coding
Format profile                           : Main [email protected]@Main
Codec ID                                 : V_MPEGH/ISO/HEVC
Duration                                 : 57 min 41 s
Bit rate                                 : 1 492 kb/s
Width                                    : 1 920 pixels
Height                                   : 960 pixels
Display aspect ratio                     : 2.000
Frame rate mode                          : Constant
Frame rate                               : 25.000 FPS
Color space                              : YUV
Chroma subsampling                       : 4:2:0
Bit depth                                : 10 bits
Bits/(Pixel*Frame)                       : 0.032
Stream size                              : 616 MiB (70%)
Writing library                          : x265 3.1+11-de920e0a3183:[Windows][MSVC 1922][64 bit] 10bit
Encoding settings                        : cpuid=1111039 / frame-threads=4 / numa-pools=16 / wpp / no-pmode / no-pme / no-psnr / no-ssim / log-level=2 / input-csp=1 / input-res=1920x960 / interlace=0 / total-frames=86548 / level-idc=0 / high-tier=1 / uhd-bd=0 / ref=4 / no-allow-non-conformance / no-repeat-headers / annexb / no-aud / no-hrd / info / hash=0 / no-temporal-layers / open-gop / min-keyint=25 / keyint=250 / gop-lookahead=0 / bframes=8 / b-adapt=2 / b-pyramid / bframe-bias=0 / rc-lookahead=50 / lookahead-slices=4 / scenecut=40 / radl=0 / no-splice / no-intra-refresh / ctu=64 / min-cu-size=8 / no-rect / no-amp / max-tu-size=32 / tu-inter-depth=1 / tu-intra-depth=1 / limit-tu=0 / rdoq-level=2 / dynamic-rd=0.00 / no-ssim-rd / signhide / no-tskip / nr-intra=0 / nr-inter=0 / no-constrained-intra / no-strong-intra-smoothing / max-merge=3 / limit-refs=3 / limit-modes / me=3 / subme=3 / merange=57 / temporal-mvp / no-hme / weightp / no-weightb / no-analyze-src-pics / deblock=1:1 / no-sao / no-sao-non-deblock / rd=4 / no-early-skip / no-rskip / no-fast-intra / no-tskip-fast / no-cu-lossless / no-b-intra / no-splitrd-skip / rdpenalty=0 / psy-rd=1.40 / psy-rdoq=1.00 / no-rd-refine / no-lossless / cbqpoffs=0 / crqpoffs=0 / rc=crf / crf=21.0 / qcomp=0.60 / qpstep=4 / stats-write=0 / stats-read=0 / ipratio=1.40 / pbratio=1.30 / aq-mode=2 / aq-strength=1.00 / cutree / zone-count=0 / no-strict-cbr / qg-size=32 / no-rc-grain / qpmax=69 / qpmin=0 / no-const-vbv / sar=0 / overscan=0 / videoformat=5 / range=0 / colorprim=2 / transfer=2 / colormatrix=2 / chromaloc=0 / display-window=0cll=0,0 / min-luma=0 / max-luma=1023 / log2-max-poc-lsb=8 / vui-timing-info / vui-hrd-info / slices=1 / no-opt-qp-pps / no-opt-ref-list-length-pps / no-multi-pass-opt-rps / scenecut-bias=0.05 / no-opt-cu-delta-qp / no-aq-motion / no-hdr / no-hdr-opt / no-dhdr10-opt / no-idr-recovery-sei / analysis-reuse-level=5 / scale-factor=0 / refine-intra=0 / refine-inter=0 / refine-mv=0 / refine-ctu-distortion=0 / no-limit-sao / ctu-info=0 / no-lowpass-dct / refine-analysis-type=0 / copy-pic=1 / max-ausize-factor=1.0 / no-dynamic-refine / no-single-sei / no-hevc-aq / no-svt / no-field / qp-adaptation-range=1.00
Language                                 : English
Default                                  : Yes
Forced                                   : No

Audio
ID                                       : 2
Format                                   : E-AC-3
Format/Info                              : Enhanced Audio Coding 3
Format settings, Endianness              : Big
Codec ID                                 : A_EAC3
Duration                                 : 57 min 41 s
Bit rate mode                            : Constant
Bit rate                                 : 640 kb/s
Channel(s)                               : 6 channels
Channel positions                        : Front: L C R, Side: L R, LFE
Sampling rate                            : 48.0 kHz
Frame rate                               : 187.500 FPS (256 spf)
Compression mode                         : Lossy
Stream size                              : 264 MiB (30%)
Language                                 : English
Default                                  : Yes
Forced                                   : No

Subtitle
ID                                       : 3
Format                                   : UTF-8
Codec ID                                 : S_TEXT/UTF8
Codec ID/Info                            : UTF-8 Plain Text
Duration                                 : 56 min 33 s
Bit rate                                 : 58 b/s
Count of elements                        : 771
Stream size                              : 24.1 KiB (0%)
Language                                 : English
Default                                  : Yes
Forced                                   : No

Source InformationRelease:
Unknown Source/NO-GROUP


Note From UTR
Whilst we are happy for our releases to be re-posted on a platform we aren't on, please do so in an 'as-is' format. We ask that you do not create a new torrent, include all descriptions you see above including the UTR logo, tags, notes and screenshots. If you'd like to become a permanent poster on a website we don't post to, feel free to get in contact with a UTR member.
If possible please donate: BTC 1QA5fum5AyXvWzdVCkQzUNvw3Ef15fHRaR




Category:TV > HEVC/x265
Lang:English  English
Total Size:881 MB
Info Hash:8af9a09078bce96017847e1a614fd603433a49f3
Added By:UTR
Date Added:09-09-2019 18:48:47

Files

File List: 
 File Size
Peaky.Blinders.S05E04.1080p.AMZN.WEB-DL.x265.10bit.EAC3.6.0-Qman[UTR].mkv881 MB



Loading...
Comments

There are currently no comments. Be the first one to write something !