scary stories to tell in the dark 2019 power s06e04 hobbs and shaw etrg evo the secret life of pets 2 2019 Suits kabir singh suits s09e09 Joker 2019 dream girl  good boys 2019 spider man far from home pearson s01e10 childs play 2019 Anna  toy story 4 ethd godzilla king of the monsters 2019 HINDI pearson greenleaf s04e03 fast furious presents hobbs shaw 2019 American horror story ettv john wick chapter 3 – parabellum 2019 hustlers 2019 mayans mc s02e03 once upon a time in hollywood 2019 bachelor in paradise the challenge s34e04 yesterday 2019 ad astra 2019 aladdin 2019 avengers endgame 2019 wwe xxx Mr Mercedes toy story 4 2019 spiderman ddr spiderman far from home ITA  mr mercedes s03e02 the lion king 2019 basketball wives s08e14 anna 2019 Crawl 2019 fear the walking dead s05e14 spider man far from home 2019 幼女 mayans titans yts etmovies angel has fallen 2019 rambo last blood 2019 american horror story s09e01 it chapter two 2019 Titans s02e02 2.0 (2018) men in black international 2019 0 marvel week far from home Peaky blinders dark phoenix 2019 proper anal 
Warning! Use a VPN When Downloading Torrents!
Your IP Address is 3.227.233.55. Location is United States
Your Internet Provider is tracking your torrent activity! Hide your IP ADDRESS with a VPN!
We strongly recommend using ExpressVPN to anonymize your torrenting. 30 Day Money Back Guarantee!
Try it Now!
ETTV Recommended TV Shows
Pearson.S01E10.WEBRip.x264-TBS[ettv] torrent
Suits.S09E09.HDTV.x264-aAF[ettv] torrent
Deep.Water.UK.S01E06.HDTV.x264-RiVER[ettv] torrent
American.Horror.Story.S09E01.HDTV.x264-SVA[ettv] torrent

ETTV Recommended SD
Spider-Man.Far.from.Home.2019.BRRip.XViD.AC3-ETRG torrent
Deadtectives.2019.HDRip.XviD.AC3-EVO[EtMovies] torrent
Fast.and.Furious.Presents.Hobbs.and.Shaw.2019..HC.HDRip.x264.AC3-ETRG torrent
The.First.King.2019.BDRip.XviD.AC3-EVO torrent

ETTV Recommended HD
Spider Man Far from Home 2019 BluRay 1080p DTS-HD MA 7.1 x264-MTeam[EtHD] torrent
No.Surrender.2018.MULTi.1080p.BluRay.x264-THREESOME[EtHD] torrent
The.Tracker.2019.1080p.BluRay.x264-SADPANDA[EtHD] torrent
Fast.and.Furious.Presents.Hobbs.and.Shaw.2019.1080p.HC.HDRip.X264.AC3-EVO[EtHD] torrent

ETTV Recommended UHD
Resident Evil Vendetta 2017.MULTi.UHD.Blu-ray.2160p.HDR.Atmos.7.1.HEVC-DDR torrent
Rough Night.2017.MULTi.UHD.Blu-ray.2160p.HDR.Atmos.7.1.HEVC-DDR torrent
Spider-Man.Far From Home 2019.UHD.2160p.WEB-Rip..HDR.DDP.5.1-DDR[EtHD] torrent
Annabelle.Comes.Home.2019.MULTi.UHD.2160p.HDR.WEB-Rip.DDP.5.1.HEVC-DDR[EtHD] torrent

ETTV Recommended Cam
It Chapter Two 2019.HDCAM.x264.AC3-ETRG torrent
Downton Abbey 2019 720p HDCAM-GETB8 torrent
Hustlers 2019 HDCAM x264 AC3-ETRG torrent
Rambo Last Blood 2019 720p NEW HDCAM-GETB8 torrent

ETTV Recommended Foreign
Back Street Girls Gokudols The Movie 2019 720p BluRay x264 Ganool torrent
Kabir.Singh.2019.Hindi.HDRip..x264.AC3-ETRG torrent
Fast & Furious - Hobbs & Shaw (2019)[720p HC HDRip - HQ Line Auds - [Tamil + Telugu + Hin + Eng] - x264 - 1GB] torrent
Long Shot (2019) BRRip 720p [Hindi-Dub] x264 1XBET - KatmovieHD torrent


Download Torrent "Fleabag (2016) Season 01 S01 (2160p AMZN WEBRip NVENC HEVC 10bit AAC 5.1 Jo..."

IMDB Details
Description:

A comedy series adapted from the award-winning play about a young woman trying to cope with life in London whilst coming to terms with a recent tragedy.

Genre:

Comedy, Drama

Download Torrent (Magnet)
Download Torrent (File)
Seeds: 87
Leechers: 44
Completed: 429 
Last Checked: 09-09-2019 18:49:30


Loading...
Details
Title:Fleabag (2016) Season 01 S01 (2160p AMZN WEBRip NVENC HEVC 10bit AAC 5.1 Jo...
Description:


Media Information

Media Information
General
Format                                   : Matroska
Format version                           : Version 4 / Version 2
File size                                : 764 MiB
Duration                                 : 26 min 41 s
Overall bit rate                         : 4 001 kb/s
Movie name                               : Fleabag S01E02  (2160p NV 10bit Joy)[UTR]
Encoded date                             : UTC 2019-09-05 16:31:40
Writing application                      : mkvmerge v34.0.0 ('Sight and Seen') 64-bit
Writing library                          : libebml v1.3.7 + libmatroska v1.5.0
Writing frontend                         : StaxRip v2.0.2.0, a JoyBell Encode

Video
ID                                       : 1
Format                                   : HEVC
Format/Info                              : High Efficiency Video Coding
Format profile                           : Main [email protected]@High
Codec ID                                 : V_MPEGH/ISO/HEVC
Duration                                 : 26 min 41 s
Bit rate                                 : 3 761 kb/s
Width                                    : 3 832 pixels
Height                                   : 1 600 pixels
Display aspect ratio                     : 2.40:1
Frame rate mode                          : Constant
Frame rate                               : 25.000 FPS
Color space                              : YUV
Chroma subsampling                       : 4:2:0
Bit depth                                : 10 bits
Bits/(Pixel*Frame)                       : 0.025
Stream size                              : 718 MiB (94%)
Default                                  : Yes
Forced                                   : No
Color range                              : Limited
Matrix coefficients                      : BT.709

Audio
ID                                       : 2
Format                                   : AAC
Format/Info                              : Advanced Audio Codec
Format profile                           : LC
Codec ID                                 : A_AAC
Duration                                 : 26 min 41 s
Bit rate                                 : 238 kb/s
Channel(s)                               : 6 channels
Channel positions                        : Front: L C R, Side: L R, LFE
Sampling rate                            : 48.0 kHz
Frame rate                               : 46.875 FPS (1024 spf)
Compression mode                         : Lossy
Delay relative to video                  : 9 ms
Stream size                              : 45.4 MiB (6%)
Language                                 : English
Default                                  : No
Forced                                   : No

Subtitle
ID                                       : 3
Format                                   : UTF-8
Codec ID                                 : S_TEXT/UTF8
Codec ID/Info                            : UTF-8 Plain Text
Duration                                 : 25 min 52 s
Bit rate                                 : 66 b/s
Count of elements                        : 491
Stream size                              : 12.7 KiB (0%)
Language                                 : English
Default                                  : No
Forced                                   : No



Source Information
Release: Fleabag.S01.2160p.AMZN.WEBRip.DD5.1.x264-TrollUHD [19.8 GB]


Note From UTR
Whilst we are happy for our releases to be re-posted on a platform we aren't on, please do so in an 'as-is' format. We ask that you do not create a new torrent, include all descriptions you see above including the UTR logo, tags, notes and screenshots. If you'd like to become a permanent poster on a website we don't post to, feel free to get in contact with a UTR member.
If possible please donate: BTC 1QA5fum5AyXvWzdVCkQzUNvw3Ef15fHRaR



[/CENTER]
Category:TV > HEVC/x265
Lang:English  English
Total Size:4.34 GB
Info Hash:c585c7a64a5f9a02dbb29f501405e99404a71448
Added By:UTR
Date Added:09-09-2019 18:49:21

Files

File List: 
 File Size
Encoded by JoyBell (UTR).txt3.18 kB
Fleabag S01E01 (2160p NV 10bit Joy).mkv774 MB
Fleabag S01E02 (2160p NV 10bit Joy).mkv764 MB
Fleabag S01E03 (2160p NV 10bit Joy).mkv741 MB
Fleabag S01E04 (2160p NV 10bit Joy).mkv753 MB
Fleabag S01E05 (2160p NV 10bit Joy).mkv678 MB
Fleabag S01E06 (2160p NV 10bit Joy).mkv731 MB
folder.jpg12.42 kB
How to play HEVC (THIS FILE).txt3.42 kB
Ninite K-Lite Codecs Unattended Silent Installer and Updater.website561.00 B



Loading...
Comments

There are currently no comments. Be the first one to write something !