doctor who s12e08 sonic the hedgehog 2020 jumanji Last Week Tonight etrg The outsider s01e07 ethd family guy s18e11 1917 2019 ettv parasite Star Wars The Rise of Skywalker 2019 avenue 5 s01e05 Outlander S05E01 Joker 2019 homeland knives out Avenue 5 Star Trek Picard S01E04 rq.mp4 picard Curb Your Enthusiasm S10E05 ncis bad boys for life 2020 Fantasy Island 2020 the gentlemen 2020 star wars Homeland S08E02 vikings Supergirl S05E12 NCIS New Orleans S06E11 birds of prey (and the fantabulous emancipation of one harley quinn) 2020 21 bridges 2019 batwoman s01e12 Brooklyn Nine Nine S07E03 yts Dolittle 2020 batwoman Ford v Ferrari 2019 xxx evo 0 Endeavour s07e02 Good Girls jumanji the next level 2019 little women 2019 underwater 2020 The Gentlemen 2019 Outlander The outsider nascar Harley Quinn Hindi parasite 2019 WWE NCIS Los Angeles S11E14 doctor who etmovies curb your enthusiasm terminator dark fate 2019 Good Girls S03E01 ddr midway 2019 Knives Out 2019 Charlies Angels 2019 Endeavour jojo rabbit 2019 supergirl Frozen II 2019 family guy 
Warning! Use a V.P.N When Downloading Torrents!
Your IP Address is 3.214.224.224. Location is United States
Your Internet Provider is tracking your torrent activity! Hide your IP ADDRESS with a V.P.N!
We strongly recommend using ExpressV.P.N to anonymize your torrenting. 30 Day Money Back Guarantee!
Try it Now!
ETTV Recommended TV Shows
9-1-1.Lone.Star.S01E06.WEB.x264-XLF[ettv] torrent
Nurses.2020.S01E07.HDTV.x264-aAF[ettv] torrent
All.Rise.S01E16.HDTV.x264-SVA[ettv] torrent
The.Good.Doctor.S03E15.HDTV.x264-SVA[ettv] torrent
Manifest.S02E07.HDTV.x264-SVA[ettv] torrent
Prodigal.Son.S01E15.WEBRip.x264-XLF[ettv] torrent

ETTV Recommended SD
Dead.Fred.2019.HDRip.XviD.AC3-EVO torrent
Dark.Waters.2019.HDRip.XviD.AC3-EVO torrent
The.Dawn.2020.HDRip.XViD.AC3-ETRG torrent
Queen.and.Slim.2019.HDRip.XViD.AC3-ETRG torrent

ETTV Recommended HD
Demon.Eye.2019.1080p.AMZN.WEB-DL.DDP5.1.H.264-NTG[EtHD] torrent
Picture Perfect Mysteries Dead Over DIamonds (2020) 720p HDTV X264 Solar torrent
Star.Wars.The.Last.Jedi.2017.BRRip.HEVC.HDR.Eng.Spa.DD5.1.ETRG torrent
Queen.and.Slim.2019.1080p.WEB-DL.H264.AC3-EVO[EtHD] torrent

ETTV Recommended UHD
Frozen.II.2019.2160p.UHD.BluRay.x265-TERMiNAL torrent
Rogue.One.A.Star Wars Story 2016.4K.HDR.2160p.WEBDL Ita Eng x265-NAHOM torrent
Abominable.2019.4K.HDR.2160p.BDRip Ita Eng x265-NAHOM torrent
Star.Wars.The.Last.Jedi.2017.BDRip.UHD.HDR.Eng.Spa.TrueHD.ETRG torrent

ETTV Recommended Cam
Fantasy Island 2020 HDCAM x264-ETRG torrent
The Photograph 2020 720p HDCAM-C1NEM4 torrent
Emma 2020 720p HDCAM-C1NEM4 torrent
Sonic the Hedgehog.2020.READNFO.HDCAM.x264-ETRG torrent

ETTV Recommended Foreign
Panipat - The Great Betrayal.2019.540p.NF.WEB-DL.DD+5.1.x264-Telly torrent
Air.Strike.1080p.AMZN.WEB-DL.HIN-Multi.DD+5.1.x264-Telly torrent
Dabangg.3.2019.720p.AMZN.WEB-DL.x264.AAC-ETRG torrent
Parasite (2019) BluRay 720p [Hindi-Dub] x264 - KatmovieHD torrent


Download Torrent "Dark Phoenix (2019) (2160p WEBRIP x265 HEVC 10bit AAC 5.1 Joy) [UTR]"

IMDB Details
Description:

Jean Grey begins to develop incredible powers that corrupt and turn her into a Dark Phoenix. Now the X-Men will have to decide if the life of a team member is worth more than all of humanity.

Genre:

Action, Adventure, Sci-Fi

Download Torrent (Magnet)
Download Torrent (File)
Seeds: 566
Leechers: 167
Completed: 8,586 
Last Checked: 09-09-2019 18:53:30


Loading...
Details
Title:Dark Phoenix (2019) (2160p WEBRIP x265 HEVC 10bit AAC 5.1 Joy) [UTR]
Description:





Media Information
General
Format                                   : Matroska
Format version                           : Version 4 / Version 2
File size                                : 5.08 GiB
Duration                                 : 1 h 53 min
Overall bit rate                         : 6 380 kb/s
Movie name                               : Dark Phoenix 2019  (2160p x265 10bit Joy)[UTR]
Encoded date                             : UTC 2019-09-06 01:35:34
Writing application                      : mkvmerge v34.0.0 ('Sight and Seen') 64-bit
Writing library                          : libebml v1.3.7 + libmatroska v1.5.0
Writing frontend                         : StaxRip v2.0.2.0, Encoded by JoyBell

Video
ID                                       : 1
Format                                   : HEVC
Format/Info                              : High Efficiency Video Coding
Format profile                           : Main [email protected]@Main
Codec ID                                 : V_MPEGH/ISO/HEVC
Duration                                 : 1 h 53 min
Bit rate                                 : 5 998 kb/s
Width                                    : 3 840 pixels
Height                                   : 1 600 pixels
Display aspect ratio                     : 2.40:1
Frame rate mode                          : Constant
Frame rate                               : 23.976 (24000/1001) FPS
Color space                              : YUV
Chroma subsampling                       : 4:2:0
Bit depth                                : 10 bits
Bits/(Pixel*Frame)                       : 0.041
Stream size                              : 4.77 GiB (94%)
Writing library                          : x265 3.0_Au+24-4217e691387c:[Windows][GCC 9.1.1][64 bit] 10bit
Encoding settings                        : rc=abr / bitrate=6000 / qcomp=0.50 / qpstep=4 / stats-write=0 / stats-read=2 / cplxblur=20.0 / qblur=0.5 / qpmax=69 / qpmin=0 / no-lossless / no-cu-lossless / no-hevc-aq / no-aq-motion / aq-mode=3 / aq-strength=0.80 / cbqpoffs=0 / crqpoffs=0 / ipratio=1.40 / pbratio=1.30 / psy-rd=0.00 / psy-rdoq=1.35 / deblock=0:0 / ref=4 / limit-refs=3 / limit-modes / bframes=8 / b-adapt=2 / bframe-bias=40 / b-pyramid / no-b-intra / weightp / no-weightb / keyint=250 / min-keyint=23 / rc-lookahead=80 / gop-lookahead=0 / scenecut=40 / scenecut-bias=0.05 / ctu=64 / min-cu-size=8 / me=3 / subme=3 / merange=57 / rd=4 / no-rd-refine / ssim-rd / dynamic-rd=0.00 / rdoq-level=2 / rdpenalty=0 / cutree / sao / limit-sao / no-sao-non-deblock / no-rect / no-amp / open-gop / max-tu-size=32 / tu-inter-depth=1 / tu-intra-depth=1 / limit-tu=0 / qg-size=32 / wpp / no-pmode / no-pme / no-psnr / ssim / no-tskip / constrained-intra / strong-intra-smoothing / max-merge=3 / nr-intra=0 / nr-inter=0 / input-csp=1 / input-res=3840x1600 / interlace=0 / total-frames=163863 / level-idc=0 / high-tier=1cpuid=1111039 / frame-threads=4 / numa-pools=16 / log-level=2 / uhd-bd=0 / lookahead-slices=4 / radl=0 / no-splice / no-intra-refresh / signhide / temporal-mvp / no-analyze-src-pics / early-skip / rskip / no-fast-intra / no-tskip-fast / splitrd-skip / zone-count=0 / no-strict-cbr / no-rc-grain / no-const-vbv / no-allow-non-conformance / no-repeat-headers / annexb / no-aud / no-hrd / info / hash=0 / no-temporal-layers / sar=0 / overscan=0 / videoformat=5 / range=0 / colorprim=2 / transfer=2 / colormatrix=2 / chromaloc=0 / display-window=0 / max-cll=0,0 / min-luma=0 / max-luma=1023 / log2-max-poc-lsb=8 / vui-timing-info / vui-hrd-info / slices=1 / no-opt-qp-pps / no-opt-ref-list-length-pps / multi-pass-opt-rps / no-opt-cu-delta-qp / no-hdr / no-hdr-opt / no-dhdr10-opt / no-idr-recovery-sei / analysis-reuse-level=10 / scale-factor=0 / refine-intra=0 / refine-inter=0 / refine-mv=0 / refine-ctu-distortion=0 / ctu-info=0 / no-lowpass-dct / refine-analysis-type=0 / copy-pic=1 / max-ausize-factor=1.0 / no-dynamic-refine / no-single-sei / no-svt / qp-adaptation-range=1.00
Default                                  : Yes
Forced                                   : No

Audio
ID                                       : 2
Format                                   : AAC
Format/Info                              : Advanced Audio Codec
Format profile                           : LC
Codec ID                                 : A_AAC
Duration                                 : 1 h 53 min
Bit rate                                 : 384 kb/s
Channel(s)                               : 6 channels
Channel positions                        : Front: L C R, Side: L R, LFE
Sampling rate                            : 48.0 kHz
Frame rate                               : 46.875 FPS (1024 spf)
Compression mode                         : Lossy
Delay relative to video                  : 9 ms
Stream size                              : 309 MiB (6%)
Language                                 : English
Default                                  : No
Forced                                   : No

Subtitle #1
ID                                       : 3
Format                                   : UTF-8
Codec ID                                 : S_TEXT/UTF8
Codec ID/Info                            : UTF-8 Plain Text
Duration                                 : 31 min 20 s
Bit rate                                 : 0 b/s
Count of elements                        : 4
Stream size                              : 170 Bytes (0%)
Language                                 : English
Default                                  : No
Forced                                   : Yes

Subtitle #2
ID                                       : 4
Format                                   : UTF-8
Codec ID                                 : S_TEXT/UTF8
Codec ID/Info                            : UTF-8 Plain Text
Duration                                 : 1 h 52 min
Bit rate                                 : 36 b/s
Count of elements                        : 1125
Stream size                              : 29.9 KiB (0%)
Language                                 : English
Default                                  : No
Forced                                   : No

Subtitle #3
ID                                       : 5
Format                                   : UTF-8
Codec ID                                 : S_TEXT/UTF8
Codec ID/Info                            : UTF-8 Plain Text
Duration                                 : 1 h 53 min
Bit rate                                 : 43 b/s
Count of elements                        : 1417
Stream size                              : 36.4 KiB (0%)
Language                                 : English
Default                                  : No
Forced                                   : No

Subtitle #4
ID                                       : 6
Format                                   : UTF-8
Codec ID                                 : S_TEXT/UTF8
Codec ID/Info                            : UTF-8 Plain Text
Duration                                 : 1 h 52 min
Bit rate                                 : 33 b/s
Count of elements                        : 1058
Stream size                              : 27.9 KiB (0%)
Language                                 : Spanish
Default                                  : No
Forced                                   : No

Menu
00:00:01.000                             : en:Chapter 01
00:03:27.000                             : en:Chapter 02
00:07:33.000                             : en:Chapter 03
00:11:41.000                             : en:Chapter 04
00:15:43.000                             : en:Chapter 05
00:18:36.000                             : en:Chapter 06
00:25:23.000                             : en:Chapter 07
00:31:39.000                             : en:Chapter 08
00:34:18.000                             : en:Chapter 09
00:40:06.000                             : en:Chapter 10
00:44:35.000                             : en:Chapter 11
00:49:06.000                             : en:Chapter 12
00:55:37.000                             : en:Chapter 13
00:58:56.000                             : en:Chapter 14
01:02:55.000                             : en:Chapter 15
01:10:39.000                             : en:Chapter 16
01:13:41.000                             : en:Chapter 17
01:19:32.000                             : en:Chapter 18
01:22:34.000                             : en:Chapter 19
01:25:48.000                             : en:Chapter 20
01:30:37.000                             : en:Chapter 21
01:32:47.000                             : en:Chapter 22
01:37:58.000                             : en:Chapter 23
01:45:00.000                             : en:Chapter 24



Source Information
Release: Dark.Phoenix.2019.INTERNAL.REPACK.2160p.WEB.H265-DEFLATE.mkv (19.84 GBs)


Note From UTR
Whilst we are happy for our releases to be re-posted on a platform we aren't on, please do so in an 'as-is' format. We ask that you do not create a new torrent, include all descriptions you see above including the UTR logo, tags, notes and screenshots. If you'd like to become a permanent poster on a website we don't post to, feel free to get in contact with a UTR member.
If possible please donate: BTC 1QA5fum5AyXvWzdVCkQzUNvw3Ef15fHRaR


Category:Movies > HEVC/x265
Lang:English  English
Total Size:5.08 GB
Info Hash:b17fbb437ba7d5fd41d08d6e5843880ecc3d7a08
Added By:UTR
Date Added:09-09-2019 18:53:26

Files

File List: 
 File Size
Dark Phoenix 2019 (2160p Web x265 10bit Joy).mkv5.08 GB



Loading...
Comments

There are currently no comments. Be the first one to write something !