doctor who s12e08 sonic the hedgehog 2020 jumanji Last Week Tonight etrg The outsider s01e07 ethd family guy s18e11 1917 2019 ettv parasite Star Wars The Rise of Skywalker 2019 avenue 5 s01e05 Outlander S05E01 Joker 2019 homeland knives out Avenue 5 Star Trek Picard S01E04 rq.mp4 picard Curb Your Enthusiasm S10E05 ncis bad boys for life 2020 Fantasy Island 2020 the gentlemen 2020 star wars Homeland S08E02 vikings Supergirl S05E12 NCIS New Orleans S06E11 birds of prey (and the fantabulous emancipation of one harley quinn) 2020 21 bridges 2019 batwoman s01e12 Brooklyn Nine Nine S07E03 yts Dolittle 2020 batwoman Ford v Ferrari 2019 xxx evo 0 Endeavour s07e02 Good Girls jumanji the next level 2019 little women 2019 underwater 2020 The Gentlemen 2019 Outlander The outsider nascar Harley Quinn Hindi parasite 2019 WWE NCIS Los Angeles S11E14 doctor who etmovies curb your enthusiasm terminator dark fate 2019 Good Girls S03E01 ddr midway 2019 Knives Out 2019 Charlies Angels 2019 Endeavour jojo rabbit 2019 supergirl Frozen II 2019 family guy 
Warning! Use a V.P.N When Downloading Torrents!
Your IP Address is 3.214.224.224. Location is United States
Your Internet Provider is tracking your torrent activity! Hide your IP ADDRESS with a V.P.N!
We strongly recommend using ExpressV.P.N to anonymize your torrenting. 30 Day Money Back Guarantee!
Try it Now!
ETTV Recommended TV Shows
9-1-1.Lone.Star.S01E06.WEB.x264-XLF[ettv] torrent
Nurses.2020.S01E07.HDTV.x264-aAF[ettv] torrent
All.Rise.S01E16.HDTV.x264-SVA[ettv] torrent
The.Good.Doctor.S03E15.HDTV.x264-SVA[ettv] torrent
Manifest.S02E07.HDTV.x264-SVA[ettv] torrent
Prodigal.Son.S01E15.WEBRip.x264-XLF[ettv] torrent

ETTV Recommended SD
Dead.Fred.2019.HDRip.XviD.AC3-EVO torrent
Dark.Waters.2019.HDRip.XviD.AC3-EVO torrent
The.Dawn.2020.HDRip.XViD.AC3-ETRG torrent
Queen.and.Slim.2019.HDRip.XViD.AC3-ETRG torrent

ETTV Recommended HD
Demon.Eye.2019.1080p.AMZN.WEB-DL.DDP5.1.H.264-NTG[EtHD] torrent
Picture Perfect Mysteries Dead Over DIamonds (2020) 720p HDTV X264 Solar torrent
Star.Wars.The.Last.Jedi.2017.BRRip.HEVC.HDR.Eng.Spa.DD5.1.ETRG torrent
Queen.and.Slim.2019.1080p.WEB-DL.H264.AC3-EVO[EtHD] torrent

ETTV Recommended UHD
Frozen.II.2019.2160p.UHD.BluRay.x265-TERMiNAL torrent
Rogue.One.A.Star Wars Story 2016.4K.HDR.2160p.WEBDL Ita Eng x265-NAHOM torrent
Abominable.2019.4K.HDR.2160p.BDRip Ita Eng x265-NAHOM torrent
Star.Wars.The.Last.Jedi.2017.BDRip.UHD.HDR.Eng.Spa.TrueHD.ETRG torrent

ETTV Recommended Cam
Fantasy Island 2020 HDCAM x264-ETRG torrent
The Photograph 2020 720p HDCAM-C1NEM4 torrent
Emma 2020 720p HDCAM-C1NEM4 torrent
Sonic the Hedgehog.2020.READNFO.HDCAM.x264-ETRG torrent

ETTV Recommended Foreign
Panipat - The Great Betrayal.2019.540p.NF.WEB-DL.DD+5.1.x264-Telly torrent
Air.Strike.1080p.AMZN.WEB-DL.HIN-Multi.DD+5.1.x264-Telly torrent
Dabangg.3.2019.720p.AMZN.WEB-DL.x264.AAC-ETRG torrent
Parasite (2019) BluRay 720p [Hindi-Dub] x264 - KatmovieHD torrent


Download Torrent "Carnival Row (2019) Season 01 S01 (1080p AMZN WEBRip x265 HEVC 10bit AAC 5...."

IMDB Details
Description:

A human detective and a fairy rekindle a dangerous affair in a Victorian fantasy world, where the city's uneasy peace collapses when a string of murders reveals an unimaginable monster.

Genre:

Crime, Drama, Fantasy, Mystery, Thriller

Download Torrent (Magnet)
Download Torrent (File)
Seeds: 666
Leechers: 405
Completed: 10,579 
Last Checked: 09-09-2019 19:10:17


Loading...
Details
Title:Carnival Row (2019) Season 01 S01 (1080p AMZN WEBRip x265 HEVC 10bit AAC 5....
Description:



Media Information

Media Information
General
Format                                   : Matroska
Format version                           : Version 4 / Version 2
File size                                : 670 MiB
Duration                                 : 1 h 7 min
Overall bit rate                         : 1 392 kb/s
Movie name                               : Carnival Row S01E08 The Gloaming  (1080p x265 10bit Joy)[UTR]
Encoded date                             : UTC 2019-09-03 03:48:31
Writing application                      : mkvmerge v34.0.0 ('Sight and Seen') 64-bit
Writing library                          : libebml v1.3.7 + libmatroska v1.5.0
Writing frontend                         : StaxRip v2.0.2.0, a JoyBell Encode

Video
ID                                       : 1
Format                                   : HEVC
Format/Info                              : High Efficiency Video Coding
Format profile                           : Main [email protected]@Main
Codec ID                                 : V_MPEGH/ISO/HEVC
Duration                                 : 1 h 7 min
Bit rate                                 : 1 201 kb/s
Width                                    : 1 920 pixels
Height                                   : 800 pixels
Display aspect ratio                     : 2.40:1
Frame rate mode                          : Constant
Frame rate                               : 23.976 (24000/1001) FPS
Color space                              : YUV
Chroma subsampling                       : 4:2:0
Bit depth                                : 10 bits
Bits/(Pixel*Frame)                       : 0.033
Stream size                              : 578 MiB (86%)
Writing library                          : x265 3.0_Au+24-4217e691387c:[Windows][GCC 9.1.1][64 bit] 10bit
Encoding settings                        : rc=abr / bitrate=1200 / qcomp=0.60 / qpstep=4 / stats-write=0 / stats-read=2 / cplxblur=20.0 / qblur=0.5 / qpmax=69 / qpmin=0 / no-lossless / no-cu-lossless / no-hevc-aq / no-aq-motion / aq-mode=2 / aq-strength=0.80 / cbqpoffs=0 / crqpoffs=0 / ipratio=1.40 / pbratio=1.30 / psy-rd=2.45 / psy-rdoq=1.50 / deblock=0:0 / ref=4 / limit-refs=3 / limit-modes / bframes=8 / b-adapt=2 / bframe-bias=40 / b-pyramid / no-b-intra / weightp / no-weightb / keyint=250 / min-keyint=23 / rc-lookahead=80 / gop-lookahead=0 / scenecut=40 / scenecut-bias=0.05 / ctu=64 / min-cu-size=8 / me=3 / subme=3 / merange=57 / rd=4 / no-rd-refine / ssim-rd / dynamic-rd=0.00 / rdoq-level=2 / rdpenalty=0 / cutree / sao / limit-sao / no-sao-non-deblock / no-rect / no-amp / open-gop / max-tu-size=32 / tu-inter-depth=1 / tu-intra-depth=1 / limit-tu=0 / qg-size=32 / wpp / no-pmode / no-pme / no-psnr / ssim / no-tskip / constrained-intra / strong-intra-smoothing / max-merge=3 / nr-intra=0 / nr-inter=0 / input-csp=1 / input-res=1920x800 / interlace=0 / total-frames=96770 / level-idc=0 / high-tier=1cpuid=1111039 / frame-threads=3 / numa-pools=12 / log-level=2 / uhd-bd=0 / lookahead-slices=4 / radl=0 / no-splice / no-intra-refresh / signhide / temporal-mvp / no-analyze-src-pics / early-skip / rskip / no-fast-intra / no-tskip-fast / splitrd-skip / zone-count=0 / no-strict-cbr / no-rc-grain / no-const-vbv / no-allow-non-conformance / no-repeat-headers / annexb / no-aud / no-hrd / info / hash=0 / no-temporal-layers / sar=0 / overscan=0 / videoformat=5 / range=0 / colorprim=2 / transfer=2 / colormatrix=2 / chromaloc=0 / display-window=0 / max-cll=0,0 / min-luma=0 / max-luma=1023 / log2-max-poc-lsb=8 / vui-timing-info / vui-hrd-info / slices=1 / no-opt-qp-pps / no-opt-ref-list-length-pps / multi-pass-opt-rps / no-opt-cu-delta-qp / no-hdr / no-hdr-opt / no-dhdr10-opt / no-idr-recovery-sei / analysis-reuse-level=10 / scale-factor=0 / refine-intra=0 / refine-inter=0 / refine-mv=0 / refine-ctu-distortion=0 / ctu-info=0 / no-lowpass-dct / refine-analysis-type=0 / copy-pic=1 / max-ausize-factor=1.0 / no-dynamic-refine / no-single-sei / no-svt / qp-adaptation-range=1.00
Default                                  : Yes
Forced                                   : No

Audio
ID                                       : 2
Format                                   : AAC
Format/Info                              : Advanced Audio Codec
Format profile                           : HE-AAC / LC
Codec ID                                 : A_AAC
Duration                                 : 1 h 7 min
Bit rate                                 : 186 kb/s
Channel(s)                               : 6 channels
Channel positions                        : Front: L C R, Side: L R, LFE
Sampling rate                            : 48.0 kHz / 24.0 kHz
Frame rate                               : 23.438 FPS (1024 spf)
Compression mode                         : Lossy
Delay relative to video                  : 31 ms
Stream size                              : 89.5 MiB (13%)
Language                                 : English
Default                                  : No
Forced                                   : No

Subtitle #1
ID                                       : 3
Format                                   : UTF-8
Codec ID                                 : S_TEXT/UTF8
Codec ID/Info                            : UTF-8 Plain Text
Duration                                 : 1 h 5 min
Bit rate                                 : 81 b/s
Count of elements                        : 837
Stream size                              : 39.1 KiB (0%)
Language                                 : Arabic
Default                                  : No
Forced                                   : No

Subtitle #2
ID                                       : 4
Format                                   : UTF-8
Codec ID                                 : S_TEXT/UTF8
Codec ID/Info                            : UTF-8 Plain Text
Duration                                 : 1 h 5 min
Bit rate                                 : 44 b/s
Count of elements                        : 833
Stream size                              : 21.2 KiB (0%)
Language                                 : Danish
Default                                  : No
Forced                                   : No

Subtitle #3
ID                                       : 5
Format                                   : UTF-8
Codec ID                                 : S_TEXT/UTF8
Codec ID/Info                            : UTF-8 Plain Text
Duration                                 : 1 h 5 min
Bit rate                                 : 51 b/s
Count of elements                        : 741
Stream size                              : 24.8 KiB (0%)
Language                                 : German
Default                                  : No
Forced                                   : No

Subtitle #4
ID                                       : 6
Format                                   : UTF-8
Codec ID                                 : S_TEXT/UTF8
Codec ID/Info                            : UTF-8 Plain Text
Duration                                 : 1 h 5 min
Bit rate                                 : 54 b/s
Count of elements                        : 951
Stream size                              : 26.2 KiB (0%)
Language                                 : English
Default                                  : No
Forced                                   : No

Subtitle #5
ID                                       : 7
Format                                   : UTF-8
Codec ID                                 : S_TEXT/UTF8
Codec ID/Info                            : UTF-8 Plain Text
Duration                                 : 1 h 5 min
Bit rate                                 : 50 b/s
Count of elements                        : 835
Stream size                              : 24.3 KiB (0%)
Language                                 : Spanish
Default                                  : No
Forced                                   : No

Subtitle #6
ID                                       : 8
Format                                   : UTF-8
Codec ID                                 : S_TEXT/UTF8
Codec ID/Info                            : UTF-8 Plain Text
Duration                                 : 1 h 5 min
Bit rate                                 : 49 b/s
Count of elements                        : 834
Stream size                              : 23.8 KiB (0%)
Language                                 : Spanish
Default                                  : No
Forced                                   : No

Subtitle #7
ID                                       : 9
Format                                   : UTF-8
Codec ID                                 : S_TEXT/UTF8
Codec ID/Info                            : UTF-8 Plain Text
Duration                                 : 1 h 5 min
Bit rate                                 : 46 b/s
Count of elements                        : 830
Stream size                              : 22.1 KiB (0%)
Language                                 : Finnish
Default                                  : No
Forced                                   : No

Subtitle #8
ID                                       : 10
Format                                   : UTF-8
Codec ID                                 : S_TEXT/UTF8
Codec ID/Info                            : UTF-8 Plain Text
Duration                                 : 1 h 5 min
Bit rate                                 : 51 b/s
Count of elements                        : 831
Stream size                              : 24.5 KiB (0%)
Language                                 : French
Default                                  : No
Forced                                   : No

Subtitle #9
ID                                       : 11
Format                                   : UTF-8
Codec ID                                 : S_TEXT/UTF8
Codec ID/Info                            : UTF-8 Plain Text
Duration                                 : 1 h 5 min
Bit rate                                 : 78 b/s
Count of elements                        : 837
Stream size                              : 37.3 KiB (0%)
Language                                 : Hebrew
Default                                  : No
Forced                                   : No

Subtitle #10
ID                                       : 12
Format                                   : UTF-8
Codec ID                                 : S_TEXT/UTF8
Codec ID/Info                            : UTF-8 Plain Text
Duration                                 : 1 h 5 min
Bit rate                                 : 132 b/s
Count of elements                        : 837
Stream size                              : 63.0 KiB (0%)
Language                                 : Hindi
Default                                  : No
Forced                                   : No

Subtitle #11
ID                                       : 13
Format                                   : UTF-8
Codec ID                                 : S_TEXT/UTF8
Codec ID/Info                            : UTF-8 Plain Text
Duration                                 : 1 h 5 min
Bit rate                                 : 45 b/s
Count of elements                        : 834
Stream size                              : 21.6 KiB (0%)
Language                                 : Indonesian
Default                                  : No
Forced                                   : No

Subtitle #12
ID                                       : 14
Format                                   : UTF-8
Codec ID                                 : S_TEXT/UTF8
Codec ID/Info                            : UTF-8 Plain Text
Duration                                 : 1 h 5 min
Bit rate                                 : 52 b/s
Count of elements                        : 834
Stream size                              : 24.9 KiB (0%)
Language                                 : Italian
Default                                  : No
Forced                                   : No

Subtitle #13
ID                                       : 15
Format                                   : UTF-8
Codec ID                                 : S_TEXT/UTF8
Codec ID/Info                            : UTF-8 Plain Text
Duration                                 : 1 h 5 min
Bit rate                                 : 58 b/s
Count of elements                        : 837
Stream size                              : 27.7 KiB (0%)
Language                                 : Korean
Default                                  : No
Forced                                   : No

Subtitle #14
ID                                       : 16
Format                                   : UTF-8
Codec ID                                 : S_TEXT/UTF8
Codec ID/Info                            : UTF-8 Plain Text
Duration                                 : 1 h 5 min
Bit rate                                 : 49 b/s
Count of elements                        : 835
Stream size                              : 23.6 KiB (0%)
Language                                 : Norwegian Bokmal
Default                                  : No
Forced                                   : No

Subtitle #15
ID                                       : 17
Format                                   : UTF-8
Codec ID                                 : S_TEXT/UTF8
Codec ID/Info                            : UTF-8 Plain Text
Duration                                 : 1 h 5 min
Bit rate                                 : 47 b/s
Count of elements                        : 828
Stream size                              : 22.5 KiB (0%)
Language                                 : Dutch
Default                                  : No
Forced                                   : No

Subtitle #16
ID                                       : 18
Format                                   : UTF-8
Codec ID                                 : S_TEXT/UTF8
Codec ID/Info                            : UTF-8 Plain Text
Duration                                 : 1 h 5 min
Bit rate                                 : 48 b/s
Count of elements                        : 831
Stream size                              : 23.1 KiB (0%)
Language                                 : Polish
Default                                  : No
Forced                                   : No

Subtitle #17
ID                                       : 19
Format                                   : UTF-8
Codec ID                                 : S_TEXT/UTF8
Codec ID/Info                            : UTF-8 Plain Text
Duration                                 : 1 h 5 min
Bit rate                                 : 49 b/s
Count of elements                        : 834
Stream size                              : 23.5 KiB (0%)
Language                                 : Portuguese
Default                                  : No
Forced                                   : No

Subtitle #18
ID                                       : 20
Format                                   : UTF-8
Codec ID                                 : S_TEXT/UTF8
Codec ID/Info                            : UTF-8 Plain Text
Duration                                 : 1 h 5 min
Bit rate                                 : 79 b/s
Count of elements                        : 837
Stream size                              : 37.8 KiB (0%)
Language                                 : Russian
Default                                  : No
Forced                                   : No

Subtitle #19
ID                                       : 21
Format                                   : UTF-8
Codec ID                                 : S_TEXT/UTF8
Codec ID/Info                            : UTF-8 Plain Text
Duration                                 : 1 h 5 min
Bit rate                                 : 50 b/s
Count of elements                        : 828
Stream size                              : 23.8 KiB (0%)
Language                                 : Swedish
Default                                  : No
Forced                                   : No

Subtitle #20
ID                                       : 22
Format                                   : UTF-8
Codec ID                                 : S_TEXT/UTF8
Codec ID/Info                            : UTF-8 Plain Text
Duration                                 : 1 h 5 min
Bit rate                                 : 164 b/s
Count of elements                        : 837
Stream size                              : 78.3 KiB (0%)
Language                                 : Tamil
Default                                  : No
Forced                                   : No

Subtitle #21
ID                                       : 23
Format                                   : UTF-8
Codec ID                                 : S_TEXT/UTF8
Codec ID/Info                            : UTF-8 Plain Text
Duration                                 : 1 h 5 min
Bit rate                                 : 131 b/s
Count of elements                        : 837
Stream size                              : 62.7 KiB (0%)
Language                                 : Telugu
Default                                  : No
Forced                                   : No

Subtitle #22
ID                                       : 24
Format                                   : UTF-8
Codec ID                                 : S_TEXT/UTF8
Codec ID/Info                            : UTF-8 Plain Text
Duration                                 : 1 h 5 min
Bit rate                                 : 128 b/s
Count of elements                        : 837
Stream size                              : 61.4 KiB (0%)
Language                                 : Thai
Default                                  : No
Forced                                   : No

Subtitle #23
ID                                       : 25
Format                                   : UTF-8
Codec ID                                 : S_TEXT/UTF8
Codec ID/Info                            : UTF-8 Plain Text
Duration                                 : 1 h 5 min
Bit rate                                 : 44 b/s
Count of elements                        : 835
Stream size                              : 21.4 KiB (0%)
Language                                 : Turkish
Default                                  : No
Forced                                   : No

Subtitle #24
ID                                       : 26
Format                                   : UTF-8
Codec ID                                 : S_TEXT/UTF8
Codec ID/Info                            : UTF-8 Plain Text
Duration                                 : 1 h 5 min
Bit rate                                 : 45 b/s
Count of elements                        : 837
Stream size                              : 21.7 KiB (0%)
Language                                 : Chinese
Default                                  : No
Forced                                   : No

Subtitle #25
ID                                       : 27
Format                                   : UTF-8
Codec ID                                 : S_TEXT/UTF8
Codec ID/Info                            : UTF-8 Plain Text
Duration                                 : 1 h 5 min
Bit rate                                 : 44 b/s
Count of elements                        : 837
Stream size                              : 21.1 KiB (0%)
Language                                 : Chinese
Default                                  : No
Forced                                   : No

Menu
00:00:00.000                             : en:Amazon Original
00:00:05.000                             : en:History begins to pivot
00:01:05.000                             : en:Opening Credits
00:02:15.000                             : en:Vignette does what she has to
00:03:12.000                             : en:Everyone wants answers
00:08:39.000                             : en:The dangers of a relationship
00:12:00.000                             : en:Absalom offers advice
00:13:23.000                             : en:Jonah confronts his mother
00:15:00.000                             : en:Haruspex faces her fate
00:16:06.000                             : en:Securing Vignette's release
00:16:50.000                             : en:An attack on Absalom
00:18:26.000                             : en:The truth about Sophie Longerbane
00:21:13.000                             : en:Jonah confronts his father
00:24:05.000                             : en:Philo and Vignette still love each other
00:25:42.000                             : en:Imogen and Mr. Agreus must make a choice
00:33:13.000                             : en:News about the Haruspex's death
00:34:42.000                             : en:Confronted with the truth of the prophecy
00:41:07.000                             : en:A change in power
00:42:59.000                             : en:A mother's sacrifice
00:50:19.000                             : en:Jonah offers Millworthy a job
00:53:55.000                             : en:Securing all Critch citizens
00:56:45.000                             : en:Chaos creates opportunity
00:59:23.000                             : en:Civil war comes to The Burgue
01:05:13.000                             : en:End Credits



Source Information
Release: Carnival.Row.S01.2160p.AMZN.WEBRip.DDP5.1.x264-NTb [84.5 GB]


Note From UTR
Whilst we are happy for our releases to be re-posted on a platform we aren't on, please do so in an 'as-is' format. We ask that you do not create a new torrent, include all descriptions you see above including the UTR logo, tags, notes and screenshots. If you'd like to become a permanent poster on a website we don't post to, feel free to get in contact with a UTR member.
If possible please donate: BTC 1QA5fum5AyXvWzdVCkQzUNvw3Ef15fHRaR


Category:TV > HEVC/x265
Lang:English  English
Total Size:4.36 GB
Info Hash:5f612f16e44409686a0560ac76f2e615e33f1529
Added By:UTR
Date Added:09-09-2019 19:10:13

Files

File List: 
 File Size
Carnival Row S01E01 Some Dark God Wakes (1080p x265 10bit Joy).mkv601 MB
Carnival Row S01E02 Aisling (1080p x265 10bit Joy).mkv509 MB
Carnival Row S01E03 Kingdoms Of The Moon (1080p x265 10bit Joy).mkv596 MB
Carnival Row S01E04 The Joining Of Unlike Things (1080p x265 10bit Joy).mkv559 MB
Carnival Row S01E05 Grieve No More (1080p x265 10bit Joy).mkv538 MB
Carnival Row S01E06 Unaccompanied Fae (1080p x265 10bit Joy).mkv501 MB
Carnival Row S01E07 The World To Come (1080p x265 10bit Joy).mkv494 MB
Carnival Row S01E08 The Gloaming (1080p x265 10bit Joy).mkv670 MB
Encoded by JoyBell (UTR).txt3.18 kB
folder.jpg95.71 kB
How to play HEVC (THIS FILE).txt3.42 kB
Ninite K-Lite Codecs Unattended Silent Installer and Updater.website561.00 B



Loading...
Comments

There are currently no comments. Be the first one to write something !