doctor who s12e08 sonic the hedgehog 2020 jumanji Last Week Tonight etrg The outsider s01e07 ethd family guy s18e11 1917 2019 ettv parasite Star Wars The Rise of Skywalker 2019 avenue 5 s01e05 Outlander S05E01 Joker 2019 homeland knives out Avenue 5 Star Trek Picard S01E04 rq.mp4 picard Curb Your Enthusiasm S10E05 ncis bad boys for life 2020 Fantasy Island 2020 the gentlemen 2020 star wars Homeland S08E02 vikings Supergirl S05E12 NCIS New Orleans S06E11 birds of prey (and the fantabulous emancipation of one harley quinn) 2020 21 bridges 2019 batwoman s01e12 Brooklyn Nine Nine S07E03 yts Dolittle 2020 batwoman Ford v Ferrari 2019 xxx evo 0 Endeavour s07e02 Good Girls jumanji the next level 2019 little women 2019 underwater 2020 The Gentlemen 2019 Outlander The outsider nascar Harley Quinn Hindi parasite 2019 WWE NCIS Los Angeles S11E14 doctor who etmovies curb your enthusiasm terminator dark fate 2019 Good Girls S03E01 ddr midway 2019 Knives Out 2019 Charlies Angels 2019 Endeavour jojo rabbit 2019 supergirl Frozen II 2019 family guy 
Warning! Use a V.P.N When Downloading Torrents!
Your IP Address is 3.214.224.224. Location is United States
Your Internet Provider is tracking your torrent activity! Hide your IP ADDRESS with a V.P.N!
We strongly recommend using ExpressV.P.N to anonymize your torrenting. 30 Day Money Back Guarantee!
Try it Now!
ETTV Recommended TV Shows
9-1-1.Lone.Star.S01E06.WEB.x264-XLF[ettv] torrent
Nurses.2020.S01E07.HDTV.x264-aAF[ettv] torrent
All.Rise.S01E16.HDTV.x264-SVA[ettv] torrent
The.Good.Doctor.S03E15.HDTV.x264-SVA[ettv] torrent
Manifest.S02E07.HDTV.x264-SVA[ettv] torrent
Prodigal.Son.S01E15.WEBRip.x264-XLF[ettv] torrent

ETTV Recommended SD
Dead.Fred.2019.HDRip.XviD.AC3-EVO torrent
Dark.Waters.2019.HDRip.XviD.AC3-EVO torrent
The.Dawn.2020.HDRip.XViD.AC3-ETRG torrent
Queen.and.Slim.2019.HDRip.XViD.AC3-ETRG torrent

ETTV Recommended HD
Demon.Eye.2019.1080p.AMZN.WEB-DL.DDP5.1.H.264-NTG[EtHD] torrent
Picture Perfect Mysteries Dead Over DIamonds (2020) 720p HDTV X264 Solar torrent
Star.Wars.The.Last.Jedi.2017.BRRip.HEVC.HDR.Eng.Spa.DD5.1.ETRG torrent
Queen.and.Slim.2019.1080p.WEB-DL.H264.AC3-EVO[EtHD] torrent

ETTV Recommended UHD
Frozen.II.2019.2160p.UHD.BluRay.x265-TERMiNAL torrent
Rogue.One.A.Star Wars Story 2016.4K.HDR.2160p.WEBDL Ita Eng x265-NAHOM torrent
Abominable.2019.4K.HDR.2160p.BDRip Ita Eng x265-NAHOM torrent
Star.Wars.The.Last.Jedi.2017.BDRip.UHD.HDR.Eng.Spa.TrueHD.ETRG torrent

ETTV Recommended Cam
Fantasy Island 2020 HDCAM x264-ETRG torrent
The Photograph 2020 720p HDCAM-C1NEM4 torrent
Emma 2020 720p HDCAM-C1NEM4 torrent
Sonic the Hedgehog.2020.READNFO.HDCAM.x264-ETRG torrent

ETTV Recommended Foreign
Panipat - The Great Betrayal.2019.540p.NF.WEB-DL.DD+5.1.x264-Telly torrent
Air.Strike.1080p.AMZN.WEB-DL.HIN-Multi.DD+5.1.x264-Telly torrent
Dabangg.3.2019.720p.AMZN.WEB-DL.x264.AAC-ETRG torrent
Parasite (2019) BluRay 720p [Hindi-Dub] x264 - KatmovieHD torrent


Download Torrent "Aladdin (2019) (1080p BluRay x265 HEVC 10bit AAC 7.1 Q22 Joy) [UTR]"

IMDB Details
Description:

A kind-hearted street urchin and a power-hungry Grand Vizier vie for a magic lamp that has the power to make their deepest wishes come true.

Genre:

Adventure, Family, Fantasy, Musical, Romance

Download Torrent (Magnet)
Download Torrent (File)
Seeds: 258
Leechers: 438
Completed: 1,348 
Last Checked: 09-09-2019 19:45:15


Loading...
Details
Title:Aladdin (2019) (1080p BluRay x265 HEVC 10bit AAC 7.1 Q22 Joy) [UTR]
Description:



Media Information
General
Format                                   : Matroska
Format version                           : Version 4 / Version 2
File size                                : 3.11 GiB
Duration                                 : 2 h 8 min
Overall bit rate                         : 3 462 kb/s
Movie name                               : Aladdin 2019  (1080p x265 q22 FS93 Joy) [UTR]
Encoded date                             : UTC 2019-09-09 15:39:36
Writing application                      : mkvmerge v32.0.0 ('Astral Progressions') 64-bit
Writing library                          : libebml v1.3.7 + libmatroska v1.5.0
Cover                                    : Yes
Attachments                              : cover.jpg
Writing frontend                         : StaxRip v2.0.2.0, Encoded by JoyBell

Video
ID                                       : 1
Format                                   : HEVC
Format/Info                              : High Efficiency Video Coding
Format profile                           : Main [email protected]@Main
Codec ID                                 : V_MPEGH/ISO/HEVC
Duration                                 : 2 h 7 min
Bit rate                                 : 2 964 kb/s
Width                                    : 1 920 pixels
Height                                   : 808 pixels
Display aspect ratio                     : 2.40:1
Frame rate mode                          : Constant
Frame rate                               : 23.976 (24000/1001) FPS
Color space                              : YUV
Chroma subsampling                       : 4:2:0
Bit depth                                : 10 bits
Bits/(Pixel*Frame)                       : 0.080
Stream size                              : 2.65 GiB (85%)
Writing library                          : x265 3.0_Au+24-4217e691387c:[Windows][GCC 9.1.1][64 bit] 10bit
Encoding settings                        : rc=crf / crf=21.5000 / qcomp=0.60 / qpstep=4 / stats-write=0 / stats-read=0 / qpmax=69 / qpmin=0 / no-lossless / no-cu-lossless / no-hevc-aq / no-aq-motion / aq-mode=3 / aq-strength=1.00 / cbqpoffs=0 / crqpoffs=0 / ipratio=1.40 / pbratio=1.30 / psy-rd=0.00 / psy-rdoq=1.00 / deblock=-2:-2 / ref=4 / limit-refs=3 / limit-modes / bframes=8 / b-adapt=2 / bframe-bias=20 / b-pyramid / no-b-intra / weightp / no-weightb / keyint=250 / min-keyint=23 / rc-lookahead=80 / gop-lookahead=0 / scenecut=40 / scenecut-bias=0.05 / ctu=64 / min-cu-size=8 / me=3 / subme=5 / merange=57 / rd=4 / no-rd-refine / ssim-rd / dynamic-rd=0.00 / rdoq-level=2 / rdpenalty=0 / cutree / sao / no-limit-sao / sao-non-deblock / rect / no-amp / open-gop / max-tu-size=32 / tu-inter-depth=1 / tu-intra-depth=1 / limit-tu=0 / qg-size=32 / wpp / no-pmode / no-pme / no-psnr / ssim / no-tskip / constrained-intra / strong-intra-smoothing / max-merge=5 / nr-intra=0 / nr-inter=0 / input-csp=1 / input-res=1920x808 / interlace=0 / total-frames=184109 / level-idc=0 / high-tier=1cpuid=1111039 / frame-threads=3 / numa-pools=12 / log-level=2 / uhd-bd=0 / lookahead-slices=4 / radl=0 / no-splice / no-intra-refresh / signhide / temporal-mvp / no-analyze-src-pics / early-skip / rskip / no-fast-intra / no-tskip-fast / no-splitrd-skip / zone-count=0 / no-strict-cbr / no-rc-grain / no-const-vbv / no-allow-non-conformance / no-repeat-headers / annexb / no-aud / no-hrd / info / hash=0 / no-temporal-layers / sar=0 / overscan=0 / videoformat=5 / range=0 / colorprim=2 / transfer=2 / colormatrix=2 / chromaloc=0 / display-window=0 / max-cll=0,0 / min-luma=0 / max-luma=1023 / log2-max-poc-lsb=8 / vui-timing-info / vui-hrd-info / slices=1 / no-opt-qp-pps / no-opt-ref-list-length-pps / no-multi-pass-opt-rps / no-opt-cu-delta-qp / no-hdr / no-hdr-opt / no-dhdr10-opt / no-idr-recovery-sei / analysis-reuse-level=5 / scale-factor=0 / refine-intra=0 / refine-inter=0 / refine-mv=0 / refine-ctu-distortion=0 / ctu-info=0 / no-lowpass-dct / refine-analysis-type=0 / copy-pic=1 / max-ausize-factor=1.0 / no-dynamic-refine / no-single-sei / no-svt / qp-adaptation-range=1.00
Default                                  : Yes
Forced                                   : No

Audio
ID                                       : 2
Format                                   : AAC
Format/Info                              : Advanced Audio Codec
Format profile                           : LC
Codec ID                                 : A_AAC
Duration                                 : 2 h 7 min
Bit rate                                 : 460 kb/s
Channel(s)                               : 8 channels
Channel positions                        : Front: L C R, Side: L R, Back: L R, LFE
Sampling rate                            : 48.0 kHz
Frame rate                               : 46.875 FPS (1024 spf)
Compression mode                         : Lossy
Delay relative to video                  : 9 ms
Stream size                              : 421 MiB (13%)
Language                                 : English
Default                                  : No
Forced                                   : No

Subtitle #1
ID                                       : 3
Format                                   : PGS
Muxing mode                              : zlib
Codec ID                                 : S_HDMV/PGS
Codec ID/Info                            : Picture based subtitle format used on BDs/HD-DVDs
Duration                                 : 2 h 7 min
Bit rate                                 : 46.8 kb/s
Count of elements                        : 4858
Stream size                              : 42.5 MiB (1%)
Language                                 : English
Default                                  : No
Forced                                   : No

Subtitle #2
ID                                       : 4
Format                                   : UTF-8
Codec ID                                 : S_TEXT/UTF8
Codec ID/Info                            : UTF-8 Plain Text
Duration                                 : 2 h 6 min
Bit rate                                 : 63 b/s
Count of elements                        : 2111
Stream size                              : 59.1 KiB (0%)
Language                                 : English
Default                                  : No
Forced                                   : No

Subtitle #3
ID                                       : 5
Format                                   : VobSub
Muxing mode                              : zlib
Codec ID                                 : S_VOBSUB
Codec ID/Info                            : Picture based subtitle format used on DVDs
Duration                                 : 2 h 6 min
Bit rate                                 : 9 756 b/s
Count of elements                        : 1800
Stream size                              : 8.86 MiB (0%)
Language                                 : French
Default                                  : No
Forced                                   : No

Subtitle #4
ID                                       : 6
Format                                   : VobSub
Muxing mode                              : zlib
Codec ID                                 : S_VOBSUB
Codec ID/Info                            : Picture based subtitle format used on DVDs
Duration                                 : 2 h 6 min
Bit rate                                 : 8 662 b/s
Count of elements                        : 1711
Stream size                              : 7.87 MiB (0%)
Language                                 : French
Default                                  : No
Forced                                   : No

Subtitle #5
ID                                       : 7
Format                                   : VobSub
Muxing mode                              : zlib
Codec ID                                 : S_VOBSUB
Codec ID/Info                            : Picture based subtitle format used on DVDs
Duration                                 : 2 h 6 min
Bit rate                                 : 9 580 b/s
Count of elements                        : 1923
Stream size                              : 8.70 MiB (0%)
Language                                 : German
Default                                  : No
Forced                                   : No

Subtitle #6
ID                                       : 8
Format                                   : VobSub
Muxing mode                              : zlib
Codec ID                                 : S_VOBSUB
Codec ID/Info                            : Picture based subtitle format used on DVDs
Duration                                 : 2 h 6 min
Bit rate                                 : 9 419 b/s
Count of elements                        : 1785
Stream size                              : 8.55 MiB (0%)
Language                                 : Italian
Default                                  : No
Forced                                   : No

Subtitle #7
ID                                       : 9
Format                                   : VobSub
Muxing mode                              : zlib
Codec ID                                 : S_VOBSUB
Codec ID/Info                            : Picture based subtitle format used on DVDs
Duration                                 : 2 h 6 min
Bit rate                                 : 6 837 b/s
Count of elements                        : 1661
Stream size                              : 6.21 MiB (0%)
Language                                 : Japanese
Default                                  : No
Forced                                   : No

Subtitle #8
ID                                       : 10
Format                                   : VobSub
Muxing mode                              : zlib
Codec ID                                 : S_VOBSUB
Codec ID/Info                            : Picture based subtitle format used on DVDs
Duration                                 : 2 h 0 min
Bit rate                                 : 10.2 kb/s
Count of elements                        : 1785
Stream size                              : 8.74 MiB (0%)
Language                                 : Spanish
Default                                  : No
Forced                                   : No

Subtitle #9
ID                                       : 11
Format                                   : UTF-8
Codec ID                                 : S_TEXT/UTF8
Codec ID/Info                            : UTF-8 Plain Text
Duration                                 : 2 h 8 min
Bit rate                                 : 89 b/s
Count of elements                        : 1715
Stream size                              : 84.6 KiB (0%)
Language                                 : Arabic
Default                                  : No
Forced                                   : No

Subtitle #10
ID                                       : 12
Format                                   : UTF-8
Codec ID                                 : S_TEXT/UTF8
Codec ID/Info                            : UTF-8 Plain Text
Duration                                 : 1 h 59 min
Bit rate                                 : 165 b/s
Count of elements                        : 1978
Stream size                              : 145 KiB (0%)
Language                                 : Bengali
Default                                  : No
Forced                                   : No

Subtitle #11
ID                                       : 13
Format                                   : UTF-8
Codec ID                                 : S_TEXT/UTF8
Codec ID/Info                            : UTF-8 Plain Text
Duration                                 : 2 h 6 min
Bit rate                                 : 44 b/s
Count of elements                        : 1803
Stream size                              : 41.4 KiB (0%)
Language                                 : Chinese
Default                                  : No
Forced                                   : No

Subtitle #12
ID                                       : 14
Format                                   : UTF-8
Codec ID                                 : S_TEXT/UTF8
Codec ID/Info                            : UTF-8 Plain Text
Duration                                 : 2 h 6 min
Bit rate                                 : 52 b/s
Count of elements                        : 1368
Stream size                              : 48.7 KiB (0%)
Language                                 : Danish
Default                                  : No
Forced                                   : No

Subtitle #13
ID                                       : 15
Format                                   : UTF-8
Codec ID                                 : S_TEXT/UTF8
Codec ID/Info                            : UTF-8 Plain Text
Duration                                 : 2 h 0 min
Bit rate                                 : 61 b/s
Count of elements                        : 1435
Stream size                              : 54.2 KiB (0%)
Language                                 : Dutch
Default                                  : No
Forced                                   : No

Subtitle #14
ID                                       : 16
Format                                   : UTF-8
Codec ID                                 : S_TEXT/UTF8
Codec ID/Info                            : UTF-8 Plain Text
Duration                                 : 2 h 7 min
Bit rate                                 : 101 b/s
Count of elements                        : 2058
Stream size                              : 94.7 KiB (0%)
Language                                 : Persian
Default                                  : No
Forced                                   : No

Subtitle #15
ID                                       : 17
Format                                   : UTF-8
Codec ID                                 : S_TEXT/UTF8
Codec ID/Info                            : UTF-8 Plain Text
Duration                                 : 2 h 6 min
Bit rate                                 : 51 b/s
Count of elements                        : 1784
Stream size                              : 47.8 KiB (0%)
Language                                 : Finnish
Default                                  : No
Forced                                   : No

Subtitle #16
ID                                       : 18
Format                                   : UTF-8
Codec ID                                 : S_TEXT/UTF8
Codec ID/Info                            : UTF-8 Plain Text
Duration                                 : 2 h 1 min
Bit rate                                 : 70 b/s
Count of elements                        : 1876
Stream size                              : 62.4 KiB (0%)
Language                                 : Indonesian
Default                                  : No
Forced                                   : No

Subtitle #17
ID                                       : 19
Format                                   : UTF-8
Codec ID                                 : S_TEXT/UTF8
Codec ID/Info                            : UTF-8 Plain Text
Duration                                 : 2 h 7 min
Bit rate                                 : 72 b/s
Count of elements                        : 2114
Stream size                              : 67.9 KiB (0%)
Language                                 : Malay
Default                                  : No
Forced                                   : No

Subtitle #18
ID                                       : 20
Format                                   : UTF-8
Codec ID                                 : S_TEXT/UTF8
Codec ID/Info                            : UTF-8 Plain Text
Duration                                 : 2 h 6 min
Bit rate                                 : 48 b/s
Count of elements                        : 1783
Stream size                              : 45.4 KiB (0%)
Language                                 : Norwegian
Default                                  : No
Forced                                   : No

Subtitle #19
ID                                       : 21
Format                                   : UTF-8
Codec ID                                 : S_TEXT/UTF8
Codec ID/Info                            : UTF-8 Plain Text
Duration                                 : 2 h 0 min
Bit rate                                 : 63 b/s
Count of elements                        : 2032
Stream size                              : 56.4 KiB (0%)
Language                                 : Romanian
Default                                  : No
Forced                                   : No

Subtitle #20
ID                                       : 22
Format                                   : UTF-8
Codec ID                                 : S_TEXT/UTF8
Codec ID/Info                            : UTF-8 Plain Text
Duration                                 : 2 h 6 min
Bit rate                                 : 50 b/s
Count of elements                        : 1388
Stream size                              : 46.6 KiB (0%)
Language                                 : Swedish
Default                                  : No
Forced                                   : No

Subtitle #21
ID                                       : 23
Format                                   : UTF-8
Codec ID                                 : S_TEXT/UTF8
Codec ID/Info                            : UTF-8 Plain Text
Duration                                 : 2 h 7 min
Bit rate                                 : 124 b/s
Count of elements                        : 1789
Stream size                              : 117 KiB (0%)
Language                                 : Thai
Default                                  : No
Forced                                   : No

Subtitle #22
ID                                       : 24
Format                                   : UTF-8
Codec ID                                 : S_TEXT/UTF8
Codec ID/Info                            : UTF-8 Plain Text
Duration                                 : 2 h 0 min
Bit rate                                 : 87 b/s
Count of elements                        : 2059
Stream size                              : 77.2 KiB (0%)
Language                                 : Vietnamese
Default                                  : No
Forced                                   : No

Menu
00:00:00.000                             : en:Chapter 01
00:04:49.372                             : en:Chapter 02
00:13:04.658                             : en:Chapter 03
00:18:55.759                             : en:Chapter 04
00:26:18.410                             : en:Chapter 05
00:30:26.324                             : en:Chapter 06
00:39:51.889                             : en:Chapter 07
00:54:50.161                             : en:Chapter 08
01:02:18.651                             : en:Chapter 09
01:09:19.488                             : en:Chapter 10
01:21:53.033                             : en:Chapter 11
01:33:51.417                             : en:Chapter 12
01:38:48.380                             : en:Chapter 13
01:45:19.396                             : en:Chapter 14
01:53:07.030                             : en:Chapter 15
01:59:38.462                             : en:Chapter 16



Source Information
Release: Aladdin.2019.2160p.BluRay.x265.10bit.SDR.DTS-HD.MA.TrueHD.7.1.Atmos-SWTYBLZ.mkv (34.77 GBs)




Note From UTR
Whilst we are happy for our releases to be re-posted on a platform we aren't on, please do so in an 'as-is' format. We ask that you do not create a new torrent, include all descriptions you see above including the UTR logo, tags, notes and screenshots. If you'd like to become a permanent poster on a website we don't post to, feel free to get in contact with a UTR member.
If possible please donate: BTC 1QA5fum5AyXvWzdVCkQzUNvw3Ef15fHRaR



Category:Movies > HEVC/x265
Lang:English  English
Total Size:3.11 GB
Info Hash:8623f800aa461dd7091157f14e39d909f430b1fa
Added By:UTR
Date Added:09-09-2019 19:45:11

Files

File List: 
 File Size
Aladdin 2019 (1080p x265 q22 FS93 Joy).mkv3.11 GB



Loading...
Comments

There are currently no comments. Be the first one to write something !