motogp aladdin 2019 killjoys kabir singh ITA  formula1 power s06e04 proper hustlers 2019 Peaky blinders suits s09e09 godzilla king of the monsters 2019 Disenchantment anna 2019 Toy Story 4 2019 American horror story fear the walking dead yts etrg american horror story s09e01 幼女 yesterday 2019 rambo last blood 2019 f1 it chapter two 2019 dream girl men in black international 2019 xxx evo 2.0 (2018) hobbs and shaw HINDI john wick chapter 3 – parabellum 2019 childs play 2019 toy story 4 crawl 2019 titans s02e03 0 good boys 2019 spiderman ethd angel has fallen 2019 ready or not 2019 spider man far from home 2019 the lion king 2019 it 2017 spider man far from home ad astra 2019 downton abbey 2019 Formula 1 preacher scary stories to tell in the dark 2019 Ad Astra Titans s02e02 ma 2019 Suits the secret life of pets 2 2019 fast furious presents hobbs shaw 2019 spiderman far from home titans far from home ddr joker 2019 the family man once upon a time in hollywood 2019 avengers endgame 2019 ettv etmovies dark phoenix 2019 
Warning! Use a VPN When Downloading Torrents!
Your IP Address is 35.175.191.150. Location is United States
Your Internet Provider is tracking your torrent activity! Hide your IP ADDRESS with a VPN!
We strongly recommend using ExpressVPN to anonymize your torrenting. 30 Day Money Back Guarantee!
Try it Now!
ETTV Recommended TV Shows
The.Unicorn.S01E01.WEB.x264-TRUMP[ettv] torrent
Power.2014.S06E05.720p.WEB.H264-METCON[ettv] torrent
The.Terror.S02E07.WEB.h264-TBS[ettv] torrent
UFC Fight Night 159 WEB-DL H264 Fight-BB torrent

ETTV Recommended SD
Fast.and.Furious.Presents.Hobbs.and.Shaw.2019..HC.HDRip.x264.AC3-ETRG torrent
The.First.King.2019.BDRip.XviD.AC3-EVO torrent
Bloodline.2019.HDRip.XViD-ETRG torrent
Running.with.the.Devil.2019.HDRip.XViD-ETRG torrent

ETTV Recommended HD
Spider-Man Far From Home.2019.MULTi.1080p.BluRay.DTS-HDMA.7.1.HEVC-DDR[EtHD] torrent
Haunt.2019.1080p.AMZN.WEB-DL.DDP5.1.H.264-NTG[EtHD] torrent
Kidnap.2017.BDRip.1080p.x264.DTS.DD5.1.Gerald torrent
King.of.Boys.2018.1080p.NF.WEB-DL.H264-ETRG[EtHD] torrent

ETTV Recommended UHD
Annabelle.Comes.Home.2019.MULTi.UHD.2160p.HDR.WEB-Rip.DDP.5.1.HEVC-DDR[EtHD] torrent
Angel Heart 1987.MULTi.Blu-ray.2160p.HDR.DTS-HDMA.5.1.HEVC-DDR torrent
Spider-Man Far from Home 2019.MULTi.UHD.BluRay.2160p.TrueHD.Atmos.7.1.HEVC-DDR torrent
Dark.Phoenix.2019.4K.HDR10+.2160p.BDRip Ita Eng x265-NAHOM torrent

ETTV Recommended Cam
Downton Abbey 2019 720p HDCAM-GETB8 torrent
Hustlers 2019 HDCAM x264 AC3-ETRG torrent
Rambo Last Blood 2019 720p NEW HDCAM-GETB8 torrent
Ad Astra 2019  HDCAM x264 AC3-ETRG torrent

ETTV Recommended Foreign
Spider-Man Far From Home (2019) [720p - BDRip - Original Auds - [Tamil + Telugu + Hindi + Eng] - x264 - AC3 5.1 - 1.4GB - ESubs] torrent
The Zoya Factor (2019) 720p PreDVD Rip x264 AAC 1.2GB NO LOGO CineVood Exclusive torrent
Ay.mi.madre.2019.1080p.NF.WEB-DL.x264-iKA[EtHD] torrent
Al-risâlah a k a The Message 1976 1080p WEB-DL DD5 1 H 264[EtHD] torrent


Download Torrent "Finding Steve McQueen (2019) (1080p BluRay x265 HEVC 10bit AAC 5.1 Qman) [U..."

IMDB Details
Description:

In 1972, a gang of close-knit thieves from Youngstown, Ohio attempt to steal $30 million in illegal contributions and blackmail money from President Richard Nixon's secret fund.

Genre:

Crime, Romance

Download Torrent (Magnet)
Download Torrent (File)
Seeds: 63
Leechers: 21
Completed: 253 
Last Checked: 11-09-2019 19:15:30


Loading...
Details
Title:Finding Steve McQueen (2019) (1080p BluRay x265 HEVC 10bit AAC 5.1 Qman) [U...
Description:



Media Information

General
Format                                   : Matroska
Format version                           : Version 4 / Version 2
File size                                : 2.45 GiB
Duration                                 : 1 h 31 min
Overall bit rate                         : 3 825 kb/s
Encoded date                             : UTC 2019-09-11 16:19:56
Writing application                      : mkvmerge v36.0.0 ('Is That Jazz?') 64-bit
Writing library                          : libebml v1.3.9 + libmatroska v1.5.2

Video
ID                                       : 1
Format                                   : HEVC
Format/Info                              : High Efficiency Video Coding
Format profile                           : Main [email protected]@Main
Codec ID                                 : V_MPEGH/ISO/HEVC
Duration                                 : 1 h 31 min
Bit rate                                 : 3 416 kb/s
Width                                    : 1 920 pixels
Height                                   : 1 038 pixels
Display aspect ratio                     : 1.85:1
Frame rate mode                          : Constant
Frame rate                               : 23.976 (24000/1001) FPS
Color space                              : YUV
Chroma subsampling                       : 4:2:0
Bit depth                                : 10 bits
Bits/(Pixel*Frame)                       : 0.071
Stream size                              : 2.19 GiB (89%)
Writing library                          : x265 3.1+14-f08461fdae33:[Windows][MSVC 1922][64 bit] 10bit
Encoding settings                        : cpuid=1111039 / frame-threads=4 / numa-pools=16 / wpp / no-pmode / no-pme / no-psnr / no-ssim / log-level=2 / input-csp=1 / input-res=1920x1038 / interlace=0 / total-frames=131753 / level-idc=0 / high-tier=1 / uhd-bd=0 / ref=4 / no-allow-non-conformance / no-repeat-headers / annexb / no-aud / no-hrd / info / hash=0 / no-temporal-layers / open-gop / min-keyint=23 / keyint=250 / gop-lookahead=0 / bframes=8 / b-adapt=2 / b-pyramid / bframe-bias=0 / rc-lookahead=80 / lookahead-slices=4 / scenecut=40 / radl=0 / no-splice / no-intra-refresh / ctu=64 / min-cu-size=8 / no-rect / no-amp / max-tu-size=32 / tu-inter-depth=1 / tu-intra-depth=1 / limit-tu=0 / rdoq-level=2 / dynamic-rd=0.00 / no-ssim-rd / signhide / no-tskip / nr-intra=0 / nr-inter=0 / no-constrained-intra / no-strong-intra-smoothing / max-merge=3 / limit-refs=3 / limit-modes / me=3 / subme=3 / merange=57 / temporal-mvp / no-hme / weightp / no-weightb / no-analyze-src-pics / deblock=-1:-1 / no-sao / no-sao-non-deblock / rd=4 / no-early-skip / no-rskip / no-fast-intra / no-tskip-fast / no-cu-lossless / b-intra / no-splitrd-skip / rdpenalty=0 / psy-rd=1.00 / psy-rdoq=2.50 / no-rd-refine / no-lossless / cbqpoffs=0 / crqpoffs=0 / rc=crf / crf=20.0 / qcomp=0.60 / qpstep=4 / stats-write=0 / stats-read=0 / ipratio=1.40 / pbratio=1.30 / aq-mode=2 / aq-strength=1.00 / cutree / zone-count=0 / no-strict-cbr / qg-size=32 / no-rc-grain / qpmax=69 / qpmin=0 / no-const-vbv / sar=0 / overscan=0 / videoformat=5 / range=0 / colorprim=2 / transfer=2 / colormatrix=2 / chromaloc=0 / display-window=0cll=0,0 / min-luma=0 / max-luma=1023 / log2-max-poc-lsb=8 / vui-timing-info / vui-hrd-info / slices=1 / no-opt-qp-pps / no-opt-ref-list-length-pps / no-multi-pass-opt-rps / scenecut-bias=0.05 / no-opt-cu-delta-qp / no-aq-motion / no-hdr / no-hdr-opt / no-dhdr10-opt / no-idr-recovery-sei / analysis-reuse-level=5 / scale-factor=0 / refine-intra=0 / refine-inter=0 / refine-mv=0 / refine-ctu-distortion=0 / no-limit-sao / ctu-info=0 / no-lowpass-dct / refine-analysis-type=0 / copy-pic=1 / max-ausize-factor=1.0 / no-dynamic-refine / no-single-sei / no-hevc-aq / no-svt / no-field / qp-adaptation-range=1.00
Language                                 : English
Default                                  : Yes
Forced                                   : No

Audio
ID                                       : 2
Format                                   : AAC
Format/Info                              : Advanced Audio Codec
Format profile                           : LC
Codec ID                                 : A_AAC
Duration                                 : 1 h 31 min
Bit rate                                 : 384 kb/s
Channel(s)                               : 6 channels
Channel positions                        : Front: L C R, Side: L R, LFE
Sampling rate                            : 48.0 kHz
Frame rate                               : 46.875 FPS (1024 spf)
Compression mode                         : Lossy
Delay relative to video                  : 9 ms
Stream size                              : 255 MiB (10%)
Language                                 : English
Default                                  : Yes
Forced                                   : No

Subtitle
ID                                       : 3
Format                                   : PGS
Muxing mode                              : zlib
Codec ID                                 : S_HDMV/PGS
Codec ID/Info                            : Picture based subtitle format used on BDs/HD-DVDs
Duration                                 : 1 h 29 min
Bit rate                                 : 48.7 kb/s
Count of elements                        : 2582
Stream size                              : 31.3 MiB (1%)
Language                                 : English
Default                                  : Yes
Forced                                   : No

Menu
00:00:00.000                             : en:Chapter 01
00:05:07.890                             : en:Chapter 02
00:11:28.229                             : en:Chapter 03
00:16:36.662                             : en:Chapter 04
00:21:04.012                             : en:Chapter 05
00:30:22.570                             : en:Chapter 06
00:36:51.876                             : en:Chapter 07
00:43:00.077                             : en:Chapter 08
00:47:52.744                             : en:Chapter 09
00:55:21.693                             : en:Chapter 10
01:01:15.713                             : en:Chapter 11
01:07:14.405                             : en:Chapter 12
01:11:45.342                             : en:Chapter 13
01:15:02.581                             : en:Chapter 14
01:22:23.813                             : en:Chapter 15
01:28:33.975                             : en:Chapter 16

Source Information
Release:
Unknown Source/NO-GROUP


Note From UTR
Whilst we are happy for our releases to be re-posted on a platform we aren't on, please do so in an 'as-is' format. We ask that you do not create a new torrent, include all descriptions you see above including the UTR logo, tags, notes and screenshots. If you'd like to become a permanent poster on a website we don't post to, feel free to get in contact with a UTR member.
If possible please donate: BTC 1QA5fum5AyXvWzdVCkQzUNvw3Ef15fHRaR


Category:Movies > HEVC/x265
Lang:English  English
Total Size:2.45 GB
Info Hash:8082435e009a273384c9e64e4ed54bd0ef955e15
Added By:UTR
Date Added:11-09-2019 19:15:28

Files

File List: 
 File Size
Finding.Steve.McQueen.(2019).1080p.BluRay.10-bit.x265.AAC.5.1 Qman[UTR].mkv2.45 GB



Loading...
Comments

There are currently no comments. Be the first one to write something !