the curse of oak island s07e03 the mandalorian s01e01 fast furious presents hobbs shaw 2019 etrg Mr Robot zombieland double tap 2019 xxx etmovies New Amsterdam new amsterdam s02e09 rick and morty s04e02 The Irishman 2019 ethd Arrow This IS Us Silicon Valley batwoman the good doctor fbi s02e08 rick and morty 0 maleficent mistress of evil 2019 The Mandalorian the flash s06e06 hindi the resident this is us s04e09 flash Supergirl hustlers 2019 His Dark Materials TREADSTONE Emergence the good doctor s03e08 ncis arrow s08e05 charlies angels 2019 wwe it Chapter two Emergence S01E07 rambo last blood 2019 once upon a time in hollywood gemini man gemini man 2019 empire s06e07 angel has fallen 2019 yts marvel week the mandalorian s01e02 the purge s02e06 ncis s17e08 treadstone s01e06 ddr evo terminator dark fate 2019 ford v ferrari 2019 fbi mandalorian titans ettv the walking dead s10e07 Joker the resident s03e07 The purge the walking dead See The Flash watchmen s01e05 joker 2019 Watchmen 
Warning! Use a V.P.N When Downloading Torrents!
Your IP Address is 34.231.21.123. Location is United States
Your Internet Provider is tracking your torrent activity! Hide your IP ADDRESS with a V.P.N!
We strongly recommend using ExpressV.P.N to anonymize your torrenting. 30 Day Money Back Guarantee!
Try it Now!
ETTV Recommended TV Shows
The.Resident.S03E07.WEB.x264-TBS[ettv] torrent
New.Amsterdam.2018.S02E09.HDTV.x264-KILLERS[ettv] torrent
Emergence.S01E07.HDTV.x264-SVA[ettv] torrent
Treadstone.S01E06.iNTERNAL.WEB.h264-TRUMP[ettv] torrent

ETTV Recommended SD
Killerman.2019.HDRip.XViD-ETRG torrent
Gemini.Man.2019.HDRip.XViD-ETRG torrent
Once Upon A Time In Hollywood.2019.HDRip.XviD-EVO torrent
Ready.or.Not.2019.DVDRip.XviD.AC3-EVO[EtMovies] torrent

ETTV Recommended HD
Palm.Beach.2019.1080p.BluRay.x264-PFa[EtHD] torrent
Random Acts of Christmas 2019 Lifetime 720p Web X264 Solar torrent
Once Upon A Time In Hollywood.2019.1080p.HDRip.X264.AC3-EVO[EtHD] torrent
American.Hustle.2013.BDRip.1080p.x264.DTS.DD5.1.Gerald torrent

ETTV Recommended UHD
The Boss Baby 2017.MULTi.UHD.Blu-ray.2160p.HDR.Atmos.7.1.HEVC-DDR torrent
Three.Billboards.Outside.Ebbing.Missouri.2017.MULTi.UHD.Blu-ray.2160p.HDR.DTS-HDMA.5.1.HEVC-DDR torrent
Angel.Has.Fallen.2019.MULTi.UHD.BluRay.2160p.HDR.Atmos.7.1.HEVC-DDR torrent
Midsommar.2019.MULTi.UHD.Bluray.2160p.HDR.DTS-HDMA.5.1.HEVC-DDR torrent

ETTV Recommended Cam
Motherless Brooklyn 2019 NEW HDCAM x264-ETRG torrent
Hustlers 2019 NEW HDTS x264 AC3-ETRG torrent
Ford v Ferrari 2019 NEW HDCAM X264-ETRG torrent
Charlies Angels 2019 NEW HD-TS  x264-ETRG torrent

ETTV Recommended Foreign
Devadas (2018) 720p UNCUT HDRip x264 Eng Subs [Dual Audio] [Hindi DD 2.0 - Telugu 5.1] Exclusive By -=!Dr.STAR!=- torrent
Dream Girl.2019.Hindi.1080p.WEB-DL.x264.AAC -DDR[EtHD] torrent
Dora And The Lost City Of Gold (2019)[720p BDRip - Original Auds - [Tamil + Telugu + Hin + Eng] - x264 - 1GB - ESubs] torrent
Doorbeen (2019) Punjabi 720p HDRip x264 AAC ESubs - Downloadhub torrent


Download Torrent "Alita: Battle Angel (2019)Mp-4 X264 1080p AAC[DSD]"

IMDB Details
Description:

A deactivated cyborg is revived, but cannot remember anything of her past life and goes on a quest to find out who she is.

Genre:

Action, Adventure, Sci-Fi, Thriller

Download Torrent (Magnet)
Download Torrent (File)
Seeds: 230
Leechers: 72
Completed: 980 
Last Checked: 22-09-2019 15:30:34


Details
Title:Alita: Battle Angel (2019)Mp-4 X264 1080p AAC[DSD]
Description:
Seedboxed!!




General

Complete name                            : ALITA__BATTLE_ANGEL.mp4

Format                                   : MPEG-4

Format profile                           : Base Media / Version 2

Codec ID                                 : mp42 (mp42/isom/avc1)

File size                                : 1.93 GiB

Duration                                 : 2 h 1 min

Overall bit rate mode                    : Variable

Overall bit rate                         : 2 262 kb/s

Movie name                               : ALITA__BATTLE_ANGEL.theatrical

Performer                                : Robert Rodriguez

Performer/Sorted by                      : Robert Rodriguez

Genre                                    : Action & Science Fiction & Thriller & Adventure

Description                              : When Alita awakens with no memory of who she is in a future world she does not recognize, she is taken in by Ido, a compassionate doctor who realizes that somewhere in this abandoned cyborg shell is the heart and soul of a young woman with an extraordinary past.

Recorded date                            : 2019

Encoded date                             : UTC 2019-09-21 22:52:30

Tagged date                              : UTC 2019-09-22 03:16:13

Writing application                      : DVDFab 11.0.5.1

Cover                                    : Yes

Title/Sort                               : Alita: Battle Angel

LongDescription                          : When Alita awakens with no memory of who she is in a future world she does not recognize, she is taken in by Ido, a compassionate doctor who realizes that somewhere in this abandoned cyborg shell is the heart and soul of a young woman with an extraordinary past.


Video

ID                                       : 1

Format                                   : AVC

Format/Info                              : Advanced Video Codec

Format profile                           : [email protected]

Format settings                          : CABAC / 2 Ref Frames

Format settings, CABAC                   : Yes

Format settings, RefFrames               : 2 frames

Format settings, GOP                     : M=1, N=24

Codec ID                                 : avc1

Codec ID/Info                            : Advanced Video Coding

Duration                                 : 2 h 1 min

Bit rate mode                            : Variable

Bit rate                                 : 1 804 kb/s

Maximum bit rate                         : 2 776 kb/s

Width                                    : 1 920 pixels

Height                                   : 804 pixels

Display aspect ratio                     : 2.40:1

Frame rate mode                          : Constant

Frame rate                               : 23.976 (24000/1001) FPS

Color space                              : YUV

Chroma subsampling                       : 4:2:0

Bit depth                                : 8 bits

Scan type                                : Progressive

Bits/(Pixel*Frame)                       : 0.049

Stream size                              : 1.54 GiB (80%)

Encoded date                             : UTC 2019-09-21 22:52:30

Tagged date                              : UTC 2019-09-22 03:16:13

Color primaries                          : BT.709

Transfer characteristics                 : BT.709

Matrix coefficients                      : BT.709

Menus                                    : 4


Audio

ID                                       : 2

Format                                   : AAC

Format/Info                              : Advanced Audio Codec

Format profile                           : LC

Codec ID                                 : mp4a-40-2

Duration                                 : 2 h 1 min

Bit rate mode                            : Variable

Bit rate                                 : 452 kb/s

Channel(s)                               : 6 channels

Channel positions                        : Front: L C R, Side: L R, LFE

Sampling rate                            : 48.0 kHz

Frame rate                               : 46.875 FPS (1024 SPF)

Compression mode                         : Lossy

Stream size                              : 391 MiB (20%)

Title                                    : English (aac 5.1)

Language                                 : English

Default                                  : Yes

Alternate group                          : 1

Encoded date                             : UTC 2019-09-21 22:52:30

Tagged date                              : UTC 2019-09-22 03:16:13


Text

ID                                       : 3

Format                                   : VobSub

Codec ID                                 : mp4s-E0

Codec ID/Info                            : The same subtitle format used on DVDs

Duration                                 : 1 h 56 min

Bit rate mode                            : Variable

Bit rate                                 : 7 721 b/s

Maximum bit rate                         : 4 249 Mb/s

Stream size                              : 6.45 MiB (0%)

Language                                 : English

Default                                  : Yes

Forced                                   : No

Alternate group                          : 2

Encoded date                             : UTC 2019-09-21 22:52:30


Tagged date                              : UTC 2019-09-22 03:08:41

Category:Movies > HD 1080p
Lang:English  English
Total Size:1.93 GB
Info Hash:82033f0b56af255d55e79595e5e4dc6c03594084
Added By:DaScubaDude
Date Added:22-09-2019 15:30:30

  

Files

File List: 
 File Size
ALITA__BATTLE_ANGEL.theatrical.mp41.93 GB



Loading...
Comments

There are currently no comments. Be the first one to write something !