the curse of oak island s07e03 the mandalorian s01e01 fast furious presents hobbs shaw 2019 etrg Mr Robot zombieland double tap 2019 xxx etmovies New Amsterdam new amsterdam s02e09 rick and morty s04e02 The Irishman 2019 ethd Arrow This IS Us Silicon Valley batwoman the good doctor fbi s02e08 rick and morty 0 maleficent mistress of evil 2019 The Mandalorian the flash s06e06 hindi the resident this is us s04e09 flash Supergirl hustlers 2019 His Dark Materials TREADSTONE Emergence the good doctor s03e08 ncis arrow s08e05 charlies angels 2019 wwe it Chapter two Emergence S01E07 rambo last blood 2019 once upon a time in hollywood gemini man gemini man 2019 empire s06e07 angel has fallen 2019 yts marvel week the mandalorian s01e02 the purge s02e06 ncis s17e08 treadstone s01e06 ddr evo terminator dark fate 2019 ford v ferrari 2019 fbi mandalorian titans ettv the walking dead s10e07 Joker the resident s03e07 The purge the walking dead See The Flash watchmen s01e05 joker 2019 Watchmen 
Warning! Use a V.P.N When Downloading Torrents!
Your IP Address is 34.231.21.123. Location is United States
Your Internet Provider is tracking your torrent activity! Hide your IP ADDRESS with a V.P.N!
We strongly recommend using ExpressV.P.N to anonymize your torrenting. 30 Day Money Back Guarantee!
Try it Now!
ETTV Recommended TV Shows
New.Amsterdam.2018.S02E09.HDTV.x264-KILLERS[ettv] torrent
Emergence.S01E07.HDTV.x264-SVA[ettv] torrent
Treadstone.S01E06.iNTERNAL.WEB.h264-TRUMP[ettv] torrent
The.Goldbergs.2013.S07E08.HDTV.x264-SVA[ettv] torrent

ETTV Recommended SD
Killerman.2019.HDRip.XViD-ETRG torrent
Gemini.Man.2019.HDRip.XViD-ETRG torrent
Once Upon A Time In Hollywood.2019.HDRip.XviD-EVO torrent
Ready.or.Not.2019.DVDRip.XviD.AC3-EVO[EtMovies] torrent

ETTV Recommended HD
Palm.Beach.2019.1080p.BluRay.x264-PFa[EtHD] torrent
Once Upon A Time In Hollywood.2019.1080p.HDRip.X264.AC3-EVO[EtHD] torrent
American.Hustle.2013.BDRip.1080p.x264.DTS.DD5.1.Gerald torrent
Temptation.2018.1080p.AMZN.WEB-DL.DD+2.0.H.264-iKA[EtHD] torrent

ETTV Recommended UHD
The Boss Baby 2017.MULTi.UHD.Blu-ray.2160p.HDR.Atmos.7.1.HEVC-DDR torrent
Three.Billboards.Outside.Ebbing.Missouri.2017.MULTi.UHD.Blu-ray.2160p.HDR.DTS-HDMA.5.1.HEVC-DDR torrent
Angel.Has.Fallen.2019.MULTi.UHD.BluRay.2160p.HDR.Atmos.7.1.HEVC-DDR torrent
Midsommar.2019.MULTi.UHD.Bluray.2160p.HDR.DTS-HDMA.5.1.HEVC-DDR torrent

ETTV Recommended Cam
Motherless Brooklyn 2019 NEW HDCAM x264-ETRG torrent
Hustlers 2019 NEW HDTS x264 AC3-ETRG torrent
Ford v Ferrari 2019 NEW HDCAM X264-ETRG torrent
Charlies Angels 2019 NEW HD-TS  x264-ETRG torrent

ETTV Recommended Foreign
Devadas (2018) 720p UNCUT HDRip x264 Eng Subs [Dual Audio] [Hindi DD 2.0 - Telugu 5.1] Exclusive By -=!Dr.STAR!=- torrent
Dream Girl.2019.Hindi.1080p.WEB-DL.x264.AAC -DDR[EtHD] torrent
Dora And The Lost City Of Gold (2019)[720p BDRip - Original Auds - [Tamil + Telugu + Hin + Eng] - x264 - 1GB - ESubs] torrent
Doorbeen (2019) Punjabi 720p HDRip x264 AAC ESubs - Downloadhub torrent


Download Torrent "Fast & Furious (2009)Mp-4 X264 1080p AAC[DSD]"

IMDB Details
Description:

Brian O'Conner, back working for the FBI in Los Angeles, teams up with Dominic Toretto to bring down a heroin importer by infiltrating his operation.

Genre:

Action, Adventure, Thriller

Download Torrent (Magnet)
Download Torrent (File)
Seeds: 12
Leechers: 8
Completed: 43 
Last Checked: 26-09-2019 15:24:52


Details
Title:Fast & Furious (2009)Mp-4 X264 1080p AAC[DSD]
Description:
Seedboxed!!

Original Quality!




General

Complete name                            : FAST_&_FURIOUS 4.mp4

Format                                   : MPEG-4

Format profile                           : Base Media / Version 2

Codec ID                                 : mp42 (mp42/isom/avc1)

File size                                : 1.68 GiB

Duration                                 : 1 h 46 min

Overall bit rate mode                    : Variable

Overall bit rate                         : 2 248 kb/s

Movie name                               : Approved for Adoption

Performer                                : Laurent Boileau & Jung

Performer/Sorted by                      : Laurent Boileau & Jung

Genre                                    : Documentary & Animation & Family

Description                              : This remarkable animated documentary traces the unconventional upbringing of the filmmaker Jung Henin, one of thousands of Korean children adopted by Western families after the end of the Korean War. It is the story of a boy stranded between two cultures. Animated vignettes – some humorous and some poetic – track Jung from the day he first meet his new blond siblings, through elementary school, and into his teenage years, when his emerging sense of identity begins to create fissures at home and ignite the latent biases of his adoptive parents. The filmmaker tells his story using his own animation intercut with snippets of super-8 family footage and archival film. The result is an animated memoir like no other: clear-eyed and unflinching, humorous, and above all, inspiring in the capacity of the human heart.

Encoded date                             : UTC 2019-09-25 19:39:54

Tagged date                              : UTC 2019-09-26 03:10:35

Writing application                      : DVDFab 11.0.5.2

Cover                                    : Yes

Title/Sort                               : Approved for Adoption

LongDescription                          : This remarkable animated documentary traces the unconventional upbringing of the filmmaker Jung Henin, one of thousands of Korean children adopted by Western families after the end of the Korean War. It is the story of a boy stranded between two cultures. Animated vignettes – some humorous and some poetic – track Jung from the day he first meet his new blond siblings, through elementary school, and into his teenage years, when his emerging sense of identity begins to create fissures at home and ignite the latent biases of his adoptive parents. The filmmaker tells his story using his own animation intercut with snippets of super-8 family footage and archival film. The result is an animated memoir like no other: clear-eyed and unflinching, humorous, and above all, inspiring in the capacity of the human heart.


Video

ID                                       : 1

Format                                   : AVC

Format/Info                              : Advanced Video Codec

Format profile                           : [email protected]

Format settings                          : CABAC / 2 Ref Frames

Format settings, CABAC                   : Yes

Format settings, RefFrames               : 2 frames

Format settings, GOP                     : M=1, N=24

Codec ID                                 : avc1

Codec ID/Info                            : Advanced Video Coding

Duration                                 : 1 h 46 min

Source duration                          : 1 h 46 min

Bit rate mode                            : Variable

Bit rate                                 : 1 790 kb/s

Maximum bit rate                         : 2 763 kb/s

Width                                    : 1 920 pixels

Height                                   : 800 pixels

Display aspect ratio                     : 2.40:1

Frame rate mode                          : Constant

Frame rate                               : 23.976 (24000/1001) FPS

Color space                              : YUV

Chroma subsampling                       : 4:2:0

Bit depth                                : 8 bits

Scan type                                : Progressive

Bits/(Pixel*Frame)                       : 0.049

Stream size                              : 1.34 GiB (80%)

Source stream size                       : 1.34 GiB (80%)

Encoded date                             : UTC 2019-09-25 19:39:54

Tagged date                              : UTC 2019-09-26 03:10:35

Color primaries                          : BT.709

Transfer characteristics                 : BT.709

Matrix coefficients                      : BT.709

Menus                                    : 4


Audio

ID                                       : 2

Format                                   : AAC

Format/Info                              : Advanced Audio Codec

Format profile                           : LC

Codec ID                                 : mp4a-40-2

Duration                                 : 1 h 46 min

Bit rate mode                            : Variable

Bit rate                                 : 448 kb/s

Maximum bit rate                         : 453 kb/s

Channel(s)                               : 6 channels

Channel positions                        : Front: L C R, Side: L R, LFE

Sampling rate                            : 48.0 kHz

Frame rate                               : 46.875 FPS (1024 SPF)

Compression mode                         : Lossy

Stream size                              : 342 MiB (20%)

Title                                    : English (aac 5.1)

Language                                 : English

Default                                  : Yes

Alternate group                          : 1

Encoded date                             : UTC 2019-09-25 19:39:54

Tagged date                              : UTC 2019-09-26 03:10:35


Text

ID                                       : 3

Format                                   : VobSub

Codec ID                                 : mp4s-E0

Codec ID/Info                            : The same subtitle format used on DVDs

Duration                                 : 1 h 39 min

Bit rate mode                            : Variable

Bit rate                                 : 7 069 b/s

Maximum bit rate                         : 4 249 Mb/s

Stream size                              : 5.01 MiB (0%)

Language                                 : English

Default                                  : Yes

Forced                                   : No

Alternate group                          : 2

Encoded date                             : UTC 2019-09-25 19:39:54


Tagged date                              : UTC 2019-09-26 02:41:02

Category:Movies > HD 1080p
Lang:English  English
Total Size:1.68 GB
Info Hash:777f857fa7034da3cb3c8c28e54b2689409d8e3c
Added By:DaScubaDude
Date Added:26-09-2019 15:24:47

  

Files

File List: 
 File Size
   .theatrical.mp41.68 GB



Loading...
Comments

There are currently no comments. Be the first one to write something !