parasite Avenue 5 Charlies Angels 2019 the outsider Joker 2019 For life S01E02 Parasite 2019 fbi s02e16 ncis s17e16 Hindi new amsterdam homeland s08e02 ford v ferrari 2019 etmovies knives out Prodigal Son S01E15 ncis vikings manifest This IS Us ddr Flash Bad Boys for Life 2020 Birds of Prey (and the Fantabulous Emancipation of One Harley Quinn) 2020 The Outsider S01E07 star wars the rise of skywalker 2019 The Gentlemen 2019 xxx supergirl Frozen II 2019 Bull S04E15 New Amsterdam S02E14 The Flash S06E12 the flash ettv Manifest S02E07 fbi Doctor Who Legends of Tomorrow jumanji ethd this is us s04e14 DCs Legends of Tomorrow S05E05 the resident s03e15 star wars 0 homeland 21 bridges 2019 bull rq.mp4 knives out 2019 the good doctor Outlander S05E01 etrg WWE Underwater 2020 Midway 2019 evo 1917 2019 Dolittle 2020 Sonic the Hedgehog 2020 terminator dark fate 2019 Project Blue Book S02E05 FBI Most Wanted S01E06 batwoman yts the good doctor s03e15 fantasy island 2020 picard Jumanji The Next Level 2019 Star Trek Picard S01E04 
Warning! Use a V.P.N When Downloading Torrents!
Your IP Address is 3.214.224.224. Location is United States
Your Internet Provider is tracking your torrent activity! Hide your IP ADDRESS with a V.P.N!
We strongly recommend using ExpressV.P.N to anonymize your torrenting. 30 Day Money Back Guarantee!
Try it Now!
ETTV Recommended TV Shows
The.Goldbergs.2013.S07E15.HDTV.x264-SVA[ettv] torrent
Modern.Family.S11E14.HDTV.x264-SVA[ettv] torrent
The.Magicians.US.S05E07.WEB.H264-XLF[ettv] torrent
Criminal.Minds.S15E10.HDTV.x264-SVA[ettv] torrent

ETTV Recommended SD
A.Prayer.For.The.Damned.2019.HDRip.XviD.AC3-EVO torrent
Clown.Fear.2020.HDRip.XviD.AC3-EVO torrent
The.Dustwalker.2020.HDRip.XviD.AC3-EVO torrent
Villains.2019.BRRip.XviD.AC3-EVO torrent

ETTV Recommended HD
Dark.Waters.2019.1080p.Bluray.DTS-HD.MA.5.1.X264-EVO[EtHD] torrent
8.A.South.African.Horror.Story.2019.1080p.WEB-DL.H264.AC3-EVO[EtHD] torrent
Queen.and.Slim.2019.1080p.Bluray.Atmos.TrueHD.7.1.x264-EVO[EtHD] torrent
Radioflash.2019.1080p.Bluray.DTS-HD.MA.5.1.X264-EVO[EtHD] torrent

ETTV Recommended UHD
Frozen.II.2019.2160p.UHD.BluRay.x265-TERMiNAL torrent
Rogue.One.A.Star Wars Story 2016.4K.HDR.2160p.WEBDL Ita Eng x265-NAHOM torrent
Abominable.2019.4K.HDR.2160p.BDRip Ita Eng x265-NAHOM torrent
Star.Wars.The.Last.Jedi.2017.BDRip.UHD.HDR.Eng.Spa.TrueHD.ETRG torrent

ETTV Recommended Cam
Fantasy Island 2020 HDCAM x264-ETRG torrent
The Photograph 2020 720p HDCAM-C1NEM4 torrent
Emma 2020 720p HDCAM-C1NEM4 torrent
Sonic the Hedgehog.2020.READNFO.HDCAM.x264-ETRG torrent

ETTV Recommended Foreign
Valhalla.2019.NORDiC.1080p.WEB-DL.H.264-RAPiDCOWS[EtHD] torrent
Liberation.2019.HDRip.1080p.x264.AAC.Mandarin.HC.CHI-ENG.Mp4Ba torrent
Ringu 1998.4K.REMASTERED.BDRip 1080p Ita Jap x265-NAHOM torrent
Harry Potter 2001-2012 Octalogy Collection 720p BluRay x264 Hindi 2.0/5.1 - English 5.1 ESub - MoviePirate - Telly torrent


Download Torrent "Stand by Me (1986) (1080p BluRay x265 HEVC 10bit AAC 7.1 Joy) [UTR]"

IMDB Details
Description:

After the death of one of his friends, a writer recounts a boyhood journey with his friends to find the body of a missing boy.

Genre:

Adventure, Drama

Download Torrent (Magnet)
Download Torrent (File)
Seeds: 98
Leechers: 24
Completed: 1,147 
Last Checked: 02-10-2019 17:13:35


Loading...
Details
Title:Stand by Me (1986) (1080p BluRay x265 HEVC 10bit AAC 7.1 Joy) [UTR]
Description:



Media Information

General
Format                                   : Matroska
Format version                           : Version 4 / Version 2
File size                                : 1.23 GiB
Duration                                 : 1 h 28 min
Overall bit rate                         : 1 994 kb/s
Movie name                               : Stand by Me 1986  (1080p x265 10bit FS60 Joy) [UTR]
Encoded date                             : UTC 2019-10-02 01:19:54
Writing application                      : mkvmerge v32.0.0 ('Astral Progressions') 64-bit
Writing library                          : libebml v1.3.7 + libmatroska v1.5.0
Cover                                    : Yes
Attachments                              : cover.jpg
Writing frontend                         : StaxRip v2.0.2.0, Encoded by JoyBell

Video
ID                                       : 1
Format                                   : HEVC
Format/Info                              : High Efficiency Video Coding
Format profile                           : Main [email protected]@Main
Codec ID                                 : V_MPEGH/ISO/HEVC
Duration                                 : 1 h 28 min
Bit rate                                 : 1 500 kb/s
Width                                    : 1 920 pixels
Height                                   : 1 040 pixels
Display aspect ratio                     : 1.85:1
Frame rate mode                          : Constant
Frame rate                               : 23.976 (24000/1001) FPS
Color space                              : YUV
Chroma subsampling                       : 4:2:0
Bit depth                                : 10 bits
Bits/(Pixel*Frame)                       : 0.031
Stream size                              : 950 MiB (75%)
Writing library                          : x265 3.0_Au+24-4217e691387c:[Windows][GCC 9.1.1][64 bit] 10bit
Encoding settings                        : rc=abr / bitrate=1500 / qcomp=0.60 / qpstep=4 / stats-write=0 / stats-read=2 / cplxblur=20.0 / qblur=0.5 / qpmax=69 / qpmin=0 / no-lossless / no-cu-lossless / no-hevc-aq / no-aq-motion / aq-mode=2 / aq-strength=0.80 / cbqpoffs=0 / crqpoffs=0 / ipratio=1.40 / pbratio=1.30 / psy-rd=0.00 / psy-rdoq=1.00 / deblock=0:0 / ref=4 / limit-refs=3 / limit-modes / bframes=8 / b-adapt=2 / bframe-bias=20 / b-pyramid / no-b-intra / weightp / no-weightb / keyint=250 / min-keyint=23 / rc-lookahead=120 / gop-lookahead=0 / scenecut=40 / scenecut-bias=0.05 / ctu=64 / min-cu-size=8 / me=3 / subme=5 / merange=57 / rd=4 / no-rd-refine / ssim-rd / dynamic-rd=0.00 / rdoq-level=2 / rdpenalty=0 / cutree / sao / limit-sao / no-sao-non-deblock / no-rect / no-amp / open-gop / max-tu-size=32 / tu-inter-depth=1 / tu-intra-depth=1 / limit-tu=0 / qg-size=32 / wpp / no-pmode / no-pme / no-psnr / ssim / no-tskip / constrained-intra / strong-intra-smoothing / max-merge=5 / nr-intra=0 / nr-inter=0 / input-csp=1 / input-res=1920x1040 / interlace=0 / total-frames=127416 / level-idc=0 / high-tier=1cpuid=1111039 / frame-threads=3 / numa-pools=12 / log-level=2 / uhd-bd=0 / lookahead-slices=4 / radl=0 / no-splice / no-intra-refresh / signhide / temporal-mvp / no-analyze-src-pics / no-early-skip / rskip / no-fast-intra / no-tskip-fast / no-splitrd-skip / zone-count=0 / no-strict-cbr / no-rc-grain / no-const-vbv / no-allow-non-conformance / no-repeat-headers / annexb / no-aud / no-hrd / info / hash=0 / no-temporal-layers / sar=0 / overscan=0 / videoformat=5 / range=0 / colorprim=2 / transfer=2 / colormatrix=1 / chromaloc=0 / display-window=0 / max-cll=0,0 / min-luma=0 / max-luma=1023 / log2-max-poc-lsb=8 / vui-timing-info / vui-hrd-info / slices=1 / no-opt-qp-pps / no-opt-ref-list-length-pps / multi-pass-opt-rps / no-opt-cu-delta-qp / no-hdr / no-hdr-opt / no-dhdr10-opt / no-idr-recovery-sei / analysis-reuse-level=10 / scale-factor=0 / refine-intra=0 / refine-inter=0 / refine-mv=0 / refine-ctu-distortion=0 / ctu-info=0 / no-lowpass-dct / refine-analysis-type=0 / copy-pic=1 / max-ausize-factor=1.0 / no-dynamic-refine / no-single-sei / no-svt / qp-adaptation-range=1.00
Default                                  : Yes
Forced                                   : No
Color range                              : Limited
Matrix coefficients                      : BT.709

Audio
ID                                       : 2
Format                                   : AAC
Format/Info                              : Advanced Audio Codec
Format profile                           : LC
Codec ID                                 : A_AAC
Duration                                 : 1 h 28 min
Bit rate                                 : 297 kb/s
Channel(s)                               : 8 channels
Channel positions                        : Front: L C R, Side: L R, Back: L R, LFE
Sampling rate                            : 48.0 kHz
Frame rate                               : 46.875 FPS (1024 spf)
Compression mode                         : Lossy
Delay relative to video                  : 9 ms
Stream size                              : 188 MiB (15%)
Language                                 : English
Default                                  : No
Forced                                   : No

Subtitle #1
ID                                       : 3
Format                                   : UTF-8
Codec ID                                 : S_TEXT/UTF8
Codec ID/Info                            : UTF-8 Plain Text
Duration                                 : 1 h 26 min
Bit rate                                 : 72 b/s
Count of elements                        : 1326
Stream size                              : 46.4 KiB (0%)
Language                                 : English
Default                                  : No
Forced                                   : No

Subtitle #2
ID                                       : 4
Format                                   : VobSub
Muxing mode                              : zlib
Codec ID                                 : S_VOBSUB
Codec ID/Info                            : Picture based subtitle format used on DVDs
Duration                                 : 1 h 21 min
Bit rate                                 : 12.5 kb/s
Count of elements                        : 1223
Stream size                              : 7.30 MiB (1%)
Language                                 : English
Default                                  : No
Forced                                   : No

Subtitle #3
ID                                       : 5
Format                                   : VobSub
Muxing mode                              : zlib
Codec ID                                 : S_VOBSUB
Codec ID/Info                            : Picture based subtitle format used on DVDs
Duration                                 : 1 h 27 min
Bit rate                                 : 13.7 kb/s
Count of elements                        : 1446
Stream size                              : 8.57 MiB (1%)
Language                                 : English
Default                                  : No
Forced                                   : No

Subtitle #4
ID                                       : 6
Format                                   : VobSub
Muxing mode                              : zlib
Codec ID                                 : S_VOBSUB
Codec ID/Info                            : Picture based subtitle format used on DVDs
Duration                                 : 1 h 21 min
Bit rate                                 : 12.5 kb/s
Count of elements                        : 1223
Stream size                              : 7.30 MiB (1%)
Language                                 : English
Default                                  : No
Forced                                   : No

Subtitle #5
ID                                       : 7
Format                                   : VobSub
Muxing mode                              : zlib
Codec ID                                 : S_VOBSUB
Codec ID/Info                            : Picture based subtitle format used on DVDs
Duration                                 : 1 h 27 min
Bit rate                                 : 13.7 kb/s
Count of elements                        : 1446
Stream size                              : 8.57 MiB (1%)
Language                                 : English
Default                                  : No
Forced                                   : No

Subtitle #6
ID                                       : 8
Format                                   : VobSub
Muxing mode                              : zlib
Codec ID                                 : S_VOBSUB
Codec ID/Info                            : Picture based subtitle format used on DVDs
Duration                                 : 1 h 22 min
Bit rate                                 : 5 767 b/s
Count of elements                        : 1095
Stream size                              : 3.42 MiB (0%)
Language                                 : Arabic
Default                                  : No
Forced                                   : No

Subtitle #7
ID                                       : 9
Format                                   : VobSub
Muxing mode                              : zlib
Codec ID                                 : S_VOBSUB
Codec ID/Info                            : Picture based subtitle format used on DVDs
Duration                                 : 1 h 22 min
Bit rate                                 : 8 515 b/s
Count of elements                        : 1153
Stream size                              : 5.05 MiB (0%)
Language                                 : Chinese
Default                                  : No
Forced                                   : No

Subtitle #8
ID                                       : 10
Format                                   : VobSub
Muxing mode                              : zlib
Codec ID                                 : S_VOBSUB
Codec ID/Info                            : Picture based subtitle format used on DVDs
Duration                                 : 1 h 22 min
Bit rate                                 : 9 494 b/s
Count of elements                        : 1152
Stream size                              : 5.63 MiB (0%)
Language                                 : Croatian
Default                                  : No
Forced                                   : No

Subtitle #9
ID                                       : 11
Format                                   : VobSub
Muxing mode                              : zlib
Codec ID                                 : S_VOBSUB
Codec ID/Info                            : Picture based subtitle format used on DVDs
Duration                                 : 1 h 22 min
Bit rate                                 : 9 355 b/s
Count of elements                        : 1091
Stream size                              : 5.55 MiB (0%)
Language                                 : Czech
Default                                  : No
Forced                                   : No

Subtitle #10
ID                                       : 12
Format                                   : VobSub
Muxing mode                              : zlib
Codec ID                                 : S_VOBSUB
Codec ID/Info                            : Picture based subtitle format used on DVDs
Duration                                 : 1 h 22 min
Bit rate                                 : 10.5 kb/s
Count of elements                        : 1077
Stream size                              : 6.21 MiB (0%)
Language                                 : Danish
Default                                  : No
Forced                                   : No

Subtitle #11
ID                                       : 13
Format                                   : VobSub
Muxing mode                              : zlib
Codec ID                                 : S_VOBSUB
Codec ID/Info                            : Picture based subtitle format used on DVDs
Duration                                 : 1 h 22 min
Bit rate                                 : 10.6 kb/s
Count of elements                        : 1077
Stream size                              : 6.30 MiB (0%)
Language                                 : Dutch
Default                                  : No
Forced                                   : No

Subtitle #12
ID                                       : 14
Format                                   : VobSub
Muxing mode                              : zlib
Codec ID                                 : S_VOBSUB
Codec ID/Info                            : Picture based subtitle format used on DVDs
Duration                                 : 1 h 22 min
Bit rate                                 : 9 086 b/s
Count of elements                        : 1062
Stream size                              : 5.39 MiB (0%)
Language                                 : Finnish
Default                                  : No
Forced                                   : No

Subtitle #13
ID                                       : 15
Format                                   : VobSub
Muxing mode                              : zlib
Codec ID                                 : S_VOBSUB
Codec ID/Info                            : Picture based subtitle format used on DVDs
Duration                                 : 1 h 27 min
Bit rate                                 : 10.3 kb/s
Count of elements                        : 1093
Stream size                              : 6.45 MiB (1%)
Language                                 : French
Default                                  : No
Forced                                   : No

Subtitle #14
ID                                       : 16
Format                                   : VobSub
Muxing mode                              : zlib
Codec ID                                 : S_VOBSUB
Codec ID/Info                            : Picture based subtitle format used on DVDs
Duration                                 : 1 h 9 min
Bit rate                                 : 112 b/s
Count of elements                        : 9
Stream size                              : 57.1 KiB (0%)
Language                                 : French
Default                                  : No
Forced                                   : No

Subtitle #15
ID                                       : 17
Format                                   : VobSub
Muxing mode                              : zlib
Codec ID                                 : S_VOBSUB
Codec ID/Info                            : Picture based subtitle format used on DVDs
Duration                                 : 1 h 22 min
Bit rate                                 : 12.9 kb/s
Count of elements                        : 1094
Stream size                              : 7.63 MiB (1%)
Language                                 : German
Default                                  : No
Forced                                   : No

Subtitle #16
ID                                       : 18
Format                                   : VobSub
Muxing mode                              : zlib
Codec ID                                 : S_VOBSUB
Codec ID/Info                            : Picture based subtitle format used on DVDs
Duration                                 : 27 min 26 s
Bit rate                                 : 49 b/s
Count of elements                        : 2
Stream size                              : 10.0 KiB (0%)
Language                                 : German
Default                                  : No
Forced                                   : No

Subtitle #17
ID                                       : 19
Format                                   : VobSub
Muxing mode                              : zlib
Codec ID                                 : S_VOBSUB
Codec ID/Info                            : Picture based subtitle format used on DVDs
Duration                                 : 1 h 27 min
Bit rate                                 : 10.2 kb/s
Count of elements                        : 1102
Stream size                              : 6.39 MiB (1%)
Language                                 : Greek
Default                                  : No
Forced                                   : No

Subtitle #18
ID                                       : 20
Format                                   : VobSub
Muxing mode                              : zlib
Codec ID                                 : S_VOBSUB
Codec ID/Info                            : Picture based subtitle format used on DVDs
Duration                                 : 1 h 22 min
Bit rate                                 : 7 117 b/s
Count of elements                        : 1098
Stream size                              : 4.22 MiB (0%)
Language                                 : Hebrew
Default                                  : No
Forced                                   : No

Subtitle #19
ID                                       : 21
Format                                   : VobSub
Muxing mode                              : zlib
Codec ID                                 : S_VOBSUB
Codec ID/Info                            : Picture based subtitle format used on DVDs
Duration                                 : 1 h 22 min
Bit rate                                 : 8 019 b/s
Count of elements                        : 1097
Stream size                              : 4.76 MiB (0%)
Language                                 : Hindi
Default                                  : No
Forced                                   : No

Subtitle #20
ID                                       : 22
Format                                   : VobSub
Muxing mode                              : zlib
Codec ID                                 : S_VOBSUB
Codec ID/Info                            : Picture based subtitle format used on DVDs
Duration                                 : 1 h 22 min
Bit rate                                 : 10.3 kb/s
Count of elements                        : 1080
Stream size                              : 6.12 MiB (0%)
Language                                 : Hungarian
Default                                  : No
Forced                                   : No

Subtitle #21
ID                                       : 23
Format                                   : VobSub
Muxing mode                              : zlib
Codec ID                                 : S_VOBSUB
Codec ID/Info                            : Picture based subtitle format used on DVDs
Duration                                 : 1 h 22 min
Bit rate                                 : 114 b/s
Count of elements                        : 13
Stream size                              : 69.7 KiB (0%)
Language                                 : Hungarian
Default                                  : No
Forced                                   : No

Subtitle #22
ID                                       : 24
Format                                   : VobSub
Muxing mode                              : zlib
Codec ID                                 : S_VOBSUB
Codec ID/Info                            : Picture based subtitle format used on DVDs
Duration                                 : 1 h 22 min
Bit rate                                 : 12.2 kb/s
Count of elements                        : 1151
Stream size                              : 7.22 MiB (1%)
Language                                 : Indonesian
Default                                  : No
Forced                                   : No

Subtitle #23
ID                                       : 25
Format                                   : VobSub
Muxing mode                              : zlib
Codec ID                                 : S_VOBSUB
Codec ID/Info                            : Picture based subtitle format used on DVDs
Duration                                 : 1 h 22 min
Bit rate                                 : 10.1 kb/s
Count of elements                        : 1066
Stream size                              : 6.00 MiB (0%)
Language                                 : Italian
Default                                  : No
Forced                                   : No

Subtitle #24
ID                                       : 26
Format                                   : VobSub
Muxing mode                              : zlib
Codec ID                                 : S_VOBSUB
Codec ID/Info                            : Picture based subtitle format used on DVDs
Duration                                 : 3 s 789 ms
Bit rate                                 : 17.5 kb/s
Count of elements                        : 1
Stream size                              : 8.09 KiB (0%)
Language                                 : Italian
Default                                  : No
Forced                                   : No

Subtitle #25
ID                                       : 27
Format                                   : VobSub
Muxing mode                              : zlib
Codec ID                                 : S_VOBSUB
Codec ID/Info                            : Picture based subtitle format used on DVDs
Duration                                 : 1 h 24 min
Bit rate                                 : 6 518 b/s
Count of elements                        : 1030
Stream size                              : 3.96 MiB (0%)
Language                                 : Japanese
Default                                  : No
Forced                                   : No

Subtitle #26
ID                                       : 28
Format                                   : VobSub
Muxing mode                              : zlib
Codec ID                                 : S_VOBSUB
Codec ID/Info                            : Picture based subtitle format used on DVDs
Duration                                 : 1 h 23 min
Bit rate                                 : 8 115 b/s
Count of elements                        : 1154
Stream size                              : 4.85 MiB (0%)
Language                                 : Korean
Default                                  : No
Forced                                   : No

Subtitle #27
ID                                       : 29
Format                                   : VobSub
Muxing mode                              : zlib
Codec ID                                 : S_VOBSUB
Codec ID/Info                            : Picture based subtitle format used on DVDs
Duration                                 : 1 h 22 min
Bit rate                                 : 10.2 kb/s
Count of elements                        : 1091
Stream size                              : 6.07 MiB (0%)
Language                                 : Norwegian Bokmal
Default                                  : No
Forced                                   : No

Subtitle #28
ID                                       : 30
Format                                   : VobSub
Muxing mode                              : zlib
Codec ID                                 : S_VOBSUB
Codec ID/Info                            : Picture based subtitle format used on DVDs
Duration                                 : 1 h 27 min
Bit rate                                 : 9 688 b/s
Count of elements                        : 1095
Stream size                              : 6.05 MiB (0%)
Language                                 : Polish
Default                                  : No
Forced                                   : No

Subtitle #29
ID                                       : 31
Format                                   : VobSub
Muxing mode                              : zlib
Codec ID                                 : S_VOBSUB
Codec ID/Info                            : Picture based subtitle format used on DVDs
Duration                                 : 1 h 23 min
Bit rate                                 : 11.2 kb/s
Count of elements                        : 1152
Stream size                              : 6.69 MiB (1%)
Language                                 : Portuguese
Default                                  : No
Forced                                   : No

Subtitle #30
ID                                       : 32
Format                                   : VobSub
Muxing mode                              : zlib
Codec ID                                 : S_VOBSUB
Codec ID/Info                            : Picture based subtitle format used on DVDs
Duration                                 : 1 h 27 min
Bit rate                                 : 9 765 b/s
Count of elements                        : 1081
Stream size                              : 6.14 MiB (0%)
Language                                 : Portuguese
Default                                  : No
Forced                                   : No

Subtitle #31
ID                                       : 33
Format                                   : VobSub
Muxing mode                              : zlib
Codec ID                                 : S_VOBSUB
Codec ID/Info                            : Picture based subtitle format used on DVDs
Duration                                 : 1 h 22 min
Bit rate                                 : 10.1 kb/s
Count of elements                        : 1151
Stream size                              : 5.97 MiB (0%)
Language                                 : Slovak
Default                                  : No
Forced                                   : No

Subtitle #32
ID                                       : 34
Format                                   : VobSub
Muxing mode                              : zlib
Codec ID                                 : S_VOBSUB
Codec ID/Info                            : Picture based subtitle format used on DVDs
Duration                                 : 1 h 22 min
Bit rate                                 : 10.1 kb/s
Count of elements                        : 1095
Stream size                              : 6.02 MiB (0%)
Language                                 : Spanish
Default                                  : No
Forced                                   : No

Subtitle #33
ID                                       : 35
Format                                   : VobSub
Muxing mode                              : zlib
Codec ID                                 : S_VOBSUB
Codec ID/Info                            : Picture based subtitle format used on DVDs
Duration                                 : 4 s 42 ms
Bit rate                                 : 31.5 kb/s
Count of elements                        : 2
Stream size                              : 15.5 KiB (0%)
Language                                 : Spanish
Default                                  : No
Forced                                   : No

Subtitle #34
ID                                       : 36
Format                                   : VobSub
Muxing mode                              : zlib
Codec ID                                 : S_VOBSUB
Codec ID/Info                            : Picture based subtitle format used on DVDs
Duration                                 : 1 h 23 min
Bit rate                                 : 11.4 kb/s
Count of elements                        : 1152
Stream size                              : 6.82 MiB (1%)
Language                                 : Spanish
Default                                  : No
Forced                                   : No

Subtitle #35
ID                                       : 37
Format                                   : VobSub
Muxing mode                              : zlib
Codec ID                                 : S_VOBSUB
Codec ID/Info                            : Picture based subtitle format used on DVDs
Duration                                 : 1 h 27 min
Bit rate                                 : 8 156 b/s
Count of elements                        : 1056
Stream size                              : 5.10 MiB (0%)
Language                                 : Swedish
Default                                  : No
Forced                                   : No

Subtitle #36
ID                                       : 38
Format                                   : VobSub
Muxing mode                              : zlib
Codec ID                                 : S_VOBSUB
Codec ID/Info                            : Picture based subtitle format used on DVDs
Duration                                 : 1 h 22 min
Bit rate                                 : 9 699 b/s
Count of elements                        : 1153
Stream size                              : 5.75 MiB (0%)
Language                                 : Thai
Default                                  : No
Forced                                   : No

Subtitle #37
ID                                       : 39
Format                                   : VobSub
Muxing mode                              : zlib
Codec ID                                 : S_VOBSUB
Codec ID/Info                            : Picture based subtitle format used on DVDs
Duration                                 : 1 h 22 min
Bit rate                                 : 11.5 kb/s
Count of elements                        : 1102
Stream size                              : 6.81 MiB (1%)
Language                                 : Turkish
Default                                  : No
Forced                                   : No

Subtitle #38
ID                                       : 40
Format                                   : VobSub
Muxing mode                              : zlib
Codec ID                                 : S_VOBSUB
Codec ID/Info                            : Picture based subtitle format used on DVDs
Duration                                 : 1 h 24 min
Bit rate                                 : 180 b/s
Count of elements                        : 24
Stream size                              : 113 KiB (0%)
Language                                 : Japanese
Default                                  : No
Forced                                   : No

Menu
00:00:00.000                             : en:Chapter 01
00:06:29.889                             : en:Chapter 02
00:14:10.349                             : en:Chapter 03
00:16:57.016                             : en:Chapter 04
00:24:40.645                             : en:Chapter 05
00:31:52.911                             : en:Chapter 06
00:36:31.522                             : en:Chapter 07
00:42:05.314                             : en:Chapter 08
00:52:43.451                             : en:Chapter 09
00:59:29.941                             : en:Chapter 10
01:03:13.456                             : en:Chapter 11
01:07:35.676                             : en:Chapter 12
01:09:55.816                             : en:Chapter 13
01:14:19.496                             : en:Chapter 14
01:19:13.999                             : en:Chapter 15
01:22:19.684                             : en:Chapter 16



Source InformationRelease: Stand.by.Me.1986.2160p.BluRay.REMUX.HEVC.DTS-HD.MA.TrueHD.7.1.Atmos-FGT.mkv (50.32 GBs)



Note From UTR
Whilst we are happy for our releases to be re-posted on a platform we aren't on, please do so in an 'as-is' format. We ask that you do not create a new torrent, include all descriptions you see above including the UTR logo, tags, notes and screenshots. If you'd like to become a permanent poster on a website we don't post to, feel free to get in contact with a UTR member.
If possible please donate: BTC 1QA5fum5AyXvWzdVCkQzUNvw3Ef15fHRaR



Category:Movies > HEVC/x265
Lang:English  English
Total Size:1.23 GB
Info Hash:a8797018119169903ddb76f8509019096e2871c9
Added By:UTR
Date Added:02-10-2019 17:13:27

Files

File List: 
 File Size
Stand by Me 1986 (1080p x265 10bit FS60 Joy).mkv1.23 GB



Loading...
Comments

There are currently no comments. Be the first one to write something !