ncis ethd joker 2019 the rookie AD ASTRA the lion king 2019 ddr mr robot s04e02 Power the rookie s02e03 ballers s05e08 family guy angel has fallen 2019 stuber 2019 joker anna 2019 batwoman south park the walking dead avengers endgame 2019 supergirl s05e02 crawl 2019 the walking dead s10e01 yts spider man far from home 2019 The Flash titans s02e06 fast furious presents hobbs shaw 2019 Nascar aladdin 2019 supergirl rambo last blood 2019 el camino a breaking bad movie 2019 Batwoman s01e02 gemini man 2019 formula 1 浆果儿 godfather of harlem s01e03 the addams family None the walking dead s10e02 evo ncis los angeles s11e03 walking dead el camino 0 family guy s18e03 Last Week Tonight mr robot ettv scary stories to tell in the dark 2019 succession s02e10 ready or not 2019 zombieland double tap 2019 the lion king titans it chapter two 2019 hustlers 2019 etrg once upon a time in hollywood 2019 toy story 4 2019 madam secretary s06e02 HINDI power s06e07 xxx Once Upon a Time in Hollywood power s06e08 ballers the irishman 2019 succession etmovies proper 
Warning! Use a VPN,When Downloading Torrents!
Your IP Address is 3.227.2.109. Location is United States
Your Internet Provider is tracking your torrent activity! Hide your IP ADDRESS with a VPN!
We strongly recommend using ExpressVPN to anonymize your torrenting. 30 Day Money Back Guarantee!
Try it Now!
ETTV Recommended TV Shows
Prodigal.Son.S01E04.HDTV.x264-KILLERS[ettv] torrent
9-1-1.S03E04.PROPER.WEB.x264-TBS[ettv] torrent
The.Good.Doctor.S03E04.HDTV.x264-SVA[ettv] torrent
WWE Monday Night Raw 2019 10 14 HDTV x264-NWCHD [TJET] torrent
All.Rise.S01E04.HDTV.x264-KILLERS[ettv] torrent
Bull.2016.S04E04.HDTV.x264-BATV[ettv] torrent
Black.Lightning.S03E02.HDTV.x264-KILLERS[ettv] torrent
The.Deuce.S03E06.WEB.h264-TBS[ettv] torrent

ETTV Recommended SD
American Hunt.2019.HDRip.XviD.AC3-EVO torrent
Pig.Hag.2019.HDRip.XviD.AC3-EVO torrent
The.Drone.2019.HDRip.XviD.AC3-EVO torrent
100.Acres.Of.Hell.2019.HDRip.XviD.AC3-EVO torrent

ETTV Recommended HD
Crawl.2019.MULTi.BluRay.1080p.DTS-HD.MA.7.1.HEVC-DDR[EtHD] torrent
Shadow.Wolves.2019.1080p.Blu-ray.DTS-HD.MA.5.1.HEVC-DDR[EtHD] torrent
Pig.Hag.2019.1080p.WEB-DL.H264.AC3-EVO[EtHD] torrent
Satanic.Panic.2019.1080p.BluRay.x264-ROVERS[EtHD] torrent

ETTV Recommended UHD
Scarface.1983.MULTi.UHD.Blu-ray.2160p.HDR.DTS-X.7.1.HEVC-DDR torrent
Hellboy 2004.MULTi.UHD.Blu-ray.2160p.HDR.Atmos.7.1.HEVC-DDR torrent
The.Death.and.Return.of.Superman.2019.MULTi.UHD.Blu-ray.2160p.HDR.DTS-HDMA.5.1.HEVC-DDR torrent
American.Gangster.2007.MULTi.UHD.Blu-ray.2160p.HDR.DTS-X.7.1.HEVC.DDR torrent

ETTV Recommended Cam
Zombieland Double Tap 2019 720p HDCAM-GETB8 torrent
The Addams Family 2019 720p HDCAM-GETB8 torrent
Dora and the Lost City of Gold 2019 720p NEW HDCAM-GETB8 torrent
Joker.2019.HDTS.x264.AC3-ETRG torrent

ETTV Recommended Foreign
War.2019.Hindi.1CD.Pre.Rip.XviD.MP3.Multi.SuB.DusIcTv torrent
La.camarista.2018.REPACK.1080p.AMZN.WEB-DL.DDP5.1.H.264-NTG[EtHD] torrent
Little Monsters (2019) 720p HDRip [Hindi-Dub] Dul-Audio x264 1XBET - KatmovieHD torrent
Asterix And Obelix Mansion Of The Gods (2014) x264 720p UNCUT BluRay [Hindi ORG DD 2.0 + ENG 2.0] Exclusive By DREDD torrent


Download Torrent "Inside Out (2015) (1080p BluRay x265 HEVC 10bit AAC 7.1 Joy) REPACKED [UTR]"

IMDB Details
Description:

After young Riley is uprooted from her Midwest life and moved to San Francisco, her emotions - Joy, Fear, Anger, Disgust and Sadness - conflict on how best to navigate a new city, house, and school.

Genre:

Animation, Adventure, Comedy, Drama, Family, Fantasy

Download Torrent (Magnet)
Download Torrent (File)
Seeds: 75
Leechers: 37
Completed: 692 
Last Checked: 03-10-2019 20:17:04


Loading...
Details
Title:Inside Out (2015) (1080p BluRay x265 HEVC 10bit AAC 7.1 Joy) REPACKED [UTR]
Description:




Media Information

General
Format                                   : Matroska
Format version                           : Version 4 / Version 2
File size                                : 1.27 GiB
Duration                                 : 1 h 34 min
Overall bit rate                         : 1 927 kb/s
Movie name                               : Inside Out 2015  (1080p x265 10bit S85 Joy) [UTR]
Encoded date                             : UTC 2019-09-24 18:17:14
Writing application                      : mkvmerge v32.0.0 ('Astral Progressions') 64-bit
Writing library                          : libebml v1.3.7 + libmatroska v1.5.0
Cover                                    : Yes
Attachments                              : cover.jpg
Writing frontend                         : StaxRip v2.0.2.0, Encoded by JoyBell

Video
ID                                       : 1
Format                                   : HEVC
Format/Info                              : High Efficiency Video Coding
Format profile                           : Main [email protected]@Main
Codec ID                                 : V_MPEGH/ISO/HEVC
Duration                                 : 1 h 34 min
Bit rate                                 : 1 501 kb/s
Width                                    : 1 920 pixels
Height                                   : 1 080 pixels
Display aspect ratio                     : 16:9
Frame rate mode                          : Constant
Frame rate                               : 23.976 (24000/1001) FPS
Color space                              : YUV
Chroma subsampling                       : 4:2:0
Bit depth                                : 10 bits
Bits/(Pixel*Frame)                       : 0.030
Stream size                              : 1 016 MiB (78%)
Writing library                          : x265 3.1.2+1-76650bab70f9:[Windows][MSVC 1922][64 bit] 10bit
Encoding settings                        : cpuid=1111039 / frame-threads=4 / numa-pools=16 / wpp / no-pmode / no-pme / no-psnr / ssim / log-level=2 / input-csp=1 / input-res=1920x1080 / interlace=0 / total-frames=136176 / level-idc=0 / high-tier=1 / uhd-bd=0 / ref=4 / no-allow-non-conformance / no-repeat-headers / annexb / no-aud / no-hrd / info / hash=0 / no-temporal-layers / open-gop / min-keyint=23 / keyint=250 / gop-lookahead=0 / bframes=8 / b-adapt=2 / b-pyramid / bframe-bias=40 / rc-lookahead=80 / lookahead-slices=4 / scenecut=40 / radl=0 / no-splice / no-intra-refresh / ctu=64 / min-cu-size=8 / rect / no-amp / max-tu-size=32 / tu-inter-depth=1 / tu-intra-depth=1 / limit-tu=0 / rdoq-level=2 / dynamic-rd=0.00 / ssim-rd / signhide / no-tskip / nr-intra=0 / nr-inter=0 / constrained-intra / strong-intra-smoothing / max-merge=5 / limit-refs=3 / limit-modes / me=3 / subme=5 / merange=57 / temporal-mvp / weightp / no-weightb / no-analyze-src-pics / deblock=0:0 / sao / no-sao-non-deblock / rd=4 / early-skip / rskip / no-fast-intra / no-tskip-fast / no-cu-lossless / no-b-intra / splitrd-skip / rdpenalty=0 / psy-rd=0.00 / psy-rdoq=1.00 / no-rd-refine / no-lossless / cbqpoffs=0 / crqpoffs=0 / rc=abr / bitrate=1500 / qcomp=0.50 / qpstep=4 / stats-write=0 / stats-read=2 / cplxblur=20.0 / qblur=0.5 / ipratio=1.40 / pbratio=1.30 / aq-mode=3 / aq-strength=0.80 / cutree / zone-count=0 / no-strict-cbr / qg-size=32 / no-rc-grain / qpmax=69 / qpmin=0 / no-const-vbv / sar=0 / overscan=0 / videoformat=5 / range=0 / colorprim=2 / transfer=2 / colormatrix=2 / chromaloc=0 / display-window=0cll=0,0 / min-luma=0 / max-luma=1023 / log2-max-poc-lsb=8 / vui-timing-info / vui-hrd-info / slices=1 / no-opt-qp-pps / no-opt-ref-list-length-pps / multi-pass-opt-rps / scenecut-bias=0.05 / no-opt-cu-delta-qp / no-aq-motion / no-hdr / no-hdr-opt / no-dhdr10-opt / no-idr-recovery-sei / analysis-reuse-level=10 / scale-factor=0 / refine-intra=0 / refine-inter=0 / refine-mv=0 / refine-ctu-distortion=0 / limit-sao / ctu-info=0 / no-lowpass-dct / refine-analysis-type=0 / copy-pic=1 / max-ausize-factor=1.0 / no-dynamic-refine / no-single-sei / no-hevc-aq / no-svt / no-field / qp-adaptation-range=1.00
Default                                  : Yes
Forced                                   : No

Audio #1
ID                                       : 2
Format                                   : AAC
Format/Info                              : Advanced Audio Codec
Format profile                           : LC
Codec ID                                 : A_AAC
Duration                                 : 1 h 34 min
Bit rate                                 : 306 kb/s
Channel(s)                               : 8 channels
Channel positions                        : Front: L C R, Side: L R, Back: L R, LFE
Sampling rate                            : 48.0 kHz
Frame rate                               : 46.875 FPS (1024 spf)
Compression mode                         : Lossy
Delay relative to video                  : 9 ms
Stream size                              : 207 MiB (16%)
Language                                 : English
Default                                  : No
Forced                                   : No

Audio #2
ID                                       : 10
Format                                   : AAC
Format/Info                              : Advanced Audio Codec
Format profile                           : HE-AAC / LC
Codec ID                                 : A_AAC
Duration                                 : 1 h 34 min
Bit rate                                 : 48.0 kb/s
Channel(s)                               : 2 channels
Channel positions                        : Front: L R
Sampling rate                            : 48.0 kHz / 24.0 kHz
Frame rate                               : 23.438 FPS (1024 spf)
Compression mode                         : Lossy
Delay relative to video                  : 31 ms
Stream size                              : 31.7 MiB (2%)
Title                                    : Dirrectors Commentary
Language                                 : English
Default                                  : No
Forced                                   : No

Subtitle #1
ID                                       : 3
Format                                   : PGS
Muxing mode                              : zlib
Codec ID                                 : S_HDMV/PGS
Codec ID/Info                            : Picture based subtitle format used on BDs/HD-DVDs
Duration                                 : 1 h 27 min
Bit rate                                 : 57.1 kb/s
Count of elements                        : 3690
Stream size                              : 35.7 MiB (3%)
Language                                 : English
Default                                  : No
Forced                                   : No

Subtitle #2
ID                                       : 4
Format                                   : UTF-8
Codec ID                                 : S_TEXT/UTF8
Codec ID/Info                            : UTF-8 Plain Text
Duration                                 : 1 h 26 min
Bit rate                                 : 76 b/s
Count of elements                        : 1633
Stream size                              : 48.8 KiB (0%)
Language                                 : English
Default                                  : No
Forced                                   : No

Subtitle #3
ID                                       : 5
Format                                   : VobSub
Muxing mode                              : zlib
Codec ID                                 : S_VOBSUB
Codec ID/Info                            : Picture based subtitle format used on DVDs
Duration                                 : 1 h 26 min
Bit rate                                 : 12.4 kb/s
Count of elements                        : 1267
Stream size                              : 7.70 MiB (1%)
Language                                 : French
Default                                  : No
Forced                                   : No

Subtitle #4
ID                                       : 6
Format                                   : VobSub
Muxing mode                              : zlib
Codec ID                                 : S_VOBSUB
Codec ID/Info                            : Picture based subtitle format used on DVDs
Duration                                 : 1 h 26 min
Bit rate                                 : 12.6 kb/s
Count of elements                        : 1248
Stream size                              : 7.84 MiB (1%)
Language                                 : Spanish
Default                                  : No
Forced                                   : No

Subtitle #5
ID                                       : 7
Format                                   : VobSub
Muxing mode                              : zlib
Codec ID                                 : S_VOBSUB
Codec ID/Info                            : Picture based subtitle format used on DVDs
Duration                                 : 1 h 30 min
Bit rate                                 : 22.3 kb/s
Count of elements                        : 1862
Stream size                              : 14.4 MiB (1%)
Title                                    : Commentary
Language                                 : English
Default                                  : No
Forced                                   : No

Subtitle #6
ID                                       : 8
Format                                   : VobSub
Muxing mode                              : zlib
Codec ID                                 : S_VOBSUB
Codec ID/Info                            : Picture based subtitle format used on DVDs
Duration                                 : 1 h 30 min
Bit rate                                 : 19.8 kb/s
Count of elements                        : 1862
Stream size                              : 12.8 MiB (1%)
Title                                    : Commentary
Language                                 : French
Default                                  : No
Forced                                   : No

Subtitle #7
ID                                       : 9
Format                                   : VobSub
Muxing mode                              : zlib
Codec ID                                 : S_VOBSUB
Codec ID/Info                            : Picture based subtitle format used on DVDs
Duration                                 : 1 h 30 min
Bit rate                                 : 19.8 kb/s
Count of elements                        : 1862
Stream size                              : 12.8 MiB (1%)
Title                                    : Commentary
Language                                 : Spanish
Default                                  : No
Forced                                   : No

Subtitle #8
ID                                       : 11
Format                                   : UTF-8
Codec ID                                 : S_TEXT/UTF8
Codec ID/Info                            : UTF-8 Plain Text
Duration                                 : 1 h 33 min
Bit rate                                 : 121 b/s
Count of elements                        : 1275
Stream size                              : 83.7 KiB (0%)
Language                                 : Arabic
Default                                  : No
Forced                                   : No

Subtitle #9
ID                                       : 12
Format                                   : UTF-8
Codec ID                                 : S_TEXT/UTF8
Codec ID/Info                            : UTF-8 Plain Text
Duration                                 : 1 h 27 min
Bit rate                                 : 65 b/s
Count of elements                        : 1098
Stream size                              : 41.6 KiB (0%)
Language                                 : Danish
Default                                  : No
Forced                                   : No

Subtitle #10
ID                                       : 13
Format                                   : UTF-8
Codec ID                                 : S_TEXT/UTF8
Codec ID/Info                            : UTF-8 Plain Text
Duration                                 : 1 h 26 min
Bit rate                                 : 61 b/s
Count of elements                        : 1001
Stream size                              : 39.5 KiB (0%)
Language                                 : Dutch
Default                                  : No
Forced                                   : No

Subtitle #11
ID                                       : 14
Format                                   : UTF-8
Codec ID                                 : S_TEXT/UTF8
Codec ID/Info                            : UTF-8 Plain Text
Duration                                 : 1 h 27 min
Bit rate                                 : 121 b/s
Count of elements                        : 1361
Stream size                              : 77.9 KiB (0%)
Language                                 : Persian
Default                                  : No
Forced                                   : No

Subtitle #12
ID                                       : 15
Format                                   : UTF-8
Codec ID                                 : S_TEXT/UTF8
Codec ID/Info                            : UTF-8 Plain Text
Duration                                 : 1 h 28 min
Bit rate                                 : 78 b/s
Count of elements                        : 1378
Stream size                              : 51.0 KiB (0%)
Language                                 : Indonesian
Default                                  : No
Forced                                   : No

Subtitle #13
ID                                       : 16
Format                                   : UTF-8
Codec ID                                 : S_TEXT/UTF8
Codec ID/Info                            : UTF-8 Plain Text
Duration                                 : 1 h 28 min
Bit rate                                 : 74 b/s
Count of elements                        : 1360
Stream size                              : 48.3 KiB (0%)
Language                                 : Italian
Default                                  : No
Forced                                   : No

Subtitle #14
ID                                       : 17
Format                                   : UTF-8
Codec ID                                 : S_TEXT/UTF8
Codec ID/Info                            : UTF-8 Plain Text
Duration                                 : 1 h 26 min
Bit rate                                 : 139 b/s
Count of elements                        : 1633
Stream size                              : 88.9 KiB (0%)
Language                                 : Urdu
Default                                  : No
Forced                                   : No

Subtitle #15
ID                                       : 18
Format                                   : UTF-8
Codec ID                                 : S_TEXT/UTF8
Codec ID/Info                            : UTF-8 Plain Text
Duration                                 : 1 h 33 min
Bit rate                                 : 97 b/s
Count of elements                        : 1442
Stream size                              : 67.0 KiB (0%)
Language                                 : Vietnamese
Default                                  : No
Forced                                   : No

Menu
00:00:00.000                             : en:Chapter 01
00:07:22.692                             : en:Chapter 02
00:11:36.404                             : en:Chapter 03
00:15:46.153                             : en:Chapter 04
00:20:01.950                             : en:Chapter 05
00:25:21.061                             : en:Chapter 06
00:26:46.896                             : en:Chapter 07
00:30:10.183                             : en:Chapter 08
00:34:45.792                             : en:Chapter 09
00:36:02.285                             : en:Chapter 10
00:37:45.304                             : en:Chapter 11
00:41:26.984                             : en:Chapter 12
00:43:35.613                             : en:Chapter 13
00:45:19.258                             : en:Chapter 14
00:46:51.725                             : en:Chapter 15
00:50:02.332                             : en:Chapter 16
00:51:34.341                             : en:Chapter 17
00:56:11.868                             : en:Chapter 18
01:00:03.683                             : en:Chapter 19
01:01:17.507                             : en:Chapter 20
01:03:50.368                             : en:Chapter 21
01:06:27.191                             : en:Chapter 22
01:11:15.437                             : en:Chapter 23
01:13:40.541                             : en:Chapter 24
01:15:38.617                             : en:Chapter 25
01:19:59.961                             : en:Chapter 26
01:23:57.198                             : en:Chapter 27
01:26:18.214                             : en:Chapter 28

Source Information
Release:
Inside.Out.2015.2160p.BluRay.REMUX.HEVC.TrueHD.7.1.Atmos-FGT.mkv (36.75 GBs)



Category:Movies > HEVC/x265
Lang:English  English
Total Size:1.27 GB
Info Hash:004c1597029655486a2c17eb823d4eacfca782fe
Added By:UTR
Date Added:03-10-2019 20:17:01

Files

File List: 
 File Size
Inside Out 2015 (1080p x265 10bit S85 Joy).mkv1.27 GB



Loading...
Comments

There are currently no comments. Be the first one to write something !