parasite Avenue 5 Charlies Angels 2019 the outsider Joker 2019 For life S01E02 Parasite 2019 fbi s02e16 ncis s17e16 Hindi new amsterdam homeland s08e02 ford v ferrari 2019 etmovies knives out Prodigal Son S01E15 ncis vikings manifest This IS Us ddr Flash Bad Boys for Life 2020 Birds of Prey (and the Fantabulous Emancipation of One Harley Quinn) 2020 The Outsider S01E07 star wars the rise of skywalker 2019 The Gentlemen 2019 xxx supergirl Frozen II 2019 Bull S04E15 New Amsterdam S02E14 The Flash S06E12 the flash ettv Manifest S02E07 fbi Doctor Who Legends of Tomorrow jumanji ethd this is us s04e14 DCs Legends of Tomorrow S05E05 the resident s03e15 star wars 0 homeland 21 bridges 2019 bull rq.mp4 knives out 2019 the good doctor Outlander S05E01 etrg WWE Underwater 2020 Midway 2019 evo 1917 2019 Dolittle 2020 Sonic the Hedgehog 2020 terminator dark fate 2019 Project Blue Book S02E05 FBI Most Wanted S01E06 batwoman yts the good doctor s03e15 fantasy island 2020 picard Jumanji The Next Level 2019 Star Trek Picard S01E04 
Warning! Use a V.P.N When Downloading Torrents!
Your IP Address is 3.214.224.224. Location is United States
Your Internet Provider is tracking your torrent activity! Hide your IP ADDRESS with a V.P.N!
We strongly recommend using ExpressV.P.N to anonymize your torrenting. 30 Day Money Back Guarantee!
Try it Now!
ETTV Recommended TV Shows
The.Goldbergs.2013.S07E15.HDTV.x264-SVA[ettv] torrent
Modern.Family.S11E14.HDTV.x264-SVA[ettv] torrent
The.Magicians.US.S05E07.WEB.H264-XLF[ettv] torrent
Criminal.Minds.S15E10.HDTV.x264-SVA[ettv] torrent

ETTV Recommended SD
A.Prayer.For.The.Damned.2019.HDRip.XviD.AC3-EVO torrent
Clown.Fear.2020.HDRip.XviD.AC3-EVO torrent
The.Dustwalker.2020.HDRip.XviD.AC3-EVO torrent
Villains.2019.BRRip.XviD.AC3-EVO torrent

ETTV Recommended HD
Dark.Waters.2019.1080p.Bluray.DTS-HD.MA.5.1.X264-EVO[EtHD] torrent
8.A.South.African.Horror.Story.2019.1080p.WEB-DL.H264.AC3-EVO[EtHD] torrent
Queen.and.Slim.2019.1080p.Bluray.Atmos.TrueHD.7.1.x264-EVO[EtHD] torrent
Radioflash.2019.1080p.Bluray.DTS-HD.MA.5.1.X264-EVO[EtHD] torrent

ETTV Recommended UHD
Frozen.II.2019.2160p.UHD.BluRay.x265-TERMiNAL torrent
Rogue.One.A.Star Wars Story 2016.4K.HDR.2160p.WEBDL Ita Eng x265-NAHOM torrent
Abominable.2019.4K.HDR.2160p.BDRip Ita Eng x265-NAHOM torrent
Star.Wars.The.Last.Jedi.2017.BDRip.UHD.HDR.Eng.Spa.TrueHD.ETRG torrent

ETTV Recommended Cam
Fantasy Island 2020 HDCAM x264-ETRG torrent
The Photograph 2020 720p HDCAM-C1NEM4 torrent
Emma 2020 720p HDCAM-C1NEM4 torrent
Sonic the Hedgehog.2020.READNFO.HDCAM.x264-ETRG torrent

ETTV Recommended Foreign
Valhalla.2019.NORDiC.1080p.WEB-DL.H.264-RAPiDCOWS[EtHD] torrent
Liberation.2019.HDRip.1080p.x264.AAC.Mandarin.HC.CHI-ENG.Mp4Ba torrent
Ringu 1998.4K.REMASTERED.BDRip 1080p Ita Jap x265-NAHOM torrent
Harry Potter 2001-2012 Octalogy Collection 720p BluRay x264 Hindi 2.0/5.1 - English 5.1 ESub - MoviePirate - Telly torrent


Download Torrent "SEAL Team S03E01 (1080p AMZN WEB-DL x265 HEVC 10bit AAC 5.1 Joy) [UTR]"

IMDB Details
Description:

N/A

Genre:

N/A

Download Torrent (Magnet)
Download Torrent (File)
Seeds: 243
Leechers: 11
Completed: 1,455 
Last Checked: 04-10-2019 05:47:51


Loading...
Details
Title:SEAL Team S03E01 (1080p AMZN WEB-DL x265 HEVC 10bit AAC 5.1 Joy) [UTR]
Description:



Media Information

General
Format                                   : Matroska
Format version                           : Version 4 / Version 2
File size                                : 530 MiB
Duration                                 : 43 min 16 s
Overall bit rate                         : 1 712 kb/s
Movie name                               : SEAL Team S03E01 Welcome to the Refuge  (1080p x265 q22 Joy)[UTR]
Encoded date                             : UTC 2019-10-03 10:58:35
Writing application                      : mkvmerge v34.0.0 ('Sight and Seen') 64-bit
Writing library                          : libebml v1.3.7 + libmatroska v1.5.0
Cover                                    : Yes
Attachments                              : cover.png
Writing frontend                         : StaxRip v2.0.2.0, a JoyBell Encode

Video
ID                                       : 1
Format                                   : HEVC
Format/Info                              : High Efficiency Video Coding
Format profile                           : Main [email protected]@Main
Codec ID                                 : V_MPEGH/ISO/HEVC
Duration                                 : 43 min 16 s
Bit rate                                 : 1 520 kb/s
Width                                    : 1 920 pixels
Height                                   : 1 080 pixels
Display aspect ratio                     : 16:9
Frame rate mode                          : Constant
Frame rate                               : 24.000 FPS
Color space                              : YUV
Chroma subsampling                       : 4:2:0
Bit depth                                : 10 bits
Bits/(Pixel*Frame)                       : 0.031
Stream size                              : 470 MiB (89%)
Writing library                          : x265 3.0_Au+24-4217e691387c:[Windows][GCC 9.1.1][64 bit] 10bit
Encoding settings                        : rc=crf / crf=22.0000 / qcomp=0.60 / qpstep=4 / stats-write=0 / stats-read=0 / qpmax=69 / qpmin=0 / no-lossless / no-cu-lossless / hevc-aq / no-aq-motion / aq-mode=1 / aq-strength=1.00 / cbqpoffs=0 / crqpoffs=0 / ipratio=1.40 / pbratio=1.30 / psy-rd=0.00 / psy-rdoq=0.80 / deblock=0:0 / ref=4 / limit-refs=3 / limit-modes / bframes=8 / b-adapt=2 / bframe-bias=40 / b-pyramid / no-b-intra / weightp / no-weightb / keyint=250 / min-keyint=24 / rc-lookahead=80 / gop-lookahead=0 / scenecut=40 / scenecut-bias=0.05 / ctu=64 / min-cu-size=8 / me=3 / subme=3 / merange=57 / rd=4 / no-rd-refine / ssim-rd / dynamic-rd=0.00 / rdoq-level=2 / rdpenalty=0 / cutree / sao / no-limit-sao / no-sao-non-deblock / rect / no-amp / open-gop / max-tu-size=32 / tu-inter-depth=1 / tu-intra-depth=1 / limit-tu=0 / qg-size=32 / wpp / no-pmode / no-pme / no-psnr / ssim / no-tskip / constrained-intra / strong-intra-smoothing / max-merge=5 / nr-intra=0 / nr-inter=0 / input-csp=1 / input-res=1920x1080 / interlace=0 / total-frames=62317 / level-idc=0 / high-tier=1cpuid=1111039 / frame-threads=3 / numa-pools=12 / log-level=2 / uhd-bd=0 / lookahead-slices=4 / radl=0 / no-splice / no-intra-refresh / signhide / temporal-mvp / no-analyze-src-pics / early-skip / rskip / no-fast-intra / no-tskip-fast / splitrd-skip / zone-count=0 / no-strict-cbr / no-rc-grain / no-const-vbv / no-allow-non-conformance / no-repeat-headers / annexb / no-aud / no-hrd / info / hash=0 / no-temporal-layers / sar=0 / overscan=0 / videoformat=5 / range=0 / colorprim=2 / transfer=2 / colormatrix=2 / chromaloc=0 / display-window=0 / max-cll=0,0 / min-luma=0 / max-luma=1023 / log2-max-poc-lsb=8 / vui-timing-info / vui-hrd-info / slices=1 / no-opt-qp-pps / no-opt-ref-list-length-pps / no-multi-pass-opt-rps / no-opt-cu-delta-qp / no-hdr / no-hdr-opt / no-dhdr10-opt / no-idr-recovery-sei / analysis-reuse-level=5 / scale-factor=0 / refine-intra=0 / refine-inter=0 / refine-mv=0 / refine-ctu-distortion=0 / ctu-info=0 / no-lowpass-dct / refine-analysis-type=0 / copy-pic=1 / max-ausize-factor=1.0 / no-dynamic-refine / no-single-sei / no-svt / qp-adaptation-range=1.00
Default                                  : Yes
Forced                                   : No

Audio
ID                                       : 2
Format                                   : AAC
Format/Info                              : Advanced Audio Codec
Format profile                           : HE-AAC / LC
Codec ID                                 : A_AAC
Duration                                 : 43 min 16 s
Bit rate                                 : 192 kb/s
Channel(s)                               : 6 channels
Channel positions                        : Front: L C R, Side: L R, LFE
Sampling rate                            : 48.0 kHz / 24.0 kHz
Frame rate                               : 23.438 FPS (1024 spf)
Compression mode                         : Lossy
Delay relative to video                  : 31 ms
Stream size                              : 58.7 MiB (11%)
Language                                 : English
Default                                  : No
Forced                                   : No

Subtitle
ID                                       : 3
Format                                   : UTF-8
Codec ID                                 : S_TEXT/UTF8
Codec ID/Info                            : UTF-8 Plain Text
Duration                                 : 42 min 35 s
Bit rate                                 : 64 b/s
Count of elements                        : 655
Stream size                              : 20.1 KiB (0%)
Language                                 : English
Default                                  : No
Forced                                   : No

Source InformationRelease: 
SEAL.Team.S03E01.Welcome.to.the.Refuge.1080p.AMZN.WEB-DL.DDP5.1.H.264-NTb.mkv (3.23 GBs)



Note From UTR
Whilst we are happy for our releases to be re-posted on a platform we aren't on, please do so in an 'as-is' format. We ask that you do not create a new torrent, include all descriptions you see above including the UTR logo, tags, notes and screenshots. If you'd like to become a permanent poster on a website we don't post to, feel free to get in contact with a UTR member.
If possible please donate: BTC 1QA5fum5AyXvWzdVCkQzUNvw3Ef15fHRaR




Category:TV > HEVC/x265
Lang:English  English
Total Size:530 MB
Info Hash:a4baca92628a6b893bd41b1c37e97e08601cb80c
Added By:UTR
Date Added:04-10-2019 05:47:48

Files

File List: 
 File Size
SEAL Team S03E01 Welcome to the Refuge (1080p x265 q22 S84 Joy).mkv530 MB



Loading...
Comments

There are currently no comments. Be the first one to write something !