parasite Avenue 5 Charlies Angels 2019 the outsider Joker 2019 For life S01E02 Parasite 2019 fbi s02e16 ncis s17e16 Hindi new amsterdam homeland s08e02 ford v ferrari 2019 etmovies knives out Prodigal Son S01E15 ncis vikings manifest This IS Us ddr Flash Bad Boys for Life 2020 Birds of Prey (and the Fantabulous Emancipation of One Harley Quinn) 2020 The Outsider S01E07 star wars the rise of skywalker 2019 The Gentlemen 2019 xxx supergirl Frozen II 2019 Bull S04E15 New Amsterdam S02E14 The Flash S06E12 the flash ettv Manifest S02E07 fbi Doctor Who Legends of Tomorrow jumanji ethd this is us s04e14 DCs Legends of Tomorrow S05E05 the resident s03e15 star wars 0 homeland 21 bridges 2019 bull rq.mp4 knives out 2019 the good doctor Outlander S05E01 etrg WWE Underwater 2020 Midway 2019 evo 1917 2019 Dolittle 2020 Sonic the Hedgehog 2020 terminator dark fate 2019 Project Blue Book S02E05 FBI Most Wanted S01E06 batwoman yts the good doctor s03e15 fantasy island 2020 picard Jumanji The Next Level 2019 Star Trek Picard S01E04 
Warning! Use a V.P.N When Downloading Torrents!
Your IP Address is 3.214.224.224. Location is United States
Your Internet Provider is tracking your torrent activity! Hide your IP ADDRESS with a V.P.N!
We strongly recommend using ExpressV.P.N to anonymize your torrenting. 30 Day Money Back Guarantee!
Try it Now!
ETTV Recommended TV Shows
The.Goldbergs.2013.S07E15.HDTV.x264-SVA[ettv] torrent
Modern.Family.S11E14.HDTV.x264-SVA[ettv] torrent
The.Magicians.US.S05E07.WEB.H264-XLF[ettv] torrent
Criminal.Minds.S15E10.HDTV.x264-SVA[ettv] torrent

ETTV Recommended SD
A.Prayer.For.The.Damned.2019.HDRip.XviD.AC3-EVO torrent
Clown.Fear.2020.HDRip.XviD.AC3-EVO torrent
The.Dustwalker.2020.HDRip.XviD.AC3-EVO torrent
Villains.2019.BRRip.XviD.AC3-EVO torrent

ETTV Recommended HD
Dark.Waters.2019.1080p.Bluray.DTS-HD.MA.5.1.X264-EVO[EtHD] torrent
8.A.South.African.Horror.Story.2019.1080p.WEB-DL.H264.AC3-EVO[EtHD] torrent
Queen.and.Slim.2019.1080p.Bluray.Atmos.TrueHD.7.1.x264-EVO[EtHD] torrent
Radioflash.2019.1080p.Bluray.DTS-HD.MA.5.1.X264-EVO[EtHD] torrent

ETTV Recommended UHD
Frozen.II.2019.2160p.UHD.BluRay.x265-TERMiNAL torrent
Rogue.One.A.Star Wars Story 2016.4K.HDR.2160p.WEBDL Ita Eng x265-NAHOM torrent
Abominable.2019.4K.HDR.2160p.BDRip Ita Eng x265-NAHOM torrent
Star.Wars.The.Last.Jedi.2017.BDRip.UHD.HDR.Eng.Spa.TrueHD.ETRG torrent

ETTV Recommended Cam
Fantasy Island 2020 HDCAM x264-ETRG torrent
The Photograph 2020 720p HDCAM-C1NEM4 torrent
Emma 2020 720p HDCAM-C1NEM4 torrent
Sonic the Hedgehog.2020.READNFO.HDCAM.x264-ETRG torrent

ETTV Recommended Foreign
Valhalla.2019.NORDiC.1080p.WEB-DL.H.264-RAPiDCOWS[EtHD] torrent
Liberation.2019.HDRip.1080p.x264.AAC.Mandarin.HC.CHI-ENG.Mp4Ba torrent
Ringu 1998.4K.REMASTERED.BDRip 1080p Ita Jap x265-NAHOM torrent
Harry Potter 2001-2012 Octalogy Collection 720p BluRay x264 Hindi 2.0/5.1 - English 5.1 ESub - MoviePirate - Telly torrent


Download Torrent "Modern Family S11E02 (1080p AMZN WEB-DL x265 HEVC 10bit AAC 5.1 Joy) [UTR]"

IMDB Details
Description:

N/A

Genre:

N/A

Download Torrent (Magnet)
Download Torrent (File)
Seeds: 169
Leechers: 55
Completed: 1,911 
Last Checked: 04-10-2019 05:57:27


Loading...
Details
Title:Modern Family S11E02 (1080p AMZN WEB-DL x265 HEVC 10bit AAC 5.1 Joy) [UTR]
Description:



Media Information
General
Format                                   : Matroska
Format version                           : Version 4 / Version 2
File size                                : 212 MiB
Duration                                 : 21 min 33 s
Overall bit rate                         : 1 373 kb/s
Movie name                               : Modern Family S11E02 Snapped  (1080p x265 10bit Joy)[UTR]
Encoded date                             : UTC 2019-10-04 01:24:59
Writing application                      : mkvmerge v34.0.0 ('Sight and Seen') 64-bit
Writing library                          : libebml v1.3.7 + libmatroska v1.5.0
Cover                                    : Yes
Attachments                              : cover.png
Writing frontend                         : StaxRip v2.0.2.0, a JoyBell Encode

Video
ID                                       : 1
Format                                   : HEVC
Format/Info                              : High Efficiency Video Coding
Format profile                           : Main [email protected]@Main
Codec ID                                 : V_MPEGH/ISO/HEVC
Duration                                 : 21 min 33 s
Bit rate                                 : 1 200 kb/s
Width                                    : 1 920 pixels
Height                                   : 1 072 pixels
Display aspect ratio                     : 16:9
Frame rate mode                          : Constant
Frame rate                               : 23.976 (24000/1001) FPS
Color space                              : YUV
Chroma subsampling                       : 4:2:0
Bit depth                                : 10 bits
Bits/(Pixel*Frame)                       : 0.024
Stream size                              : 185 MiB (87%)
Writing library                          : x265 3.0_Au+24-4217e691387c:[Windows][GCC 9.1.1][64 bit] 10bit
Encoding settings                        : rc=abr / bitrate=1200 / qcomp=0.60 / qpstep=4 / stats-write=0 / stats-read=2 / cplxblur=20.0 / qblur=0.5 / qpmax=69 / qpmin=0 / no-lossless / no-cu-lossless / no-hevc-aq / no-aq-motion / aq-mode=2 / aq-strength=0.80 / cbqpoffs=0 / crqpoffs=0 / ipratio=1.40 / pbratio=1.30 / psy-rd=2.45 / psy-rdoq=1.50 / deblock=0:0 / ref=4 / limit-refs=3 / limit-modes / bframes=8 / b-adapt=2 / bframe-bias=40 / b-pyramid / no-b-intra / weightp / no-weightb / keyint=250 / min-keyint=23 / rc-lookahead=80 / gop-lookahead=0 / scenecut=40 / scenecut-bias=0.05 / ctu=64 / min-cu-size=8 / me=3 / subme=3 / merange=57 / rd=4 / no-rd-refine / ssim-rd / dynamic-rd=0.00 / rdoq-level=2 / rdpenalty=0 / cutree / sao / limit-sao / no-sao-non-deblock / no-rect / no-amp / open-gop / max-tu-size=32 / tu-inter-depth=1 / tu-intra-depth=1 / limit-tu=0 / qg-size=32 / wpp / no-pmode / no-pme / no-psnr / ssim / no-tskip / constrained-intra / strong-intra-smoothing / max-merge=3 / nr-intra=0 / nr-inter=0 / input-csp=1 / input-res=1920x1072 / interlace=0 / total-frames=31012 / level-idc=0 / high-tier=1cpuid=1111039 / frame-threads=3 / numa-pools=12 / log-level=2 / uhd-bd=0 / lookahead-slices=4 / radl=0 / no-splice / no-intra-refresh / signhide / temporal-mvp / no-analyze-src-pics / early-skip / rskip / no-fast-intra / no-tskip-fast / splitrd-skip / zone-count=0 / no-strict-cbr / no-rc-grain / no-const-vbv / no-allow-non-conformance / no-repeat-headers / annexb / no-aud / no-hrd / info / hash=0 / no-temporal-layers / sar=0 / overscan=0 / videoformat=5 / range=0 / colorprim=2 / transfer=2 / colormatrix=1 / chromaloc=0 / display-window=0 / max-cll=0,0 / min-luma=0 / max-luma=1023 / log2-max-poc-lsb=8 / vui-timing-info / vui-hrd-info / slices=1 / no-opt-qp-pps / no-opt-ref-list-length-pps / multi-pass-opt-rps / no-opt-cu-delta-qp / no-hdr / no-hdr-opt / no-dhdr10-opt / no-idr-recovery-sei / analysis-reuse-level=10 / scale-factor=0 / refine-intra=0 / refine-inter=0 / refine-mv=0 / refine-ctu-distortion=0 / ctu-info=0 / no-lowpass-dct / refine-analysis-type=0 / copy-pic=1 / max-ausize-factor=1.0 / no-dynamic-refine / no-single-sei / no-svt / qp-adaptation-range=1.00
Default                                  : Yes
Forced                                   : No
Color range                              : Limited
Matrix coefficients                      : BT.709

Audio
ID                                       : 2
Format                                   : AAC
Format/Info                              : Advanced Audio Codec
Format profile                           : HE-AAC / LC
Codec ID                                 : A_AAC
Duration                                 : 21 min 33 s
Bit rate                                 : 170 kb/s
Channel(s)                               : 6 channels
Channel positions                        : Front: L C R, Side: L R, LFE
Sampling rate                            : 48.0 kHz / 24.0 kHz
Frame rate                               : 23.438 FPS (1024 spf)
Compression mode                         : Lossy
Delay relative to video                  : 31 ms
Stream size                              : 26.2 MiB (12%)
Language                                 : English
Default                                  : No
Forced                                   : No

Subtitle #1
ID                                       : 3
Format                                   : UTF-8
Codec ID                                 : S_TEXT/UTF8
Codec ID/Info                            : UTF-8 Plain Text
Duration                                 : 21 min 22 s
Bit rate                                 : 106 b/s
Count of elements                        : 560
Stream size                              : 16.7 KiB (0%)
Language                                 : English
Default                                  : No
Forced                                   : No

Subtitle #2
ID                                       : 4
Format                                   : UTF-8
Codec ID                                 : S_TEXT/UTF8
Codec ID/Info                            : UTF-8 Plain Text
Duration                                 : 21 min 22 s
Bit rate                                 : 113 b/s
Count of elements                        : 603
Stream size                              : 17.8 KiB (0%)
Language                                 : English
Default                                  : No
Forced                                   : No



Source InformationRelease: Modern.Family.S11E02.Snapped.1080p.AMZN.WEB-DL.DDP5.1.H.264-NTb.mkv (1.53 GBs)


Note From UTR
Whilst we are happy for our releases to be re-posted on a platform we aren't on, please do so in an 'as-is' format. We ask that you do not create a new torrent, include all descriptions you see above including the UTR logo, tags, notes and screenshots. If you'd like to become a permanent poster on a website we don't post to, feel free to get in contact with a UTR member.
If possible please donate: BTC 1QA5fum5AyXvWzdVCkQzUNvw3Ef15fHRaR




Note From UTR
Whilst we are happy for our releases to be re-posted on a platform we aren't on, please do so in an 'as-is' format. We ask that you do not create a new torrent, include all descriptions you see above including the UTR logo, tags, notes and screenshots. If you'd like to become a permanent poster on a website we don't post to, feel free to get in contact with a UTR member.
If possible please donate: BTC 1QA5fum5AyXvWzdVCkQzUNvw3Ef15fHRaR

[/CENTER]

Category:TV > HEVC/x265
Lang:English  English
Total Size:212 MB
Info Hash:0ac8f1c51512009d8c2862985c7749bca6c36847
Added By:UTR
Date Added:04-10-2019 05:57:22

Files

File List: 
 File Size
Modern Family S11E02 Snapped (1080p x265 10bit S90 Joy).mkv212 MB



Loading...
Comments

There are currently no comments. Be the first one to write something !