parasite Avenue 5 Charlies Angels 2019 the outsider Joker 2019 For life S01E02 Parasite 2019 fbi s02e16 ncis s17e16 Hindi new amsterdam homeland s08e02 ford v ferrari 2019 etmovies knives out Prodigal Son S01E15 ncis vikings manifest This IS Us ddr Flash Bad Boys for Life 2020 Birds of Prey (and the Fantabulous Emancipation of One Harley Quinn) 2020 The Outsider S01E07 star wars the rise of skywalker 2019 The Gentlemen 2019 xxx supergirl Frozen II 2019 Bull S04E15 New Amsterdam S02E14 The Flash S06E12 the flash ettv Manifest S02E07 fbi Doctor Who Legends of Tomorrow jumanji ethd this is us s04e14 DCs Legends of Tomorrow S05E05 the resident s03e15 star wars 0 homeland 21 bridges 2019 bull rq.mp4 knives out 2019 the good doctor Outlander S05E01 etrg WWE Underwater 2020 Midway 2019 evo 1917 2019 Dolittle 2020 Sonic the Hedgehog 2020 terminator dark fate 2019 Project Blue Book S02E05 FBI Most Wanted S01E06 batwoman yts the good doctor s03e15 fantasy island 2020 picard Jumanji The Next Level 2019 Star Trek Picard S01E04 
Warning! Use a V.P.N When Downloading Torrents!
Your IP Address is 3.214.224.224. Location is United States
Your Internet Provider is tracking your torrent activity! Hide your IP ADDRESS with a V.P.N!
We strongly recommend using ExpressV.P.N to anonymize your torrenting. 30 Day Money Back Guarantee!
Try it Now!
ETTV Recommended TV Shows
The.Goldbergs.2013.S07E15.HDTV.x264-SVA[ettv] torrent
Modern.Family.S11E14.HDTV.x264-SVA[ettv] torrent
The.Magicians.US.S05E07.WEB.H264-XLF[ettv] torrent
Criminal.Minds.S15E10.HDTV.x264-SVA[ettv] torrent

ETTV Recommended SD
A.Prayer.For.The.Damned.2019.HDRip.XviD.AC3-EVO torrent
Clown.Fear.2020.HDRip.XviD.AC3-EVO torrent
The.Dustwalker.2020.HDRip.XviD.AC3-EVO torrent
Villains.2019.BRRip.XviD.AC3-EVO torrent

ETTV Recommended HD
Dark.Waters.2019.1080p.Bluray.DTS-HD.MA.5.1.X264-EVO[EtHD] torrent
8.A.South.African.Horror.Story.2019.1080p.WEB-DL.H264.AC3-EVO[EtHD] torrent
Queen.and.Slim.2019.1080p.Bluray.Atmos.TrueHD.7.1.x264-EVO[EtHD] torrent
Radioflash.2019.1080p.Bluray.DTS-HD.MA.5.1.X264-EVO[EtHD] torrent

ETTV Recommended UHD
Frozen.II.2019.2160p.UHD.BluRay.x265-TERMiNAL torrent
Rogue.One.A.Star Wars Story 2016.4K.HDR.2160p.WEBDL Ita Eng x265-NAHOM torrent
Abominable.2019.4K.HDR.2160p.BDRip Ita Eng x265-NAHOM torrent
Star.Wars.The.Last.Jedi.2017.BDRip.UHD.HDR.Eng.Spa.TrueHD.ETRG torrent

ETTV Recommended Cam
Fantasy Island 2020 HDCAM x264-ETRG torrent
The Photograph 2020 720p HDCAM-C1NEM4 torrent
Emma 2020 720p HDCAM-C1NEM4 torrent
Sonic the Hedgehog.2020.READNFO.HDCAM.x264-ETRG torrent

ETTV Recommended Foreign
Valhalla.2019.NORDiC.1080p.WEB-DL.H.264-RAPiDCOWS[EtHD] torrent
Liberation.2019.HDRip.1080p.x264.AAC.Mandarin.HC.CHI-ENG.Mp4Ba torrent
Ringu 1998.4K.REMASTERED.BDRip 1080p Ita Jap x265-NAHOM torrent
Harry Potter 2001-2012 Octalogy Collection 720p BluRay x264 Hindi 2.0/5.1 - English 5.1 ESub - MoviePirate - Telly torrent


Download Torrent "Operation Finale (2018) (1080p AMZN WEBRip x265 HEVC 10bit AAC Q22 5.1 Joy)..."

IMDB Details
Description:

A team of secret agents set out to track down the Nazi officer who masterminded the Holocaust.

Genre:

Biography, Drama, History, Thriller, War

Download Torrent (Magnet)
Download Torrent (File)
Seeds: 87
Leechers: 41
Completed: 686 
Last Checked: 04-10-2019 12:27:17


Loading...
Details
Title:Operation Finale (2018) (1080p AMZN WEBRip x265 HEVC 10bit AAC Q22 5.1 Joy)...
Description:




General
Format                                   : Matroska
Format version                           : Version 4 / Version 2
File size                                : 943 MiB
Duration                                 : 2 h 3 min
Overall bit rate                         : 1 067 kb/s
Movie name                               : Operation Finale 2018  (1080p x265 q22 FS100 Joy) [UTR]
Encoded date                             : UTC 2019-10-03 07:32:13
Writing application                      : mkvmerge v32.0.0 ('Astral Progressions') 64-bit
Writing library                          : libebml v1.3.7 + libmatroska v1.5.0
Cover                                    : Yes
Attachments                              : cover.jpg
Writing frontend                         : StaxRip v2.0.2.0, Encoded by JoyBell

Video
ID                                       : 1
Format                                   : HEVC
Format/Info                              : High Efficiency Video Coding
Format profile                           : Main [email protected]@Main
Codec ID                                 : V_MPEGH/ISO/HEVC
Duration                                 : 2 h 2 min
Bit rate                                 : 759 kb/s
Width                                    : 1 920 pixels
Height                                   : 1 040 pixels
Display aspect ratio                     : 1.85:1
Frame rate mode                          : Constant
Frame rate                               : 23.976 (24000/1001) FPS
Color space                              : YUV
Chroma subsampling                       : 4:2:0
Bit depth                                : 10 bits
Bits/(Pixel*Frame)                       : 0.016
Stream size                              : 665 MiB (71%)
Writing library                          : x265 3.0_Au+24-4217e691387c:[Windows][GCC 9.1.1][64 bit] 10bit
Encoding settings                        : rc=crf / crf=21.5000 / qcomp=0.60 / qpstep=4 / stats-write=0 / stats-read=0 / qpmax=69 / qpmin=0 / no-lossless / no-cu-lossless / hevc-aq / no-aq-motion / aq-mode=3 / aq-strength=1.00 / cbqpoffs=0 / crqpoffs=0 / ipratio=1.40 / pbratio=1.30 / psy-rd=2.50 / psy-rdoq=0.80 / deblock=-2:-2 / ref=4 / limit-refs=3 / limit-modes / bframes=8 / b-adapt=2 / bframe-bias=20 / b-pyramid / no-b-intra / weightp / no-weightb / keyint=250 / min-keyint=23 / rc-lookahead=80 / gop-lookahead=0 / scenecut=40 / scenecut-bias=0.05 / ctu=64 / min-cu-size=8 / me=3 / subme=5 / merange=57 / rd=4 / no-rd-refine / ssim-rd / dynamic-rd=0.00 / rdoq-level=2 / rdpenalty=0 / cutree / sao / no-limit-sao / no-sao-non-deblock / rect / no-amp / open-gop / max-tu-size=32 / tu-inter-depth=1 / tu-intra-depth=1 / limit-tu=0 / qg-size=32 / wpp / no-pmode / no-pme / no-psnr / ssim / no-tskip / constrained-intra / strong-intra-smoothing / max-merge=5 / nr-intra=0 / nr-inter=0 / input-csp=1 / input-res=1920x1040 / interlace=0 / total-frames=176452 / level-idc=0 / high-tier=1cpuid=1111039 / frame-threads=3 / numa-pools=12 / log-level=2 / uhd-bd=0 / lookahead-slices=4 / radl=0 / no-splice / no-intra-refresh / signhide / temporal-mvp / no-analyze-src-pics / early-skip / rskip / no-fast-intra / no-tskip-fast / no-splitrd-skip / zone-count=0 / no-strict-cbr / no-rc-grain / no-const-vbv / no-allow-non-conformance / no-repeat-headers / annexb / no-aud / no-hrd / info / hash=0 / no-temporal-layers / sar=0 / overscan=0 / videoformat=5 / range=0 / colorprim=2 / transfer=2 / colormatrix=2 / chromaloc=0 / display-window=0 / max-cll=0,0 / min-luma=0 / max-luma=1023 / log2-max-poc-lsb=8 / vui-timing-info / vui-hrd-info / slices=1 / no-opt-qp-pps / no-opt-ref-list-length-pps / no-multi-pass-opt-rps / no-opt-cu-delta-qp / no-hdr / no-hdr-opt / no-dhdr10-opt / no-idr-recovery-sei / analysis-reuse-level=5 / scale-factor=0 / refine-intra=0 / refine-inter=0 / refine-mv=0 / refine-ctu-distortion=0 / ctu-info=0 / no-lowpass-dct / refine-analysis-type=0 / copy-pic=1 / max-ausize-factor=1.0 / no-dynamic-refine / no-single-sei / no-svt / qp-adaptation-range=1.00
Default                                  : Yes
Forced                                   : No

Audio
ID                                       : 2
Format                                   : AAC
Format/Info                              : Advanced Audio Codec
Format profile                           : LC
Codec ID                                 : A_AAC
Duration                                 : 2 h 2 min
Bit rate                                 : 312 kb/s
Channel(s)                               : 6 channels
Channel positions                        : Front: L C R, Side: L R, LFE
Sampling rate                            : 48.0 kHz
Frame rate                               : 46.875 FPS (1024 spf)
Compression mode                         : Lossy
Delay relative to video                  : 9 ms
Stream size                              : 274 MiB (29%)
Language                                 : English
Default                                  : No
Forced                                   : No

Subtitle #1
ID                                       : 3
Format                                   : UTF-8
Codec ID                                 : S_TEXT/UTF8
Codec ID/Info                            : UTF-8 Plain Text
Duration                                 : 1 h 53 min
Bit rate                                 : 49 b/s
Count of elements                        : 1416
Stream size                              : 40.9 KiB (0%)
Language                                 : English
Default                                  : No
Forced                                   : No

Subtitle #2
ID                                       : 4
Format                                   : UTF-8
Codec ID                                 : S_TEXT/UTF8
Codec ID/Info                            : UTF-8 Plain Text
Duration                                 : 1 h 55 min
Bit rate                                 : 53 b/s
Count of elements                        : 1644
Stream size                              : 45.4 KiB (0%)
Language                                 : English
Default                                  : No
Forced                                   : No

Subtitle #3
ID                                       : 5
Format                                   : UTF-8
Codec ID                                 : S_TEXT/UTF8
Codec ID/Info                            : UTF-8 Plain Text
Duration                                 : 1 h 57 min
Bit rate                                 : 82 b/s
Count of elements                        : 1328
Stream size                              : 71.6 KiB (0%)
Language                                 : Arabic
Default                                  : No
Forced                                   : No

Subtitle #4
ID                                       : 6
Format                                   : UTF-8
Codec ID                                 : S_TEXT/UTF8
Codec ID/Info                            : UTF-8 Plain Text
Duration                                 : 1 h 57 min
Bit rate                                 : 45 b/s
Count of elements                        : 1330
Stream size                              : 39.1 KiB (0%)
Language                                 : Chinese
Default                                  : No
Forced                                   : No

Subtitle #5
ID                                       : 7
Format                                   : UTF-8
Codec ID                                 : S_TEXT/UTF8
Codec ID/Info                            : UTF-8 Plain Text
Duration                                 : 2 h 2 min
Bit rate                                 : 45 b/s
Count of elements                        : 1331
Stream size                              : 40.9 KiB (0%)
Language                                 : Danish
Default                                  : No
Forced                                   : No

Subtitle #6
ID                                       : 8
Format                                   : UTF-8
Codec ID                                 : S_TEXT/UTF8
Codec ID/Info                            : UTF-8 Plain Text
Duration                                 : 1 h 57 min
Bit rate                                 : 42 b/s
Count of elements                        : 1181
Stream size                              : 36.3 KiB (0%)
Language                                 : Dutch
Default                                  : No
Forced                                   : No

Subtitle #7
ID                                       : 9
Format                                   : UTF-8
Codec ID                                 : S_TEXT/UTF8
Codec ID/Info                            : UTF-8 Plain Text
Duration                                 : 1 h 58 min
Bit rate                                 : 78 b/s
Count of elements                        : 1264
Stream size                              : 68.2 KiB (0%)
Language                                 : Persian
Default                                  : No
Forced                                   : No

Subtitle #8
ID                                       : 10
Format                                   : UTF-8
Codec ID                                 : S_TEXT/UTF8
Codec ID/Info                            : UTF-8 Plain Text
Duration                                 : 2 h 2 min
Bit rate                                 : 45 b/s
Count of elements                        : 1063
Stream size                              : 40.6 KiB (0%)
Language                                 : Finnish
Default                                  : No
Forced                                   : No

Subtitle #9
ID                                       : 11
Format                                   : UTF-8
Codec ID                                 : S_TEXT/UTF8
Codec ID/Info                            : UTF-8 Plain Text
Duration                                 : 1 h 57 min
Bit rate                                 : 3 b/s
Count of elements                        : 85
Stream size                              : 2.72 KiB (0%)
Language                                 : French
Default                                  : No
Forced                                   : No

Subtitle #10
ID                                       : 12
Format                                   : UTF-8
Codec ID                                 : S_TEXT/UTF8
Codec ID/Info                            : UTF-8 Plain Text
Duration                                 : 1 h 57 min
Bit rate                                 : 51 b/s
Count of elements                        : 1315
Stream size                              : 44.9 KiB (0%)
Language                                 : German
Default                                  : No
Forced                                   : No

Subtitle #11
ID                                       : 13
Format                                   : UTF-8
Codec ID                                 : S_TEXT/UTF8
Codec ID/Info                            : UTF-8 Plain Text
Duration                                 : 1 h 57 min
Bit rate                                 : 83 b/s
Count of elements                        : 1289
Stream size                              : 71.8 KiB (0%)
Language                                 : Greek
Default                                  : No
Forced                                   : No

Subtitle #12
ID                                       : 14
Format                                   : UTF-8
Codec ID                                 : S_TEXT/UTF8
Codec ID/Info                            : UTF-8 Plain Text
Duration                                 : 1 h 57 min
Bit rate                                 : 61 b/s
Count of elements                        : 1272
Stream size                              : 52.7 KiB (0%)
Language                                 : Hebrew
Default                                  : No
Forced                                   : No

Subtitle #13
ID                                       : 15
Format                                   : UTF-8
Codec ID                                 : S_TEXT/UTF8
Codec ID/Info                            : UTF-8 Plain Text
Duration                                 : 2 h 2 min
Bit rate                                 : 40 b/s
Count of elements                        : 1300
Stream size                              : 36.7 KiB (0%)
Language                                 : Indonesian
Default                                  : No
Forced                                   : No

Subtitle #14
ID                                       : 16
Format                                   : UTF-8
Codec ID                                 : S_TEXT/UTF8
Codec ID/Info                            : UTF-8 Plain Text
Duration                                 : 2 h 2 min
Bit rate                                 : 43 b/s
Count of elements                        : 1313
Stream size                              : 39.0 KiB (0%)
Language                                 : Italian
Default                                  : No
Forced                                   : No

Subtitle #15
ID                                       : 17
Format                                   : UTF-8
Codec ID                                 : S_TEXT/UTF8
Codec ID/Info                            : UTF-8 Plain Text
Duration                                 : 1 h 57 min
Bit rate                                 : 47 b/s
Count of elements                        : 1307
Stream size                              : 41.4 KiB (0%)
Language                                 : Norwegian
Default                                  : No
Forced                                   : No

Subtitle #16
ID                                       : 18
Format                                   : UTF-8
Codec ID                                 : S_TEXT/UTF8
Codec ID/Info                            : UTF-8 Plain Text
Duration                                 : 1 h 57 min
Bit rate                                 : 46 b/s
Count of elements                        : 1270
Stream size                              : 40.5 KiB (0%)
Language                                 : Romanian
Default                                  : No
Forced                                   : No

Subtitle #17
ID                                       : 19
Format                                   : UTF-8
Codec ID                                 : S_TEXT/UTF8
Codec ID/Info                            : UTF-8 Plain Text
Duration                                 : 2 h 2 min
Bit rate                                 : 69 b/s
Count of elements                        : 1334
Stream size                              : 62.4 KiB (0%)
Language                                 : Russian
Default                                  : No
Forced                                   : No

Subtitle #18
ID                                       : 20
Format                                   : UTF-8
Codec ID                                 : S_TEXT/UTF8
Codec ID/Info                            : UTF-8 Plain Text
Duration                                 : 1 h 57 min
Bit rate                                 : 49 b/s
Count of elements                        : 1260
Stream size                              : 42.6 KiB (0%)
Language                                 : Serbian
Default                                  : No
Forced                                   : No

Subtitle #19
ID                                       : 21
Format                                   : UTF-8
Codec ID                                 : S_TEXT/UTF8
Codec ID/Info                            : UTF-8 Plain Text
Duration                                 : 1 h 57 min
Bit rate                                 : 44 b/s
Count of elements                        : 1228
Stream size                              : 38.8 KiB (0%)
Language                                 : Spanish
Default                                  : No
Forced                                   : No

Subtitle #20
ID                                       : 22
Format                                   : UTF-8
Codec ID                                 : S_TEXT/UTF8
Codec ID/Info                            : UTF-8 Plain Text
Duration                                 : 2 h 2 min
Bit rate                                 : 45 b/s
Count of elements                        : 1254
Stream size                              : 40.4 KiB (0%)
Language                                 : Swedish
Default                                  : No
Forced                                   : No

Subtitle #21
ID                                       : 23
Format                                   : UTF-8
Codec ID                                 : S_TEXT/UTF8
Codec ID/Info                            : UTF-8 Plain Text
Duration                                 : 2 h 3 min
Bit rate                                 : 116 b/s
Count of elements                        : 1321
Stream size                              : 105 KiB (0%)
Language                                 : Thai
Default                                  : No
Forced                                   : No

Subtitle #22
ID                                       : 24
Format                                   : UTF-8
Codec ID                                 : S_TEXT/UTF8
Codec ID/Info                            : UTF-8 Plain Text
Duration                                 : 1 h 57 min
Bit rate                                 : 47 b/s
Count of elements                        : 1352
Stream size                              : 40.6 KiB (0%)
Language                                 : Turkish
Default                                  : No
Forced                                   : No

Subtitle #23
ID                                       : 25
Format                                   : UTF-8
Codec ID                                 : S_TEXT/UTF8
Codec ID/Info                            : UTF-8 Plain Text
Duration                                 : 1 h 58 min
Bit rate                                 : 60 b/s
Count of elements                        : 1280
Stream size                              : 52.1 KiB (0%)
Language                                 : Vietnamese
Default                                  : No
Forced                                   : No

Menu
00:07:12.558                             : en:Chapter 01
00:13:23.678                             : en:Chapter 02
00:17:21.040                             : en:Chapter 03
00:24:45.651                             : en:Chapter 04
00:31:34.101                             : en:Chapter 05
00:35:51.149                             : en:Chapter 06
00:40:28.301                             : en:Chapter 07
00:47:13.081                             : en:Chapter 08
00:54:55.418                             : en:Chapter 09
01:00:22.202                             : en:Chapter 10
01:08:57.342                             : en:Chapter 11
01:14:12.740                             : en:Chapter 12
01:22:07.298                             : en:Chapter 13
01:27:15.064                             : en:Chapter 14
01:34:39.633                             : en:Chapter 15
01:41:03.767                             : en:Chapter 16
01:45:14.851                             : en:Chapter 17
01:51:05.659                             : en:Chapter 18
01:58:08.123                             : en:Chapter 19



Source InformationRelease: Operation.Finale.2018.2160p.AMZN.WEBRip.DTS-HD.MA.5.1.x264-AJP69.mkv (25.15 GBs)



Note From UTR
Whilst we are happy for our releases to be re-posted on a platform we aren't on, please do so in an 'as-is' format. We ask that you do not create a new torrent, include all descriptions you see above including the UTR logo, tags, notes and screenshots. If you'd like to become a permanent poster on a website we don't post to, feel free to get in contact with a UTR member.
If possible please donate: BTC 1QA5fum5AyXvWzdVCkQzUNvw3Ef15fHRaR


Category:Movies > HEVC/x265
Lang:English  English
Total Size:943 MB
Info Hash:eda8ba50d9ef2586e12ae592460dfef368643ea8
Added By:UTR
Date Added:04-10-2019 12:27:13

Files

File List: 
 File Size
Operation Finale 2018 (1080p x265 q22 FS100 Joy).mkv943 MB



Loading...
Comments

There are currently no comments. Be the first one to write something !