charlies angels 2019 Titans titans s02e11 his dark materials the mandalorian s01e01 ford v ferrari 2019 once upon a time in hollywood ddr the good doctor s03e08 Rick And Morty S04E02 bull Angel has fallen it Chapter two rick and morty silicon valley S06E04 rambo last blood 2019 The Mandalorian terminator dark fate 2019 maleficent mistress of evil 2019 wwe xxx hustlers 2019 the walking dead s10e07 mandalorian batwoman mr robot s04e07 batwoman s01e07 all rise s01e08 Supergirl watchmen zombieland double tap 2019 silicon valley the crown all rise joker gemini man 2019 Star Wars Jedi Fallen Order hindi good doctor bull s04e08 watchmen s01e05 see the mandalorian s01e02 etmovies ethd evo The Morning Show the rookie s02e08 Last Week Tonight The Flash yts It supergirl s05e07 harriet 2019 ettv godfather of harlem s01e08 etrg bluff city law s01e09 joker 2019 the irishman 2019 the good doctor all american s02e06 0 Mr Robot His Dark Materials S01E03 angel has fallen 2019 black lightning black lightning s03e06 the walking dead Shameless s10e02 fast furious presents hobbs shaw 2019 gemini man 
Warning! Use a V.P.N When Downloading Torrents!
Your IP Address is 3.93.75.242. Location is United States
Your Internet Provider is tracking your torrent activity! Hide your IP ADDRESS with a V.P.N!
We strongly recommend using ExpressV.P.N to anonymize your torrenting. 30 Day Money Back Guarantee!
Try it Now!
ETTV Recommended TV Shows
NCIS.New.Orleans.S06E08.HDTV.x264-KILLERS[ettv] torrent
The.Resident.S03E07.WEB.x264-TBS[ettv] torrent
New.Amsterdam.2018.S02E09.HDTV.x264-KILLERS[ettv] torrent
The.Flash.2014.S06E06.HDTV.x264-SVA[ettv] torrent
Empire.2015.S06E07.WEB.x264-XLF[ettv] torrent
NCIS.S17E08.HDTV.x264-SVA[ettv] torrent
FBI.S02E08.HDTV.x264-SVA[ettv] torrent
Arrow.S08E05.HDTV.x264-SVA[ettv] torrent

ETTV Recommended SD
It.Chapter.Two.2019.HDRip.XviD.AC3-EVO[EtMovies] torrent
The Goldfinch.2019.HDRip.XviD.AC3-EVO[EtMovies] torrent
Killerman.2019.HDRip.XViD-ETRG torrent
Gemini.Man.2019.HDRip.XViD-ETRG torrent

ETTV Recommended HD
Gemini.Man.2019.1080p.WEB-DL.DD5.1.H264-CMRG[EtHD] torrent
Pretty.Little.Stalker.2018.1080p.WEB-DL.H264.AC3-EVO[EtHD] torrent
Palm.Beach.2019.1080p.BluRay.x264-PFa[EtHD] torrent
Random Acts of Christmas 2019 Lifetime 720p Web X264 Solar torrent

ETTV Recommended UHD
The Boss Baby 2017.MULTi.UHD.Blu-ray.2160p.HDR.Atmos.7.1.HEVC-DDR torrent
Three.Billboards.Outside.Ebbing.Missouri.2017.MULTi.UHD.Blu-ray.2160p.HDR.DTS-HDMA.5.1.HEVC-DDR torrent
Angel.Has.Fallen.2019.MULTi.UHD.BluRay.2160p.HDR.Atmos.7.1.HEVC-DDR torrent
Midsommar.2019.MULTi.UHD.Bluray.2160p.HDR.DTS-HDMA.5.1.HEVC-DDR torrent

ETTV Recommended Cam
Motherless Brooklyn 2019 NEW HDCAM x264-ETRG torrent
Hustlers 2019 NEW HDTS x264 AC3-ETRG torrent
Ford v Ferrari 2019 NEW HDCAM X264-ETRG torrent
Charlies Angels 2019 NEW HD-TS  x264-ETRG torrent

ETTV Recommended Foreign
Go.The.Unforgettable.Party.2019.iNTERNAL.MULTi.1080p.WEB.x264-CiELOS[EtHD] torrent
Attack On Titan (2015) x264 720p UNRATED BluRay Eng Subs {Dual Audio} [Hindi ORG DD 2.0 + JAP 2.0] Exclusive By DREDD torrent
Jind Jaan 2019 x264 720p SD Punjabi GOPISAHI torrent
Dear Zindagi 2016 BluRay Hindi 720p x264 AAC 5.1 ESub - mkvCinemas [Telly] torrent


Download Torrent "The Fate of the Furious (2017)Mp-4 X264 1080p AAC[DSD]"

IMDB Details
Description:

When a mysterious woman seduces Dom into the world of terrorism and a betrayal of those closest to him, the crew face trials that will test them as never before.

Genre:

Action, Adventure, Thriller

Download Torrent (Magnet)
Download Torrent (File)
Seeds: 122
Leechers: 14
Completed: 424 
Last Checked: 04-10-2019 13:27:05


Details
Title:The Fate of the Furious (2017)Mp-4 X264 1080p AAC[DSD]
Description:
Seedboxed!!

Wide Screen!




General

Complete name                            : Fate Of The Furious.m4v

Format                                   : MPEG-4

Format profile                           : Base Media / Version 2

Codec ID                                 : mp42 (isom/iso2/avc1/mp41)

File size                                : 1.97 GiB

Duration                                 : 2 h 15 min

Overall bit rate                         : 2 071 kb/s

Movie name                               : The Fate of the Furious

Encoded date                             : UTC 2019-10-03 11:30:52

Tagged date                              : UTC 2019-10-03 11:30:52

Writing application                      : HandBrake 1.2.2 2019022300


Video

ID                                       : 1

Format                                   : AVC

Format/Info                              : Advanced Video Codec

Format profile                           : [email protected]

Format settings                          : CABAC / 4 Ref Frames

Format settings, CABAC                   : Yes

Format settings, RefFrames               : 4 frames

Codec ID                                 : avc1

Codec ID/Info                            : Advanced Video Coding

Duration                                 : 2 h 15 min

Bit rate                                 : 1 904 kb/s

Width                                    : 1 920 pixels

Height                                   : 804 pixels

Display aspect ratio                     : 2.40:1

Frame rate mode                          : Variable

Frame rate                               : 23.976 (24000/1001) FPS

Minimum frame rate                       : 23.974 FPS

Maximum frame rate                       : 23.981 FPS

Color space                              : YUV

Chroma subsampling                       : 4:2:0

Bit depth                                : 8 bits

Scan type                                : Progressive

Bits/(Pixel*Frame)                       : 0.051

Stream size                              : 1.81 GiB (92%)

Writing library                          : x264 core 157 r2935 545de2f

Encoding settings                        : cabac=1 / ref=1 / deblock=1:0:0 / analyse=0x1:0x111 / me=hex / subme=2 / psy=1 / psy_rd=1.00:0.00 / mixed_ref=0 / me_range=16 / chroma_me=1 / trellis=0 / 8x8dct=0 / cqm=0 / deadzone=21,11 / fast_pskip=1 / chroma_qp_offset=0 / threads=3 / lookahead_threads=1 / sliced_threads=0 / nr=0 / decimate=1 / interlaced=0 / bluray_compat=0 / constrained_intra=0 / bframes=3 / b_pyramid=2 / b_adapt=1 / b_bias=0 / direct=1 / weightb=1 / open_gop=0 / weightp=1 / keyint=240 / keyint_min=24 / scenecut=40 / intra_refresh=0 / rc_lookahead=10 / rc=crf / mbtree=1 / crf=24.0 / qcomp=0.60 / qpmin=0 / qpmax=69 / qpstep=4 / vbv_maxrate=20000 / vbv_bufsize=25000 / crf_max=0.0 / nal_hrd=none / filler=0 / ip_ratio=1.40 / aq=1:1.00

Encoded date                             : UTC 2019-10-03 11:30:52

Tagged date                              : UTC 2019-10-03 11:30:52

Color range                              : Limited

Color primaries                          : BT.709

Transfer characteristics                 : BT.709

Matrix coefficients                      : BT.709

Menus                                    : 3


Audio

ID                                       : 2

Format                                   : AAC

Format/Info                              : Advanced Audio Codec

Format profile                           : LC

Codec ID                                 : mp4a-40-2

Duration                                 : 2 h 15 min

Bit rate mode                            : Constant

Bit rate                                 : 161 kb/s

Channel(s)                               : 2 channels

Channel positions                        : Front: L R

Sampling rate                            : 48.0 kHz

Frame rate                               : 46.875 FPS (1024 SPF)

Compression mode                         : Lossy

Stream size                              : 156 MiB (8%)

Title                                    : Stereo

Language                                 : English

Default                                  : Yes

Alternate group                          : 1

Encoded date                             : UTC 2019-10-03 11:30:52

Tagged date                              : UTC 2019-10-03 11:30:52


Menus                                    : 3

Category:Movies > HD 1080p
Lang:English  English
Total Size:1.97 GB
Info Hash:d04cc7a2f1b4a7137e6c902e8fa4e4f65a4f6215
Added By:DaScubaDude
Date Added:04-10-2019 13:26:56

  

Files

File List: 
 File Size
Fate Of The Furious.m4v1.97 GB



Loading...
Comments

There are currently no comments. Be the first one to write something !