parasite Avenue 5 Charlies Angels 2019 the outsider Joker 2019 For life S01E02 Parasite 2019 fbi s02e16 ncis s17e16 Hindi new amsterdam homeland s08e02 ford v ferrari 2019 etmovies knives out Prodigal Son S01E15 ncis vikings manifest This IS Us ddr Flash Bad Boys for Life 2020 Birds of Prey (and the Fantabulous Emancipation of One Harley Quinn) 2020 The Outsider S01E07 star wars the rise of skywalker 2019 The Gentlemen 2019 xxx supergirl Frozen II 2019 Bull S04E15 New Amsterdam S02E14 The Flash S06E12 the flash ettv Manifest S02E07 fbi Doctor Who Legends of Tomorrow jumanji ethd this is us s04e14 DCs Legends of Tomorrow S05E05 the resident s03e15 star wars 0 homeland 21 bridges 2019 bull rq.mp4 knives out 2019 the good doctor Outlander S05E01 etrg WWE Underwater 2020 Midway 2019 evo 1917 2019 Dolittle 2020 Sonic the Hedgehog 2020 terminator dark fate 2019 Project Blue Book S02E05 FBI Most Wanted S01E06 batwoman yts the good doctor s03e15 fantasy island 2020 picard Jumanji The Next Level 2019 Star Trek Picard S01E04 
Warning! Use a V.P.N When Downloading Torrents!
Your IP Address is 3.214.224.224. Location is United States
Your Internet Provider is tracking your torrent activity! Hide your IP ADDRESS with a V.P.N!
We strongly recommend using ExpressV.P.N to anonymize your torrenting. 30 Day Money Back Guarantee!
Try it Now!
ETTV Recommended TV Shows
The.Goldbergs.2013.S07E15.HDTV.x264-SVA[ettv] torrent
Modern.Family.S11E14.HDTV.x264-SVA[ettv] torrent
The.Magicians.US.S05E07.WEB.H264-XLF[ettv] torrent
Criminal.Minds.S15E10.HDTV.x264-SVA[ettv] torrent

ETTV Recommended SD
A.Prayer.For.The.Damned.2019.HDRip.XviD.AC3-EVO torrent
Clown.Fear.2020.HDRip.XviD.AC3-EVO torrent
The.Dustwalker.2020.HDRip.XviD.AC3-EVO torrent
Villains.2019.BRRip.XviD.AC3-EVO torrent

ETTV Recommended HD
Dark.Waters.2019.1080p.Bluray.DTS-HD.MA.5.1.X264-EVO[EtHD] torrent
8.A.South.African.Horror.Story.2019.1080p.WEB-DL.H264.AC3-EVO[EtHD] torrent
Queen.and.Slim.2019.1080p.Bluray.Atmos.TrueHD.7.1.x264-EVO[EtHD] torrent
Radioflash.2019.1080p.Bluray.DTS-HD.MA.5.1.X264-EVO[EtHD] torrent

ETTV Recommended UHD
Frozen.II.2019.2160p.UHD.BluRay.x265-TERMiNAL torrent
Rogue.One.A.Star Wars Story 2016.4K.HDR.2160p.WEBDL Ita Eng x265-NAHOM torrent
Abominable.2019.4K.HDR.2160p.BDRip Ita Eng x265-NAHOM torrent
Star.Wars.The.Last.Jedi.2017.BDRip.UHD.HDR.Eng.Spa.TrueHD.ETRG torrent

ETTV Recommended Cam
Fantasy Island 2020 HDCAM x264-ETRG torrent
The Photograph 2020 720p HDCAM-C1NEM4 torrent
Emma 2020 720p HDCAM-C1NEM4 torrent
Sonic the Hedgehog.2020.READNFO.HDCAM.x264-ETRG torrent

ETTV Recommended Foreign
Valhalla.2019.NORDiC.1080p.WEB-DL.H.264-RAPiDCOWS[EtHD] torrent
Liberation.2019.HDRip.1080p.x264.AAC.Mandarin.HC.CHI-ENG.Mp4Ba torrent
Ringu 1998.4K.REMASTERED.BDRip 1080p Ita Jap x265-NAHOM torrent
Harry Potter 2001-2012 Octalogy Collection 720p BluRay x264 Hindi 2.0/5.1 - English 5.1 ESub - MoviePirate - Telly torrent


Download Torrent "Doctor Strange (2016) (2160p BluRay x265 HEVC 10bit TrueHD 7.1 Qman) [UTR]"

IMDB Details
Description:

While on a journey of physical and spiritual healing, a brilliant neurosurgeon is drawn into the world of the mystic arts.

Genre:

Action, Adventure, Fantasy, Sci-Fi

Download Torrent (Magnet)
Download Torrent (File)
Seeds: 71
Leechers: 50
Completed: 466 
Last Checked: 04-10-2019 16:08:52


Loading...
Details
Title:Doctor Strange (2016) (2160p BluRay x265 HEVC 10bit TrueHD 7.1 Qman) [UTR]
Description:





Media Information
General
Format                                   : Matroska
Format version                           : Version 4 / Version 2
File size                                : 11.6 GiB
Duration                                 : 1 h 54 min
Overall bit rate mode                    : Variable
Overall bit rate                         : 14.5 Mb/s
Encoded date                             : UTC 2019-10-03 16:49:14
Writing application                      : mkvmerge v36.0.0 ('Is That Jazz?') 64-bit
Writing library                          : libebml v1.3.9 + libmatroska v1.5.2

Video
ID                                       : 1
Format                                   : HEVC
Format/Info                              : High Efficiency Video Coding
Format profile                           : Main [email protected]@Main
Codec ID                                 : V_MPEGH/ISO/HEVC
Duration                                 : 1 h 54 min
Bit rate                                 : 9 606 kb/s
Width                                    : 3 840 pixels
Height                                   : 1 600 pixels
Display aspect ratio                     : 2.40:1
Frame rate mode                          : Constant
Frame rate                               : 23.976 (24000/1001) FPS
Color space                              : YUV
Chroma subsampling                       : 4:2:0
Bit depth                                : 10 bits
Bits/(Pixel*Frame)                       : 0.065
Stream size                              : 7.71 GiB (66%)
Writing library                          : x265 3.1+8-21db162c8622:[Windows][MSVC 1921][64 bit] 10bit
Encoding settings                        : cpuid=1111039 / frame-threads=4 / numa-pools=16 / wpp / no-pmode / no-pme / no-psnr / no-ssim / log-level=2 / input-csp=1 / input-res=3840x1600 / interlace=0 / total-frames=165401 / level-idc=0 / high-tier=1 / uhd-bd=0 / ref=4 / no-allow-non-conformance / no-repeat-headers / annexb / no-aud / no-hrd / info / hash=0 / no-temporal-layers / open-gop / min-keyint=23 / keyint=250 / gop-lookahead=0 / bframes=8 / b-adapt=2 / b-pyramid / bframe-bias=0 / rc-lookahead=80 / lookahead-slices=4 / scenecut=40 / radl=0 / no-splice / no-intra-refresh / ctu=64 / min-cu-size=8 / no-rect / no-amp / max-tu-size=32 / tu-inter-depth=1 / tu-intra-depth=1 / limit-tu=0 / rdoq-level=2 / dynamic-rd=0.00 / no-ssim-rd / signhide / no-tskip / nr-intra=0 / nr-inter=0 / no-constrained-intra / no-strong-intra-smoothing / max-merge=3 / limit-refs=3 / limit-modes / me=3 / subme=5 / merange=57 / temporal-mvp / no-hme / weightp / no-weightb / no-analyze-src-pics / deblock=-1:-1 / no-sao / no-sao-non-deblock / rd=4 / no-early-skip / no-rskip / no-fast-intra / no-tskip-fast / no-cu-lossless / no-b-intra / no-splitrd-skip / rdpenalty=0 / psy-rd=1.00 / psy-rdoq=5.00 / no-rd-refine / no-lossless / cbqpoffs=0 / crqpoffs=0 / rc=crf / crf=19.5 / qcomp=0.70 / qpstep=4 / stats-write=0 / stats-read=0 / ipratio=1.40 / pbratio=1.30 / aq-mode=2 / aq-strength=1.00 / cutree / zone-count=0 / no-strict-cbr / qg-size=32 / no-rc-grain / qpmax=69 / qpmin=0 / no-const-vbv / sar=0 / overscan=0 / videoformat=5 / range=0 / colorprim=2 / transfer=2 / colormatrix=2 / chromaloc=0 / display-window=0cll=0,0 / min-luma=0 / max-luma=1023 / log2-max-poc-lsb=8 / vui-timing-info / vui-hrd-info / slices=1 / no-opt-qp-pps / no-opt-ref-list-length-pps / no-multi-pass-opt-rps / scenecut-bias=0.05 / no-opt-cu-delta-qp / no-aq-motion / no-hdr / no-hdr-opt / no-dhdr10-opt / no-idr-recovery-sei / analysis-reuse-level=5 / scale-factor=0 / refine-intra=0 / refine-inter=0 / refine-mv=0 / refine-ctu-distortion=0 / no-limit-sao / ctu-info=0 / no-lowpass-dct / refine-analysis-type=0 / copy-pic=1 / max-ausize-factor=1.0 / no-dynamic-refine / no-single-sei / no-hevc-aq / no-svt / no-field / qp-adaptation-range=1.00
Language                                 : English
Default                                  : Yes
Forced                                   : No

Audio
ID                                       : 2
Format                                   : Atmos / TrueHD
Codec ID                                 : A_TRUEHD
Duration                                 : 1 h 54 min
Bit rate mode                            : Variable
Bit rate                                 : 4 784 kb/s
Maximum bit rate                         : 7 317 kb/s
Channel(s)                               : Object Based / 8 channels
Channel positions                        : Object Based / Front: L C R, Side: L R, Back: L R, LFE
Sampling rate                            :  / 48.0 kHz
Frame rate                               : 1 200.000 FPS (40 spf)
Compression mode                         : Lossless
Stream size                              : 3.84 GiB (33%)
Language                                 : English
Default                                  : No
Forced                                   : No

Subtitle #1
ID                                       : 3
Format                                   : VobSub
Muxing mode                              : zlib
Codec ID                                 : S_VOBSUB
Codec ID/Info                            : Picture based subtitle format used on DVDs
Duration                                 : 1 h 52 min
Bit rate                                 : 7 641 b/s
Count of elements                        : 1284
Stream size                              : 6.13 MiB (0%)
Language                                 : English
Default                                  : Yes
Forced                                   : No

Subtitle #2
ID                                       : 4
Format                                   : VobSub
Muxing mode                              : zlib
Codec ID                                 : S_VOBSUB
Codec ID/Info                            : Picture based subtitle format used on DVDs
Duration                                 : 1 h 52 min
Bit rate                                 : 8 160 b/s
Count of elements                        : 1278
Stream size                              : 6.56 MiB (0%)
Language                                 : Greek
Default                                  : No
Forced                                   : No

Menu
00:00:00.000                             : en:Prologue
00:04:34.274                             : en:The Good Doctor
00:10:16.533                             : en:Medicine And Mania
00:18:31.861                             : en:Kamar-Taj
00:24:36.725                             : en:Open Your Eye
00:31:40.190                             : en:The Mystic Arts
00:38:33.520                             : en:Surrender
00:43:15.843                             : en:Infinite Dangers
00:48:24.235                             : en:Eye Of Agamotto
00:55:34.206                             : en:Sanctum Siege
01:05:04.067                             : en:Astral Battle
01:12:38.145                             : en:Manhattan Mirror Dimension
01:22:14.054                             : en:It's Not About You
01:28:28.345                             : en:Defending Hong Kong
01:35:00.612                             : en:The Dark Dimension
01:45:06.217                             : en:End Credits


Source Information
Release: Doctor.Strange.2016.UHD.BluRay.2160p.TrueHD.Atmos.7.1.HEVC.REMUX-FraMeSToR Thanks..!


Note From UTR
Whilst we are happy for our releases to be re-posted on a platform we aren't on, please do so in an 'as-is' format. We ask that you do not create a new torrent, include all descriptions you see above including the UTR logo, tags, notes and screenshots. If you'd like to become a permanent poster on a website we don't post to, feel free to get in contact with a UTR member.
If possible please donate: BTC 1QA5fum5AyXvWzdVCkQzUNvw3Ef15fHRaR



Category:Movies > HEVC/x265
Lang:English  English
Total Size:11.62 GB
Info Hash:e35d0b39c6cc39ba69ab8c39255df2420753449c
Added By:UTR
Date Added:04-10-2019 16:08:47

Files

File List: 
 File Size
Doctor.Strange.(2016).2160p.BluRay.10-bit.x265.TrueHD.7.1 Qman[UTR].mkv11.62 GB



Loading...
Comments

There are currently no comments. Be the first one to write something !