ncis ethd joker 2019 the rookie AD ASTRA the lion king 2019 ddr mr robot s04e02 Power the rookie s02e03 ballers s05e08 family guy angel has fallen 2019 stuber 2019 joker anna 2019 batwoman south park the walking dead avengers endgame 2019 supergirl s05e02 crawl 2019 the walking dead s10e01 yts spider man far from home 2019 The Flash titans s02e06 fast furious presents hobbs shaw 2019 Nascar aladdin 2019 supergirl rambo last blood 2019 el camino a breaking bad movie 2019 Batwoman s01e02 gemini man 2019 formula 1 浆果儿 godfather of harlem s01e03 the addams family None the walking dead s10e02 evo ncis los angeles s11e03 walking dead el camino 0 family guy s18e03 Last Week Tonight mr robot ettv scary stories to tell in the dark 2019 succession s02e10 ready or not 2019 zombieland double tap 2019 the lion king titans it chapter two 2019 hustlers 2019 etrg once upon a time in hollywood 2019 toy story 4 2019 madam secretary s06e02 HINDI power s06e07 xxx Once Upon a Time in Hollywood power s06e08 ballers the irishman 2019 succession etmovies proper 
Warning! Use a VPN,When Downloading Torrents!
Your IP Address is 3.227.2.109. Location is United States
Your Internet Provider is tracking your torrent activity! Hide your IP ADDRESS with a VPN!
We strongly recommend using ExpressVPN to anonymize your torrenting. 30 Day Money Back Guarantee!
Try it Now!
ETTV Recommended TV Shows
Prodigal.Son.S01E04.HDTV.x264-KILLERS[ettv] torrent
9-1-1.S03E04.PROPER.WEB.x264-TBS[ettv] torrent
The.Good.Doctor.S03E04.HDTV.x264-SVA[ettv] torrent
WWE Monday Night Raw 2019 10 14 HDTV x264-NWCHD [TJET] torrent
All.Rise.S01E04.HDTV.x264-KILLERS[ettv] torrent
Bull.2016.S04E04.HDTV.x264-BATV[ettv] torrent
Black.Lightning.S03E02.HDTV.x264-KILLERS[ettv] torrent
The.Deuce.S03E06.WEB.h264-TBS[ettv] torrent

ETTV Recommended SD
American Hunt.2019.HDRip.XviD.AC3-EVO torrent
Pig.Hag.2019.HDRip.XviD.AC3-EVO torrent
The.Drone.2019.HDRip.XviD.AC3-EVO torrent
100.Acres.Of.Hell.2019.HDRip.XviD.AC3-EVO torrent

ETTV Recommended HD
Crawl.2019.MULTi.BluRay.1080p.DTS-HD.MA.7.1.HEVC-DDR[EtHD] torrent
Shadow.Wolves.2019.1080p.Blu-ray.DTS-HD.MA.5.1.HEVC-DDR[EtHD] torrent
Pig.Hag.2019.1080p.WEB-DL.H264.AC3-EVO[EtHD] torrent
Satanic.Panic.2019.1080p.BluRay.x264-ROVERS[EtHD] torrent

ETTV Recommended UHD
Scarface.1983.MULTi.UHD.Blu-ray.2160p.HDR.DTS-X.7.1.HEVC-DDR torrent
Hellboy 2004.MULTi.UHD.Blu-ray.2160p.HDR.Atmos.7.1.HEVC-DDR torrent
The.Death.and.Return.of.Superman.2019.MULTi.UHD.Blu-ray.2160p.HDR.DTS-HDMA.5.1.HEVC-DDR torrent
American.Gangster.2007.MULTi.UHD.Blu-ray.2160p.HDR.DTS-X.7.1.HEVC.DDR torrent

ETTV Recommended Cam
Zombieland Double Tap 2019 720p HDCAM-GETB8 torrent
The Addams Family 2019 720p HDCAM-GETB8 torrent
Dora and the Lost City of Gold 2019 720p NEW HDCAM-GETB8 torrent
Joker.2019.HDTS.x264.AC3-ETRG torrent

ETTV Recommended Foreign
War.2019.Hindi.1CD.Pre.Rip.XviD.MP3.Multi.SuB.DusIcTv torrent
La.camarista.2018.REPACK.1080p.AMZN.WEB-DL.DDP5.1.H.264-NTG[EtHD] torrent
Little Monsters (2019) 720p HDRip [Hindi-Dub] Dul-Audio x264 1XBET - KatmovieHD torrent
Asterix And Obelix Mansion Of The Gods (2014) x264 720p UNCUT BluRay [Hindi ORG DD 2.0 + ENG 2.0] Exclusive By DREDD torrent


Download Torrent "Homecoming (2018) Season 01 S01 (2160p AMZN WEBRip NVENC HEVC 10bit EAC3 5...."

IMDB Details
Description:

Heidi works at Homecoming, a facility helping soldiers transition to civilian life. Years later when the Department of Defense questions why she left, Heidi realizes there's a whole other story behind the one she's been telling herself.

Genre:

Drama, Thriller

Download Torrent (Magnet)
Download Torrent (File)
Seeds: 85
Leechers: 168
Completed: 914 
Last Checked: 05-10-2019 18:16:10


Loading...
Details
Title:Homecoming (2018) Season 01 S01 (2160p AMZN WEBRip NVENC HEVC 10bit EAC3 5....
Description:



Media Information
General
Format                                   : Matroska
Format version                           : Version 4 / Version 2
File size                                : 1.04 GiB
Duration                                 : 26 min 52 s
Overall bit rate                         : 5 535 kb/s
Movie name                               : Homecoming S01E01 Mandatory  (2160p NV 10bit Joy)[UTR]
Encoded date                             : UTC 2019-10-03 23:01:23
Writing application                      : mkvmerge v34.0.0 ('Sight and Seen') 64-bit
Writing library                          : libebml v1.3.7 + libmatroska v1.5.0
Cover                                    : Yes
Attachments                              : cover.png
Writing frontend                         : StaxRip v2.0.2.0, a JoyBell Encode

Video
ID                                       : 1
Format                                   : HEVC
Format/Info                              : High Efficiency Video Coding
Format profile                           : Main [email protected]@High
Codec ID                                 : V_MPEGH/ISO/HEVC
Duration                                 : 26 min 52 s
Bit rate                                 : 4 887 kb/s
Width                                    : 3 840 pixels
Height                                   : 2 160 pixels
Display aspect ratio                     : 16:9
Frame rate mode                          : Constant
Frame rate                               : 23.976 (24000/1001) FPS
Color space                              : YUV
Chroma subsampling                       : 4:2:0
Bit depth                                : 10 bits
Bits/(Pixel*Frame)                       : 0.025
Stream size                              : 939 MiB (88%)
Default                                  : Yes
Forced                                   : No
Color range                              : Limited
Matrix coefficients                      : BT.709

Audio
ID                                       : 2
Format                                   : E-AC-3
Format/Info                              : Enhanced Audio Coding 3
Format settings, Endianness              : Big
Codec ID                                 : A_EAC3
Duration                                 : 26 min 52 s
Bit rate mode                            : Constant
Bit rate                                 : 640 kb/s
Channel(s)                               : 6 channels
Channel positions                        : Front: L C R, Side: L R, LFE
Sampling rate                            : 48.0 kHz
Frame rate                               : 187.500 FPS (256 spf)
Compression mode                         : Lossy
Stream size                              : 123 MiB (12%)
Language                                 : English
Default                                  : No
Forced                                   : No

Subtitle #1
ID                                       : 3
Format                                   : UTF-8
Codec ID                                 : S_TEXT/UTF8
Codec ID/Info                            : UTF-8 Plain Text
Duration                                 : 24 min 4 s
Bit rate                                 : 105 b/s
Count of elements                        : 544
Stream size                              : 18.6 KiB (0%)
Language                                 : English
Default                                  : No
Forced                                   : No

Subtitle #2
ID                                       : 4
Format                                   : UTF-8
Codec ID                                 : S_TEXT/UTF8
Codec ID/Info                            : UTF-8 Plain Text
Duration                                 : 25 min 39 s
Bit rate                                 : 99 b/s
Count of elements                        : 553
Stream size                              : 18.6 KiB (0%)
Language                                 : English
Default                                  : No
Forced                                   : No

Subtitle #3
ID                                       : 5
Format                                   : UTF-8
Codec ID                                 : S_TEXT/UTF8
Codec ID/Info                            : UTF-8 Plain Text
Duration                                 : 23 min 59 s
Bit rate                                 : 164 b/s
Count of elements                        : 500
Stream size                              : 29.0 KiB (0%)
Language                                 : Arabic
Default                                  : No
Forced                                   : No

Subtitle #4
ID                                       : 6
Format                                   : UTF-8
Codec ID                                 : S_TEXT/UTF8
Codec ID/Info                            : UTF-8 Plain Text
Duration                                 : 23 min 24 s
Bit rate                                 : 94 b/s
Count of elements                        : 496
Stream size                              : 16.2 KiB (0%)
Language                                 : Danish
Default                                  : No
Forced                                   : No

Subtitle #5
ID                                       : 7
Format                                   : UTF-8
Codec ID                                 : S_TEXT/UTF8
Codec ID/Info                            : UTF-8 Plain Text
Duration                                 : 23 min 24 s
Bit rate                                 : 92 b/s
Count of elements                        : 336
Stream size                              : 15.9 KiB (0%)
Language                                 : German
Default                                  : No
Forced                                   : No

Subtitle #6
ID                                       : 8
Format                                   : UTF-8
Codec ID                                 : S_TEXT/UTF8
Codec ID/Info                            : UTF-8 Plain Text
Duration                                 : 23 min 59 s
Bit rate                                 : 91 b/s
Count of elements                        : 499
Stream size                              : 16.0 KiB (0%)
Language                                 : Spanish
Default                                  : No
Forced                                   : No

Subtitle #7
ID                                       : 9
Format                                   : UTF-8
Codec ID                                 : S_TEXT/UTF8
Codec ID/Info                            : UTF-8 Plain Text
Duration                                 : 23 min 59 s
Bit rate                                 : 90 b/s
Count of elements                        : 498
Stream size                              : 16.0 KiB (0%)
Language                                 : Spanish
Default                                  : No
Forced                                   : No

Subtitle #8
ID                                       : 10
Format                                   : UTF-8
Codec ID                                 : S_TEXT/UTF8
Codec ID/Info                            : UTF-8 Plain Text
Duration                                 : 23 min 59 s
Bit rate                                 : 94 b/s
Count of elements                        : 497
Stream size                              : 16.6 KiB (0%)
Language                                 : Finnish
Default                                  : No
Forced                                   : No

Subtitle #9
ID                                       : 11
Format                                   : UTF-8
Codec ID                                 : S_TEXT/UTF8
Codec ID/Info                            : UTF-8 Plain Text
Duration                                 : 23 min 24 s
Bit rate                                 : 89 b/s
Count of elements                        : 495
Stream size                              : 15.4 KiB (0%)
Language                                 : French
Default                                  : No
Forced                                   : No

Subtitle #10
ID                                       : 12
Format                                   : UTF-8
Codec ID                                 : S_TEXT/UTF8
Codec ID/Info                            : UTF-8 Plain Text
Duration                                 : 23 min 59 s
Bit rate                                 : 248 b/s
Count of elements                        : 500
Stream size                              : 43.6 KiB (0%)
Language                                 : Hindi
Default                                  : No
Forced                                   : No

Subtitle #11
ID                                       : 13
Format                                   : UTF-8
Codec ID                                 : S_TEXT/UTF8
Codec ID/Info                            : UTF-8 Plain Text
Duration                                 : 23 min 59 s
Bit rate                                 : 75 b/s
Count of elements                        : 498
Stream size                              : 13.3 KiB (0%)
Language                                 : Indonesian
Default                                  : No
Forced                                   : No

Subtitle #12
ID                                       : 14
Format                                   : UTF-8
Codec ID                                 : S_TEXT/UTF8
Codec ID/Info                            : UTF-8 Plain Text
Duration                                 : 23 min 24 s
Bit rate                                 : 98 b/s
Count of elements                        : 497
Stream size                              : 16.9 KiB (0%)
Language                                 : Italian
Default                                  : No
Forced                                   : No

Subtitle #13
ID                                       : 15
Format                                   : UTF-8
Codec ID                                 : S_TEXT/UTF8
Codec ID/Info                            : UTF-8 Plain Text
Duration                                 : 23 min 59 s
Bit rate                                 : 110 b/s
Count of elements                        : 499
Stream size                              : 19.5 KiB (0%)
Language                                 : Korean
Default                                  : No
Forced                                   : No

Subtitle #14
ID                                       : 16
Format                                   : UTF-8
Codec ID                                 : S_TEXT/UTF8
Codec ID/Info                            : UTF-8 Plain Text
Duration                                 : 23 min 59 s
Bit rate                                 : 87 b/s
Count of elements                        : 498
Stream size                              : 15.4 KiB (0%)
Language                                 : Norwegian Bokmal
Default                                  : No
Forced                                   : No

Subtitle #15
ID                                       : 17
Format                                   : UTF-8
Codec ID                                 : S_TEXT/UTF8
Codec ID/Info                            : UTF-8 Plain Text
Duration                                 : 23 min 24 s
Bit rate                                 : 81 b/s
Count of elements                        : 485
Stream size                              : 14.0 KiB (0%)
Language                                 : Dutch
Default                                  : No
Forced                                   : No

Subtitle #16
ID                                       : 18
Format                                   : UTF-8
Codec ID                                 : S_TEXT/UTF8
Codec ID/Info                            : UTF-8 Plain Text
Duration                                 : 23 min 59 s
Bit rate                                 : 79 b/s
Count of elements                        : 496
Stream size                              : 14.0 KiB (0%)
Language                                 : Polish
Default                                  : No
Forced                                   : No

Subtitle #17
ID                                       : 19
Format                                   : UTF-8
Codec ID                                 : S_TEXT/UTF8
Codec ID/Info                            : UTF-8 Plain Text
Duration                                 : 23 min 59 s
Bit rate                                 : 96 b/s
Count of elements                        : 499
Stream size                              : 16.9 KiB (0%)
Language                                 : Portuguese
Default                                  : No
Forced                                   : No

Subtitle #18
ID                                       : 20
Format                                   : UTF-8
Codec ID                                 : S_TEXT/UTF8
Codec ID/Info                            : UTF-8 Plain Text
Duration                                 : 23 min 59 s
Bit rate                                 : 141 b/s
Count of elements                        : 500
Stream size                              : 24.9 KiB (0%)
Language                                 : Russian
Default                                  : No
Forced                                   : No

Subtitle #19
ID                                       : 21
Format                                   : UTF-8
Codec ID                                 : S_TEXT/UTF8
Codec ID/Info                            : UTF-8 Plain Text
Duration                                 : 23 min 59 s
Bit rate                                 : 91 b/s
Count of elements                        : 496
Stream size                              : 16.1 KiB (0%)
Language                                 : Swedish
Default                                  : No
Forced                                   : No

Subtitle #20
ID                                       : 22
Format                                   : UTF-8
Codec ID                                 : S_TEXT/UTF8
Codec ID/Info                            : UTF-8 Plain Text
Duration                                 : 23 min 59 s
Bit rate                                 : 258 b/s
Count of elements                        : 499
Stream size                              : 45.4 KiB (0%)
Language                                 : Tamil
Default                                  : No
Forced                                   : No

Subtitle #21
ID                                       : 23
Format                                   : UTF-8
Codec ID                                 : S_TEXT/UTF8
Codec ID/Info                            : UTF-8 Plain Text
Duration                                 : 23 min 59 s
Bit rate                                 : 234 b/s
Count of elements                        : 498
Stream size                              : 41.1 KiB (0%)
Language                                 : Telugu
Default                                  : No
Forced                                   : No

Subtitle #22
ID                                       : 24
Format                                   : UTF-8
Codec ID                                 : S_TEXT/UTF8
Codec ID/Info                            : UTF-8 Plain Text
Duration                                 : 23 min 24 s
Bit rate                                 : 85 b/s
Count of elements                        : 496
Stream size                              : 14.7 KiB (0%)
Language                                 : Turkish
Default                                  : No
Forced                                   : No

Subtitle #23
ID                                       : 25
Format                                   : UTF-8
Codec ID                                 : S_TEXT/UTF8
Codec ID/Info                            : UTF-8 Plain Text
Duration                                 : 23 min 59 s
Bit rate                                 : 87 b/s
Count of elements                        : 500
Stream size                              : 15.4 KiB (0%)
Language                                 : Chinese
Default                                  : No
Forced                                   : No

Subtitle #24
ID                                       : 26
Format                                   : UTF-8
Codec ID                                 : S_TEXT/UTF8
Codec ID/Info                            : UTF-8 Plain Text
Duration                                 : 23 min 59 s
Bit rate                                 : 83 b/s
Count of elements                        : 500
Stream size                              : 14.6 KiB (0%)
Language                                 : Chinese
Default                                  : No
Forced                                   : No

Menu
00:00:00.000                             : en:Amazon Original
00:00:05.000                             : en:Title Sequence
00:00:40.000                             : en:Heidi gets settled into her new office
00:02:37.000                             : en:Thomas has a few questions for Heidi
00:04:50.000                             : en:Walter is eager for a busy, clean life
00:06:58.000                             : en:The DOD is seeking hard data and information
00:11:49.000                             : en:Heidi inspires Anthony
00:14:57.000                             : en:The patients go through interview prep
00:18:35.000                             : en:Walter talks to Heidi about losing control
00:21:35.000                             : en:Thomas talks to Heidi about her time at the Homecoming program
00:24:37.000                             : en:End Credits



Source InformationRelease: 
Homecoming.S01.2160p.AMZN.WEBRip.DDP5.1.x264-AJP69 [125GB]



Note From UTR
Whilst we are happy for our releases to be re-posted on a platform we aren't on, please do so in an 'as-is' format. We ask that you do not create a new torrent, include all descriptions you see above including the UTR logo, tags, notes and screenshots. If you'd like to become a permanent poster on a website we don't post to, feel free to get in contact with a UTR member.
If possible please donate: BTC 1QA5fum5AyXvWzdVCkQzUNvw3Ef15fHRaR




Category:TV > HEVC/x265
Lang:English  English
Total Size:11.92 GB
Info Hash:33ba324b541d2ee9d68c3fd6a112a772edc0516a
Added By:UTR
Date Added:05-10-2019 18:16:05

Files

File List: 
 File Size
Encoded by JoyBell (UTR).txt3.20 kB
folder.jpg13.51 kB
Homecoming S01E01 Mandatory (2160p NV 10bit Joy).mkv1.04 GB
Homecoming S01E02 Pineapple (2160p NV 10bit Joy).mkv1.05 GB
Homecoming S01E03 Optics (2160p NV 10bit Joy).mkv1.29 GB
Homecoming S01E04 Redwood (2160p NV 10bit Joy).mkv1.21 GB
Homecoming S01E05 Helping (2160p NV 10bit Joy).mkv1.16 GB
Homecoming S01E06 Toys (2160p NV 10bit Joy).mkv1.26 GB
Homecoming S01E07 Test (2160p NV 10bit Joy).mkv949 MB
Homecoming S01E08 Protocol (2160p NV 10bit Joy).mkv1.23 GB
Homecoming S01E09 Work (2160p NV 10bit Joy).mkv1.29 GB
Homecoming S01E10 Stop (2160p NV 10bit Joy).mkv1.46 GB
How to play HEVC (THIS FILE).txt3.82 kB
Ninite K-Lite Codecs Unattended Silent Installer and Updater.website561.00 B



Loading...
Comments

There are currently no comments. Be the first one to write something !