charlies angels 2019 Titans titans s02e11 his dark materials the mandalorian s01e01 ford v ferrari 2019 once upon a time in hollywood ddr the good doctor s03e08 Rick And Morty S04E02 bull Angel has fallen it Chapter two rick and morty silicon valley S06E04 rambo last blood 2019 The Mandalorian terminator dark fate 2019 maleficent mistress of evil 2019 wwe xxx hustlers 2019 the walking dead s10e07 mandalorian batwoman mr robot s04e07 batwoman s01e07 all rise s01e08 Supergirl watchmen zombieland double tap 2019 silicon valley the crown all rise joker gemini man 2019 Star Wars Jedi Fallen Order hindi good doctor bull s04e08 watchmen s01e05 see the mandalorian s01e02 etmovies ethd evo The Morning Show the rookie s02e08 Last Week Tonight The Flash yts It supergirl s05e07 harriet 2019 ettv godfather of harlem s01e08 etrg bluff city law s01e09 joker 2019 the irishman 2019 the good doctor all american s02e06 0 Mr Robot His Dark Materials S01E03 angel has fallen 2019 black lightning black lightning s03e06 the walking dead Shameless s10e02 fast furious presents hobbs shaw 2019 gemini man 
Warning! Use a V.P.N When Downloading Torrents!
Your IP Address is 3.93.75.242. Location is United States
Your Internet Provider is tracking your torrent activity! Hide your IP ADDRESS with a V.P.N!
We strongly recommend using ExpressV.P.N to anonymize your torrenting. 30 Day Money Back Guarantee!
Try it Now!
ETTV Recommended TV Shows
NCIS.New.Orleans.S06E08.HDTV.x264-KILLERS[ettv] torrent
The.Resident.S03E07.WEB.x264-TBS[ettv] torrent
New.Amsterdam.2018.S02E09.HDTV.x264-KILLERS[ettv] torrent
The.Flash.2014.S06E06.HDTV.x264-SVA[ettv] torrent
Empire.2015.S06E07.WEB.x264-XLF[ettv] torrent
NCIS.S17E08.HDTV.x264-SVA[ettv] torrent
FBI.S02E08.HDTV.x264-SVA[ettv] torrent
Arrow.S08E05.HDTV.x264-SVA[ettv] torrent

ETTV Recommended SD
It.Chapter.Two.2019.HDRip.XviD.AC3-EVO[EtMovies] torrent
The Goldfinch.2019.HDRip.XviD.AC3-EVO[EtMovies] torrent
Killerman.2019.HDRip.XViD-ETRG torrent
Gemini.Man.2019.HDRip.XViD-ETRG torrent

ETTV Recommended HD
Gemini.Man.2019.1080p.WEB-DL.DD5.1.H264-CMRG[EtHD] torrent
Pretty.Little.Stalker.2018.1080p.WEB-DL.H264.AC3-EVO[EtHD] torrent
Palm.Beach.2019.1080p.BluRay.x264-PFa[EtHD] torrent
Random Acts of Christmas 2019 Lifetime 720p Web X264 Solar torrent

ETTV Recommended UHD
The Boss Baby 2017.MULTi.UHD.Blu-ray.2160p.HDR.Atmos.7.1.HEVC-DDR torrent
Three.Billboards.Outside.Ebbing.Missouri.2017.MULTi.UHD.Blu-ray.2160p.HDR.DTS-HDMA.5.1.HEVC-DDR torrent
Angel.Has.Fallen.2019.MULTi.UHD.BluRay.2160p.HDR.Atmos.7.1.HEVC-DDR torrent
Midsommar.2019.MULTi.UHD.Bluray.2160p.HDR.DTS-HDMA.5.1.HEVC-DDR torrent

ETTV Recommended Cam
Motherless Brooklyn 2019 NEW HDCAM x264-ETRG torrent
Hustlers 2019 NEW HDTS x264 AC3-ETRG torrent
Ford v Ferrari 2019 NEW HDCAM X264-ETRG torrent
Charlies Angels 2019 NEW HD-TS  x264-ETRG torrent

ETTV Recommended Foreign
Go.The.Unforgettable.Party.2019.iNTERNAL.MULTi.1080p.WEB.x264-CiELOS[EtHD] torrent
Attack On Titan (2015) x264 720p UNRATED BluRay Eng Subs {Dual Audio} [Hindi ORG DD 2.0 + JAP 2.0] Exclusive By DREDD torrent
Jind Jaan 2019 x264 720p SD Punjabi GOPISAHI torrent
Dear Zindagi 2016 BluRay Hindi 720p x264 AAC 5.1 ESub - mkvCinemas [Telly] torrent


Download Torrent "Suicide Squad (2016)Mp-4 X264 1080p AAC[DSD]"

IMDB Details
Description:

A secret government agency recruits some of the most dangerous incarcerated super-villains to form a defensive task force. Their first mission: save the world from the apocalypse.

Genre:

Action, Adventure, Fantasy, Sci-Fi

Download Torrent (Magnet)
Download Torrent (File)
Seeds: 161
Leechers: 35
Completed: 608 
Last Checked: 05-10-2019 22:35:56


Details
Title:Suicide Squad (2016)Mp-4 X264 1080p AAC[DSD]
Description:
Seedboxed!!

Original Quality




General

Complete name                            : SUICIDE SQUAD.mp4

Format                                   : MPEG-4

Format profile                           : Base Media / Version 2

Codec ID                                 : mp42 (mp42/isom/avc1)

File size                                : 1.93 GiB

Duration                                 : 2 h 2 min

Overall bit rate mode                    : Variable

Overall bit rate                         : 2 244 kb/s

Movie name                               : Suicide Squad

Performer                                : David Ayer

Performer/Sorted by                      : David Ayer

Genre                                    : Action & Adventure & Crime & Fantasy & Science Fiction

Description                              : From DC Comics comes the Suicide Squad, an antihero team of incarcerated supervillains who act as deniable assets for the United States government, undertaking high-risk black ops missions in exchange for commuted prison sentences.

Encoded date                             : UTC 2019-10-04 22:43:33

Tagged date                              : UTC 2019-10-04 23:36:19

Writing application                      : DVDFab 11.0.5.3

Cover                                    : Yes

Title/Sort                               : Suicide Squad

LongDescription                          : From DC Comics comes the Suicide Squad, an antihero team of incarcerated supervillains who act as deniable assets for the United States government, undertaking high-risk black ops missions in exchange for commuted prison sentences.


Video

ID                                       : 1

Format                                   : AVC

Format/Info                              : Advanced Video Codec

Format profile                           : [email protected]

Format settings                          : CABAC / 2 Ref Frames

Format settings, CABAC                   : Yes

Format settings, RefFrames               : 2 frames

Format settings, GOP                     : M=1, N=24

Codec ID                                 : avc1

Codec ID/Info                            : Advanced Video Coding

Duration                                 : 2 h 2 min

Bit rate mode                            : Variable

Bit rate                                 : 1 784 kb/s

Maximum bit rate                         : 2 763 kb/s

Width                                    : 1 920 pixels

Height                                   : 800 pixels

Display aspect ratio                     : 2.40:1

Frame rate mode                          : Constant

Frame rate                               : 23.976 (24000/1001) FPS

Color space                              : YUV

Chroma subsampling                       : 4:2:0

Bit depth                                : 8 bits

Scan type                                : Progressive

Bits/(Pixel*Frame)                       : 0.048

Stream size                              : 1.53 GiB (80%)

Encoded date                             : UTC 2019-10-04 22:43:33

Tagged date                              : UTC 2019-10-04 23:36:19

Color primaries                          : BT.709

Transfer characteristics                 : BT.709

Matrix coefficients                      : BT.709

Menus                                    : 4


Audio

ID                                       : 2

Format                                   : AAC

Format/Info                              : Advanced Audio Codec

Format profile                           : LC

Codec ID                                 : mp4a-40-2

Duration                                 : 2 h 2 min

Bit rate mode                            : Variable

Bit rate                                 : 448 kb/s

Maximum bit rate                         : 455 kb/s

Channel(s)                               : 6 channels

Channel positions                        : Front: L C R, Side: L R, LFE

Sampling rate                            : 48.0 kHz

Frame rate                               : 46.875 FPS (1024 SPF)

Compression mode                         : Lossy

Stream size                              : 394 MiB (20%)

Title                                    : English (aac 5.1)

Language                                 : English

Default                                  : Yes

Alternate group                          : 1

Encoded date                             : UTC 2019-10-04 22:43:33

Tagged date                              : UTC 2019-10-04 23:36:19


Text

ID                                       : 3

Format                                   : VobSub

Codec ID                                 : mp4s-E0

Codec ID/Info                            : The same subtitle format used on DVDs

Duration                                 : 2 h 2 min

Bit rate mode                            : Variable

Bit rate                                 : 7 982 b/s

Maximum bit rate                         : 4 249 Mb/s

Stream size                              : 7.01 MiB (0%)

Language                                 : English

Default                                  : Yes

Forced                                   : No

Alternate group                          : 2

Encoded date                             : UTC 2019-10-04 22:43:33


Tagged date                              : UTC 2019-10-04 23:36:16

Category:Movies > HD 1080p
Lang:English  English
Total Size:1.93 GB
Info Hash:2a4e9a1f9c2da2518c5f575f2b8883b6cb22c404
Added By:DaScubaDude
Date Added:05-10-2019 22:35:53

  

Files

File List: 
 File Size
SUICIDE SQUAD.mp41.93 GB



Loading...
Comments

There are currently no comments. Be the first one to write something !