gold rush harley quinn treadstone etrg hindi 21 bridges 2019 the flash rq.mp4 joker 2019 seal team His Dark Materials supernatural once upon a time in hollywood 2019 big bang theory español blue bloods etmovies south park joker ford v ferrari 2019 yts blacklist the irishman 2019 evo the mandalorian s01e04 arrow 0 knives out 2019 Marriage Story watchmen vikings frozen ii 2019 gold rush s10e09 charmed s02e08 Christmas  the mandalorian S01E05 the irishman supergirl gemini man 2019 the blacklist s07e09 rick and morty van helsing the walking dead hustlers 2019 terminator dark fate 2019 xxx rambo last blood 2019 the mandalorian Ad Astra charmed Silicon Valley ettv ad astra 2019 see s01e08 ethd angel has fallen 2019 jumanji the next level 2019 blue bloods s10e10 the blacklist star wars queen slim 2019 see the morning show supernatural s15e07 mandalorian vikings s06e02 ddr vikings s06e01 mandalorian s01e05 servant wwe for all mankind legacies 
Warning! Use a V.P.N When Downloading Torrents!
Your IP Address is 18.207.238.169. Location is United States
Your Internet Provider is tracking your torrent activity! Hide your IP ADDRESS with a V.P.N!
We strongly recommend using ExpressV.P.N to anonymize your torrenting. 30 Day Money Back Guarantee!
Try it Now!
ETTV Recommended TV Shows
Hawaii.Five-0.2010.S10E10.HDTV.x264-SVA[ettv] torrent
The.Blacklist.S07E09.WEB.h264-TRUMP[ettv] torrent
Shameless.US.S10E05.WEB.h264-TBS[ettv] torrent
Ray.Donovan.S07E04.WEB.h264-TBS[ettv] torrent

ETTV Recommended SD
The.Dunes.2019.HDRip.XviD.AC3-EVO torrent
The.Operative.2019.BRRip.XviD.AC3-EVO torrent
The.Man.in.The.Trunk.2019.BRRip.XviD.AC3-EVO torrent
Doctor.Sleep.2019.HC.HDRip.XviD.AC3-EVO[EtMovies] torrent

ETTV Recommended HD
Little.Joe.2019.1080p.AMZN.WEB-DL.DDP5.1.H.264-NTG[EtHD] torrent
Dark.Light.2019.1080p.AMZN.WEB-DL.DDP5.1.H.264-NTG[EtHD] torrent
Bottom of the 9th.2019.720p.WEB-DL.x264.AAC-ETRG torrent
Same.Time.Next.Christmas.2019.1080p.HULU.WEB-DL.DDP5.1.H.264-KamiKaze[EtHD] torrent

ETTV Recommended UHD
Star Wars Episode V - The Empire Strikes Back 1980.MULTi.UHD.2160p.HDR.WEB-Rip.DTS-HDMA.6.1.HEVC-DDR torrent
Star Wars Episode III - Revenge of the Sith 2005.MULTi.UHD.2160p.HDR.WEB-Rip.DTS-HDMA.6.1.HEVC-DDR torrent
Star Wars Episode VI - Return of the Jedi 1983.MULTi.UHD.2160p.HDR.WEB-Rip.DTS-HDMA.6.1.HEVC-DDR torrent
John.Wick.Chapter.2.2017.BDRip.2160p.UHD.HDR.TrueHD.DD5.1.Gerald torrent

ETTV Recommended Cam
Dark Waters 2019 HDCAM x264-ETRG torrent
Blue Story 2019 HDCAM x264 AC3-ETRG torrent
Jay and Silent Bob Reboot 2019 HDCAM x264-ETRG torrent
Jumanji The Next Level 2019 HDCAM x264-ETRG torrent

ETTV Recommended Foreign
Til Death Do Us Part (2017) x264 720p WEB-DL Eng Subs {Dual Audio} [Hindi ORG DD 2.0 + English 2.0] Exclusive By DREDD torrent
Is She Raju-.2019.Hindi.1080p.WEB-DL.x264.AAC -DDR[EtHD] torrent
Percy Jackson & The Olympians The Lightning Thief (2010) x264 720p BluRay {Dual Audio} [Hindi DD 2.0 + EN 2.0] Exclusive By DREDD torrent
Saaho 2019 Hindi 720p NF WEBRip x264 AAC 5.1 ESubs - LOKiHD - Telly torrent


Download Torrent "Minuscule Valley of the Lost Ants (2013) (1080p BluRay x265 HEVC 10bit DTS ..."

IMDB Details
Description:

Somewhere in the forest, a stranded ladybug joins forces with a squad of black ants to retrieve a tin box of delicious sugar cubes to the hive. A battalion of fierce red ants has already set their sights on the loot. Who shall prevail?

Genre:

Animation, Adventure, Family

Download Torrent (Magnet)
Download Torrent (File)
Seeds: 229
Leechers: 57
Completed: 1,468 
Last Checked: 08-10-2019 17:51:25


Loading...
Details
Title:Minuscule Valley of the Lost Ants (2013) (1080p BluRay x265 HEVC 10bit DTS ...
Description:




Media Information
General
Format                                   : Matroska
Format version                           : Version 4 / Version 2
File size                                : 3.03 GiB
Duration                                 : 1 h 28 min
Overall bit rate                         : 4 900 kb/s
Encoded date                             : UTC 2019-10-07 16:46:24
Writing application                      : mkvmerge v36.0.0 ('Is That Jazz?') 64-bit
Writing library                          : libebml v1.3.9 + libmatroska v1.5.2

Video
ID                                       : 1
Format                                   : HEVC
Format/Info                              : High Efficiency Video Coding
Format profile                           : Main [email protected]@Main
Codec ID                                 : V_MPEGH/ISO/HEVC
Duration                                 : 1 h 28 min
Bit rate                                 : 3 389 kb/s
Width                                    : 1 912 pixels
Height                                   : 802 pixels
Display aspect ratio                     : 2.40:1
Frame rate mode                          : Constant
Frame rate                               : 23.976 (24000/1001) FPS
Color space                              : YUV
Chroma subsampling                       : 4:2:0
Bit depth                                : 10 bits
Bits/(Pixel*Frame)                       : 0.092
Stream size                              : 2.09 GiB (69%)
Writing library                          : x265 3.1+14-f08461fdae33:[Windows][MSVC 1922][64 bit] 10bit
Encoding settings                        : cpuid=1111039 / frame-threads=4 / numa-pools=16 / wpp / no-pmode / no-pme / no-psnr / no-ssim / log-level=2 / input-csp=1 / input-res=1912x802 / interlace=0 / total-frames=127248 / level-idc=0 / high-tier=1 / uhd-bd=0 / ref=4 / no-allow-non-conformance / no-repeat-headers / annexb / no-aud / no-hrd / info / hash=0 / no-temporal-layers / open-gop / min-keyint=23 / keyint=250 / gop-lookahead=0 / bframes=8 / b-adapt=2 / b-pyramid / bframe-bias=0 / rc-lookahead=80 / lookahead-slices=4 / scenecut=40 / radl=0 / no-splice / no-intra-refresh / ctu=64 / min-cu-size=8 / no-rect / no-amp / max-tu-size=32 / tu-inter-depth=1 / tu-intra-depth=1 / limit-tu=0 / rdoq-level=2 / dynamic-rd=0.00 / no-ssim-rd / signhide / no-tskip / nr-intra=0 / nr-inter=0 / no-constrained-intra / no-strong-intra-smoothing / max-merge=3 / limit-refs=3 / limit-modes / me=3 / subme=3 / merange=57 / temporal-mvp / no-hme / weightp / no-weightb / no-analyze-src-pics / deblock=-1:-1 / no-sao / no-sao-non-deblock / rd=4 / no-early-skip / no-rskip / no-fast-intra / no-tskip-fast / no-cu-lossless / b-intra / no-splitrd-skip / rdpenalty=0 / psy-rd=1.00 / psy-rdoq=2.50 / no-rd-refine / no-lossless / cbqpoffs=0 / crqpoffs=0 / rc=crf / crf=19.5 / qcomp=0.60 / qpstep=4 / stats-write=0 / stats-read=0 / ipratio=1.40 / pbratio=1.30 / aq-mode=2 / aq-strength=1.00 / cutree / zone-count=0 / no-strict-cbr / qg-size=32 / no-rc-grain / qpmax=69 / qpmin=0 / no-const-vbv / sar=0 / overscan=0 / videoformat=5 / range=0 / colorprim=2 / transfer=2 / colormatrix=2 / chromaloc=0 / display-window=0cll=0,0 / min-luma=0 / max-luma=1023 / log2-max-poc-lsb=8 / vui-timing-info / vui-hrd-info / slices=1 / no-opt-qp-pps / no-opt-ref-list-length-pps / no-multi-pass-opt-rps / scenecut-bias=0.05 / no-opt-cu-delta-qp / no-aq-motion / no-hdr / no-hdr-opt / no-dhdr10-opt / no-idr-recovery-sei / analysis-reuse-level=5 / scale-factor=0 / refine-intra=0 / refine-inter=0 / refine-mv=0 / refine-ctu-distortion=0 / no-limit-sao / ctu-info=0 / no-lowpass-dct / refine-analysis-type=0 / copy-pic=1 / max-ausize-factor=1.0 / no-dynamic-refine / no-single-sei / no-hevc-aq / no-svt / no-field / qp-adaptation-range=1.00
Language                                 : French
Default                                  : Yes
Forced                                   : No

Audio
ID                                       : 2
Format                                   : DTS
Format/Info                              : Digital Theater Systems
Mode                                     : 16
Format settings, Endianness              : Big
Codec ID                                 : A_DTS
Duration                                 : 1 h 28 min
Bit rate mode                            : Constant
Bit rate                                 : 1 509 kb/s
Channel(s)                               : 6 channels
Channel positions                        : Front: L C R, Side: L R, LFE
Sampling rate                            : 48.0 kHz
Frame rate                               : 93.750 FPS (512 spf)
Bit depth                                : 24 bits
Compression mode                         : Lossy
Stream size                              : 955 MiB (31%)
Language                                 : zxx
Default                                  : Yes
Forced                                   : No

Subtitle
ID                                       : 3
Format                                   : UTF-8
Codec ID                                 : S_TEXT/UTF8
Codec ID/Info                            : UTF-8 Plain Text
Duration                                 : 1 h 22 min
Bit rate                                 : 0 b/s
Count of elements                        : 3
Stream size                              : 364 Bytes (0%)
Language                                 : English
Default                                  : Yes
Forced                                   : No

Menu
00:00:00.000                             : fr:Chapter  1
00:02:44.080                             : fr:Chapter  2
00:19:44.016                             : fr:Chapter  3
00:34:45.041                             : fr:Chapter  4
00:42:08.567                             : fr:Chapter  5
00:58:45.230                             : fr:Chapter  6
01:13:24.691                             : fr:Chapter  7
01:19:13.498                             : fr:Chapter  8
01:22:50.382                             : fr:Chapter  9



Source InformationRelease: Unknown Source/NO-GROUP



Note From UTR
Whilst we are happy for our releases to be re-posted on a platform we aren't on, please do so in an 'as-is' format. We ask that you do not create a new torrent, include all descriptions you see above including the UTR logo, tags, notes and screenshots. If you'd like to become a permanent poster on a website we don't post to, feel free to get in contact with a UTR member.
If possible please donate: BTC 1QA5fum5AyXvWzdVCkQzUNvw3Ef15fHRaR




Category:Movies > HEVC/x265
Lang:Unknown/NA
Total Size:3.03 GB
Info Hash:b3197165fccbba371bcf9b5a1e9539089d7f3208
Added By:UTR
Date Added:08-10-2019 17:51:21

Files

File List: 
 File Size
Minuscule.Valley.of.the.Lost.Ants.(2013).1080p.BluRay.10-bit.x265.DTS.5.1 Qman[UTR].mkv3.03 GB



Loading...
Comments

There are currently no comments. Be the first one to write something !