gemini man 2019 the flash ford v ferrari 2019 rq.mp4 arrow español Batwoman s01e09 frozen ii 2019 yts zombieland double tap 2019 watchmen s01e08 ettv The Flash s00e05 Rick and Morty s04e04 terminator dark fate 2019 ad astra 2019 castle rock the flash s06e09 etrg Crisis on Infinite Earths Supergirl s05e09 doctor sleep 2019 flash s06e09 Emergence S01E09 emergence joker The Flash s00e05 720p queen slim 2019 Batwoman s00e01 mr robot ethd ddr angel has fallen 2019 rick and morty Watchmen 21 bridges 2019 the mandalorian s01e05 FROZEN 2 ad astra jumanji the next level 2019 see treadstone s01e09 crisis the curse of oak island the purge s02e09 evo flash treadstone once upon a time in hollywood 2019 wwe arrow black lightning s03e09 batwoman the purge black lightning the mandalorian his dark materials hustlers 2019 hindi proper knives out 2019 ncis rambo last blood 2019 mandalorian silicon valley the curse of oak island s07e06 Vikings etmovies supergirl XXX oak island joker 2019 the irishman 2019 
Warning! Use a V.P.N When Downloading Torrents!
Your IP Address is 3.215.182.36. Location is United States
Your Internet Provider is tracking your torrent activity! Hide your IP ADDRESS with a V.P.N!
We strongly recommend using ExpressV.P.N to anonymize your torrenting. 30 Day Money Back Guarantee!
Try it Now!
ETTV Recommended TV Shows
S.W.A.T.2017.S03E10.HDTV.x264-KILLERS[ettv] torrent
SEAL.Team.S03E10.HDTV.x264-SVA[ettv] torrent
Nancy.Drew.2019.S01E09.HDTV.x264-SVA[ettv] torrent
South.Park.S23E10.HDTV.x264-SVA[ettv] torrent
Stumptown.S01E09.HDTV.x264-SVA[ettv] torrent
Vikings.S06E03.HDTV.x264-SVA[ettv] torrent

ETTV Recommended SD
The.Final.Level.Escaping.Rancala.2019.HDRip.XviD.AC3-EVO torrent
5.Galaxies.2019.HDRip.XviD.AC3-EVO torrent
The.Room.2019.HDRip.XviD.AC3-EVO[EtMovies] torrent
Take.Home.Pay.2019.HDRip.XviD.AC3-EVO[EtMovies] torrent

ETTV Recommended HD
Killerman.2019.1080p.BluRay.X264-AMIABLE[EtHD] torrent
Animals.2019.1080p.WEB-DL.H264.AC3-EVO[EtHD] torrent
John.Wick.Chapter.2.2017.BDRip.1080p.HEVC.HDR.TrueHD.DD5.1.Gerald torrent
The.Room.2019.1080p.WEB-DL.x264.AAC-ETRG torrent

ETTV Recommended UHD
10 Things I Hate About You 1999.UHD.2160p.HDR.WEBRip.DTS-HD MA 5.1.HEVC-DDR torrent
Pirates of the Caribbean - The Curse of the Black Pearl 2003.MULTi.UHD.2160p.HDR.WEBRip.DTS-HD MA 5.1.HEVC-DDR torrent
The Report 2019.UHD.2160p.HDR.WEBRip.DDP.5.1.HEVC-DDR torrent
The Muppet Christmas Carol 1992.UHD.2160p.HDR.WEBRip.DTS-HDMA.5.1.HEVC-DDR torrent

ETTV Recommended Cam
Dark Waters 2019 HDCAM x264-ETRG torrent
Blue Story 2019 HDCAM x264 AC3-ETRG torrent
Jay and Silent Bob Reboot 2019 HDCAM x264-ETRG torrent
Jumanji.The.Next.Level.2019.NEW.HDCAM.x264.AC3-ETRG torrent

ETTV Recommended Foreign
The Sky Is Pink (2019) Hindi 720p HDRip x264 AAC ESubs - Downloadhub torrent
Raid.2019.Hindi.Zee5.1080p.WEB-DL.x264.AAC.Esub -DDR[EtHD] torrent
The Pineville Heist (2016) 720p WEBRip x264 [Dual Audio] [Hindi 2.0 - English 2.0] Exclusive By -=!Dr.STAR!=- torrent
War 2019.MULTi.Bluray.1080p.Atmos.7.1.HEVC-DDR torrent


Download Torrent "Big Mouth (2017) Season 03 S03 (1080p NF WEBRip x265 HEVC AAC 5.1 Joy) [UTR..."

IMDB Details
Description:

Teenage friends find their lives upended by the wonders and horrors of puberty.

Genre:

Animation, Comedy, Romance

Download Torrent (Magnet)
Download Torrent (File)
Seeds: 94
Leechers: 102
Completed: 528 
Last Checked: 09-10-2019 13:57:58


Loading...
Details
Title:Big Mouth (2017) Season 03 S03 (1080p NF WEBRip x265 HEVC AAC 5.1 Joy) [UTR...
Description:



Media Information
General
Format                                   : Matroska
Format version                           : Version 4 / Version 2
File size                                : 268 MiB
Duration                                 : 27 min 16 s
Overall bit rate                         : 1 375 kb/s
Movie name                               : Big Mouth S03E06 How To Have An Orgasm  (1080p x265 10bit Joy)
Encoded date                             : UTC 2019-10-07 13:21:00
Writing application                      : mkvmerge v34.0.0 ('Sight and Seen') 64-bit
Writing library                          : libebml v1.3.7 + libmatroska v1.5.0
Writing frontend                         : StaxRip v2.0.2.0, a JoyBell Encode

Video
ID                                       : 1
Format                                   : HEVC
Format/Info                              : High Efficiency Video Coding
Format profile                           : Main [email protected]@Main
Codec ID                                 : V_MPEGH/ISO/HEVC
Duration                                 : 27 min 16 s
Bit rate                                 : 1 204 kb/s
Width                                    : 1 920 pixels
Height                                   : 1 080 pixels
Display aspect ratio                     : 16:9
Frame rate mode                          : Constant
Frame rate                               : 23.976 (24000/1001) FPS
Color space                              : YUV
Chroma subsampling                       : 4:2:0
Bit depth                                : 10 bits
Bits/(Pixel*Frame)                       : 0.024
Stream size                              : 235 MiB (88%)
Writing library                          : x265 3.0_Au+24-4217e691387c:[Windows][GCC 9.1.1][64 bit] 10bit
Encoding settings                        : rc=abr / bitrate=1200 / qcomp=0.60 / qpstep=4 / stats-write=0 / stats-read=2 / cplxblur=20.0 / qblur=0.5 / qpmax=69 / qpmin=0 / no-lossless / no-cu-lossless / no-hevc-aq / no-aq-motion / aq-mode=3 / aq-strength=0.80 / cbqpoffs=0 / crqpoffs=0 / ipratio=1.40 / pbratio=1.30 / psy-rd=0.00 / psy-rdoq=1.50 / deblock=0:0 / ref=4 / limit-refs=3 / limit-modes / bframes=8 / b-adapt=2 / bframe-bias=40 / b-pyramid / no-b-intra / weightp / no-weightb / keyint=250 / min-keyint=23 / rc-lookahead=80 / gop-lookahead=0 / scenecut=40 / scenecut-bias=0.05 / ctu=64 / min-cu-size=8 / me=3 / subme=5 / merange=57 / rd=4 / no-rd-refine / ssim-rd / dynamic-rd=0.00 / rdoq-level=2 / rdpenalty=0 / cutree / sao / limit-sao / no-sao-non-deblock / rect / no-amp / open-gop / max-tu-size=32 / tu-inter-depth=1 / tu-intra-depth=1 / limit-tu=0 / qg-size=32 / wpp / no-pmode / no-pme / no-psnr / ssim / no-tskip / constrained-intra / strong-intra-smoothing / max-merge=5 / nr-intra=0 / nr-inter=0 / input-csp=1 / input-res=1920x1080 / interlace=0 / total-frames=39225 / level-idc=0 / high-tier=1cpuid=1111039 / frame-threads=3 / numa-pools=8 / log-level=2 / uhd-bd=0 / lookahead-slices=4 / radl=0 / no-splice / no-intra-refresh / signhide / temporal-mvp / no-analyze-src-pics / early-skip / rskip / no-fast-intra / no-tskip-fast / splitrd-skip / zone-count=0 / no-strict-cbr / no-rc-grain / no-const-vbv / no-allow-non-conformance / no-repeat-headers / annexb / no-aud / no-hrd / info / hash=0 / no-temporal-layers / sar=0 / overscan=0 / videoformat=5 / range=0 / colorprim=2 / transfer=2 / colormatrix=2 / chromaloc=0 / display-window=0 / max-cll=0,0 / min-luma=0 / max-luma=1023 / log2-max-poc-lsb=8 / vui-timing-info / vui-hrd-info / slices=1 / no-opt-qp-pps / no-opt-ref-list-length-pps / multi-pass-opt-rps / no-opt-cu-delta-qp / no-hdr / no-hdr-opt / no-dhdr10-opt / no-idr-recovery-sei / analysis-reuse-level=10 / scale-factor=0 / refine-intra=0 / refine-inter=0 / refine-mv=0 / refine-ctu-distortion=0 / ctu-info=0 / no-lowpass-dct / refine-analysis-type=0 / copy-pic=1 / max-ausize-factor=1.0 / no-dynamic-refine / no-single-sei / no-svt / qp-adaptation-range=1.00
Default                                  : Yes
Forced                                   : No

Audio
ID                                       : 2
Format                                   : AAC
Format/Info                              : Advanced Audio Codec
Format profile                           : HE-AAC / LC
Codec ID                                 : A_AAC
Duration                                 : 27 min 16 s
Bit rate                                 : 163 kb/s
Channel(s)                               : 6 channels
Channel positions                        : Front: L C R, Side: L R, LFE
Sampling rate                            : 48.0 kHz / 24.0 kHz
Frame rate                               : 23.438 FPS (1024 spf)
Compression mode                         : Lossy
Delay relative to video                  : 31 ms
Stream size                              : 31.8 MiB (12%)
Language                                 : English
Default                                  : No
Forced                                   : No

Subtitle #1
ID                                       : 3
Format                                   : UTF-8
Codec ID                                 : S_TEXT/UTF8
Codec ID/Info                            : UTF-8 Plain Text
Duration                                 : 3 s 125 ms
Bit rate                                 : 110 b/s
Count of elements                        : 1
Stream size                              : 43.0 Bytes (0%)
Language                                 : English
Default                                  : No
Forced                                   : Yes

Subtitle #2
ID                                       : 4
Format                                   : UTF-8
Codec ID                                 : S_TEXT/UTF8
Codec ID/Info                            : UTF-8 Plain Text
Duration                                 : 26 min 18 s
Bit rate                                 : 127 b/s
Count of elements                        : 610
Stream size                              : 24.5 KiB (0%)
Language                                 : English
Default                                  : No
Forced                                   : No

Subtitle #3
ID                                       : 5
Format                                   : UTF-8
Codec ID                                 : S_TEXT/UTF8
Codec ID/Info                            : UTF-8 Plain Text
Duration                                 : 26 min 24 s
Bit rate                                 : 132 b/s
Count of elements                        : 639
Stream size                              : 25.6 KiB (0%)
Language                                 : English
Default                                  : No
Forced                                   : No

Subtitle #4
ID                                       : 6
Format                                   : UTF-8
Codec ID                                 : S_TEXT/UTF8
Codec ID/Info                            : UTF-8 Plain Text
Duration                                 : 26 min 24 s
Bit rate                                 : 184 b/s
Count of elements                        : 584
Stream size                              : 35.6 KiB (0%)
Language                                 : Arabic
Default                                  : No
Forced                                   : No

Subtitle #5
ID                                       : 7
Format                                   : UTF-8
Codec ID                                 : S_TEXT/UTF8
Codec ID/Info                            : UTF-8 Plain Text
Duration                                 : 25 min 43 s
Bit rate                                 : 108 b/s
Count of elements                        : 392
Stream size                              : 20.5 KiB (0%)
Language                                 : Czech
Default                                  : No
Forced                                   : No

Subtitle #6
ID                                       : 8
Format                                   : UTF-8
Codec ID                                 : S_TEXT/UTF8
Codec ID/Info                            : UTF-8 Plain Text
Duration                                 : 26 min 24 s
Bit rate                                 : 93 b/s
Count of elements                        : 561
Stream size                              : 18.1 KiB (0%)
Language                                 : Danish
Default                                  : No
Forced                                   : No

Subtitle #7
ID                                       : 9
Format                                   : UTF-8
Codec ID                                 : S_TEXT/UTF8
Codec ID/Info                            : UTF-8 Plain Text
Duration                                 : 26 min 25 s
Bit rate                                 : 112 b/s
Count of elements                        : 547
Stream size                              : 21.8 KiB (0%)
Language                                 : German
Default                                  : No
Forced                                   : No

Subtitle #8
ID                                       : 10
Format                                   : UTF-8
Codec ID                                 : S_TEXT/UTF8
Codec ID/Info                            : UTF-8 Plain Text
Duration                                 : 26 min 24 s
Bit rate                                 : 175 b/s
Count of elements                        : 583
Stream size                              : 34.0 KiB (0%)
Language                                 : Greek
Default                                  : No
Forced                                   : No

Subtitle #9
ID                                       : 11
Format                                   : UTF-8
Codec ID                                 : S_TEXT/UTF8
Codec ID/Info                            : UTF-8 Plain Text
Duration                                 : 26 min 24 s
Bit rate                                 : 110 b/s
Count of elements                        : 569
Stream size                              : 21.4 KiB (0%)
Language                                 : Spanish
Default                                  : No
Forced                                   : No

Subtitle #10
ID                                       : 12
Format                                   : UTF-8
Codec ID                                 : S_TEXT/UTF8
Codec ID/Info                            : UTF-8 Plain Text
Duration                                 : 26 min 24 s
Bit rate                                 : 110 b/s
Count of elements                        : 569
Stream size                              : 21.3 KiB (0%)
Language                                 : Spanish
Default                                  : No
Forced                                   : No

Subtitle #11
ID                                       : 13
Format                                   : UTF-8
Codec ID                                 : S_TEXT/UTF8
Codec ID/Info                            : UTF-8 Plain Text
Duration                                 : 26 min 24 s
Bit rate                                 : 98 b/s
Count of elements                        : 424
Stream size                              : 19.1 KiB (0%)
Language                                 : Finnish
Default                                  : No
Forced                                   : No

Subtitle #12
ID                                       : 14
Format                                   : UTF-8
Codec ID                                 : S_TEXT/UTF8
Codec ID/Info                            : UTF-8 Plain Text
Duration                                 : 26 min 24 s
Bit rate                                 : 116 b/s
Count of elements                        : 583
Stream size                              : 22.4 KiB (0%)
Language                                 : French
Default                                  : No
Forced                                   : No

Subtitle #13
ID                                       : 15
Format                                   : UTF-8
Codec ID                                 : S_TEXT/UTF8
Codec ID/Info                            : UTF-8 Plain Text
Duration                                 : 26 min 24 s
Bit rate                                 : 178 b/s
Count of elements                        : 583
Stream size                              : 34.4 KiB (0%)
Language                                 : Hebrew
Default                                  : No
Forced                                   : No

Subtitle #14
ID                                       : 16
Format                                   : UTF-8
Codec ID                                 : S_TEXT/UTF8
Codec ID/Info                            : UTF-8 Plain Text
Duration                                 : 26 min 24 s
Bit rate                                 : 102 b/s
Count of elements                        : 598
Stream size                              : 19.9 KiB (0%)
Language                                 : Hungarian
Default                                  : No
Forced                                   : No

Subtitle #15
ID                                       : 17
Format                                   : UTF-8
Codec ID                                 : S_TEXT/UTF8
Codec ID/Info                            : UTF-8 Plain Text
Duration                                 : 26 min 25 s
Bit rate                                 : 96 b/s
Count of elements                        : 549
Stream size                              : 18.6 KiB (0%)
Language                                 : Indonesian
Default                                  : No
Forced                                   : No

Subtitle #16
ID                                       : 18
Format                                   : UTF-8
Codec ID                                 : S_TEXT/UTF8
Codec ID/Info                            : UTF-8 Plain Text
Duration                                 : 26 min 24 s
Bit rate                                 : 99 b/s
Count of elements                        : 542
Stream size                              : 19.3 KiB (0%)
Language                                 : Italian
Default                                  : No
Forced                                   : No

Subtitle #17
ID                                       : 19
Format                                   : UTF-8
Codec ID                                 : S_TEXT/UTF8
Codec ID/Info                            : UTF-8 Plain Text
Duration                                 : 26 min 24 s
Bit rate                                 : 112 b/s
Count of elements                        : 673
Stream size                              : 21.8 KiB (0%)
Language                                 : Japanese
Default                                  : No
Forced                                   : No

Subtitle #18
ID                                       : 20
Format                                   : UTF-8
Codec ID                                 : S_TEXT/UTF8
Codec ID/Info                            : UTF-8 Plain Text
Duration                                 : 25 min 40 s
Bit rate                                 : 135 b/s
Count of elements                        : 579
Stream size                              : 25.5 KiB (0%)
Language                                 : Korean
Default                                  : No
Forced                                   : No

Subtitle #19
ID                                       : 21
Format                                   : UTF-8
Codec ID                                 : S_TEXT/UTF8
Codec ID/Info                            : UTF-8 Plain Text
Duration                                 : 26 min 24 s
Bit rate                                 : 100 b/s
Count of elements                        : 555
Stream size                              : 19.5 KiB (0%)
Language                                 : Norwegian Bokmal
Default                                  : No
Forced                                   : No

Subtitle #20
ID                                       : 22
Format                                   : UTF-8
Codec ID                                 : S_TEXT/UTF8
Codec ID/Info                            : UTF-8 Plain Text
Duration                                 : 26 min 24 s
Bit rate                                 : 88 b/s
Count of elements                        : 464
Stream size                              : 17.1 KiB (0%)
Language                                 : Dutch
Default                                  : No
Forced                                   : No

Subtitle #21
ID                                       : 23
Format                                   : UTF-8
Codec ID                                 : S_TEXT/UTF8
Codec ID/Info                            : UTF-8 Plain Text
Duration                                 : 25 min 40 s
Bit rate                                 : 100 b/s
Count of elements                        : 514
Stream size                              : 18.9 KiB (0%)
Language                                 : Polish
Default                                  : No
Forced                                   : No

Subtitle #22
ID                                       : 24
Format                                   : UTF-8
Codec ID                                 : S_TEXT/UTF8
Codec ID/Info                            : UTF-8 Plain Text
Duration                                 : 25 min 40 s
Bit rate                                 : 114 b/s
Count of elements                        : 548
Stream size                              : 21.5 KiB (0%)
Language                                 : Portuguese
Default                                  : No
Forced                                   : No

Subtitle #23
ID                                       : 25
Format                                   : UTF-8
Codec ID                                 : S_TEXT/UTF8
Codec ID/Info                            : UTF-8 Plain Text
Duration                                 : 26 min 24 s
Bit rate                                 : 98 b/s
Count of elements                        : 568
Stream size                              : 19.0 KiB (0%)
Language                                 : Portuguese
Default                                  : No
Forced                                   : No

Subtitle #24
ID                                       : 26
Format                                   : UTF-8
Codec ID                                 : S_TEXT/UTF8
Codec ID/Info                            : UTF-8 Plain Text
Duration                                 : 26 min 24 s
Bit rate                                 : 122 b/s
Count of elements                        : 583
Stream size                              : 23.6 KiB (0%)
Language                                 : Romanian
Default                                  : No
Forced                                   : No

Subtitle #25
ID                                       : 27
Format                                   : UTF-8
Codec ID                                 : S_TEXT/UTF8
Codec ID/Info                            : UTF-8 Plain Text
Duration                                 : 26 min 24 s
Bit rate                                 : 169 b/s
Count of elements                        : 601
Stream size                              : 32.9 KiB (0%)
Language                                 : Russian
Default                                  : No
Forced                                   : No

Subtitle #26
ID                                       : 28
Format                                   : UTF-8
Codec ID                                 : S_TEXT/UTF8
Codec ID/Info                            : UTF-8 Plain Text
Duration                                 : 26 min 24 s
Bit rate                                 : 103 b/s
Count of elements                        : 465
Stream size                              : 19.9 KiB (0%)
Language                                 : Swedish
Default                                  : No
Forced                                   : No

Subtitle #27
ID                                       : 29
Format                                   : UTF-8
Codec ID                                 : S_TEXT/UTF8
Codec ID/Info                            : UTF-8 Plain Text
Duration                                 : 26 min 24 s
Bit rate                                 : 261 b/s
Count of elements                        : 591
Stream size                              : 50.6 KiB (0%)
Language                                 : Thai
Default                                  : No
Forced                                   : No

Subtitle #28
ID                                       : 30
Format                                   : UTF-8
Codec ID                                 : S_TEXT/UTF8
Codec ID/Info                            : UTF-8 Plain Text
Duration                                 : 26 min 24 s
Bit rate                                 : 103 b/s
Count of elements                        : 581
Stream size                              : 20.0 KiB (0%)
Language                                 : Turkish
Default                                  : No
Forced                                   : No

Subtitle #29
ID                                       : 31
Format                                   : UTF-8
Codec ID                                 : S_TEXT/UTF8
Codec ID/Info                            : UTF-8 Plain Text
Duration                                 : 26 min 24 s
Bit rate                                 : 143 b/s
Count of elements                        : 601
Stream size                              : 27.8 KiB (0%)
Language                                 : Vietnamese
Default                                  : No
Forced                                   : No

Subtitle #30
ID                                       : 32
Format                                   : UTF-8
Codec ID                                 : S_TEXT/UTF8
Codec ID/Info                            : UTF-8 Plain Text
Duration                                 : 26 min 24 s
Bit rate                                 : 119 b/s
Count of elements                        : 600
Stream size                              : 23.0 KiB (0%)
Language                                 : Chinese
Default                                  : No
Forced                                   : No

Subtitle #31
ID                                       : 33
Format                                   : UTF-8
Codec ID                                 : S_TEXT/UTF8
Codec ID/Info                            : UTF-8 Plain Text
Duration                                 : 26 min 24 s
Bit rate                                 : 115 b/s
Count of elements                        : 598
Stream size                              : 22.3 KiB (0%)
Language                                 : Chinese
Default                                  : No
Forced                                   : No

Menu
00:02:30.025                             : en:Intro start
00:03:02.808                             : en:Intro end



Source InformationRelease: Big.Mouth.S03.1080p.NF.WEBRip.DDP5.1.x264-NTb [10 GB]



Note From UTR
Whilst we are happy for our releases to be re-posted on a platform we aren't on, please do so in an 'as-is' format. We ask that you do not create a new torrent, include all descriptions you see above including the UTR logo, tags, notes and screenshots. If you'd like to become a permanent poster on a website we don't post to, feel free to get in contact with a UTR member.
If possible please donate: BTC 1QA5fum5AyXvWzdVCkQzUNvw3Ef15fHRaR



Category:TV > HEVC/x265
Lang:English  English
Total Size:3.12 GB
Info Hash:2b5c1797d8a7439769d5059bb597512ed3314666
Added By:UTR
Date Added:09-10-2019 13:57:54

Files

File List: 
 File Size
Big Mouth S03E01 My Furry Valentine (1080p x265 10bit Joy).mkv456 MB
Big Mouth S03E02 Girls Are Angry Too (1080p x265 10bit Joy).mkv298 MB
Big Mouth S03E03 Cellsea (1080p x265 10bit Joy).mkv273 MB
Big Mouth S03E04 Obsessed (1080p x265 10bit Joy).mkv266 MB
Big Mouth S03E05 Florida (1080p x265 10bit Joy).mkv269 MB
Big Mouth S03E06 How To Have An Orgasm (1080p x265 10bit Joy).mkv268 MB
Big Mouth S03E07 Duke (1080p x265 10bit Joy).mkv266 MB
Big Mouth S03E08 Rankings (1080p x265 10bit Joy).mkv272 MB
Big Mouth S03E09 The ASSes (1080p x265 10bit Joy).mkv272 MB
Big Mouth S03E10 Disclosure the Movie The Musical (1080p x265 10bit Joy).mkv280 MB
Big Mouth S03E11 Super Mouth (1080p x265 10bit Joy).mkv273 MB
Encoded by JoyBell (UTR).txt3.20 kB
folder.jpg409.94 kB
How to play HEVC (THIS FILE).txt3.82 kB
Ninite K-Lite Codecs Unattended Silent Installer and Updater.website561.00 B



Loading...
Comments

There are currently no comments. Be the first one to write something !