gemini man 2019 the flash ford v ferrari 2019 rq.mp4 arrow español Batwoman s01e09 frozen ii 2019 yts zombieland double tap 2019 watchmen s01e08 ettv The Flash s00e05 Rick and Morty s04e04 terminator dark fate 2019 ad astra 2019 castle rock the flash s06e09 etrg Crisis on Infinite Earths Supergirl s05e09 doctor sleep 2019 flash s06e09 Emergence S01E09 emergence joker The Flash s00e05 720p queen slim 2019 Batwoman s00e01 mr robot ethd ddr angel has fallen 2019 rick and morty Watchmen 21 bridges 2019 the mandalorian s01e05 FROZEN 2 ad astra jumanji the next level 2019 see treadstone s01e09 crisis the curse of oak island the purge s02e09 evo flash treadstone once upon a time in hollywood 2019 wwe arrow black lightning s03e09 batwoman the purge black lightning the mandalorian his dark materials hustlers 2019 hindi proper knives out 2019 ncis rambo last blood 2019 mandalorian silicon valley the curse of oak island s07e06 Vikings etmovies supergirl XXX oak island joker 2019 the irishman 2019 
Warning! Use a V.P.N When Downloading Torrents!
Your IP Address is 3.215.182.36. Location is United States
Your Internet Provider is tracking your torrent activity! Hide your IP ADDRESS with a V.P.N!
We strongly recommend using ExpressV.P.N to anonymize your torrenting. 30 Day Money Back Guarantee!
Try it Now!
ETTV Recommended TV Shows
S.W.A.T.2017.S03E10.HDTV.x264-KILLERS[ettv] torrent
SEAL.Team.S03E10.HDTV.x264-SVA[ettv] torrent
Nancy.Drew.2019.S01E09.HDTV.x264-SVA[ettv] torrent
South.Park.S23E10.HDTV.x264-SVA[ettv] torrent
Stumptown.S01E09.HDTV.x264-SVA[ettv] torrent
Vikings.S06E03.HDTV.x264-SVA[ettv] torrent

ETTV Recommended SD
The.Final.Level.Escaping.Rancala.2019.HDRip.XviD.AC3-EVO torrent
5.Galaxies.2019.HDRip.XviD.AC3-EVO torrent
The.Room.2019.HDRip.XviD.AC3-EVO[EtMovies] torrent
Take.Home.Pay.2019.HDRip.XviD.AC3-EVO[EtMovies] torrent

ETTV Recommended HD
Killerman.2019.1080p.BluRay.X264-AMIABLE[EtHD] torrent
Animals.2019.1080p.WEB-DL.H264.AC3-EVO[EtHD] torrent
John.Wick.Chapter.2.2017.BDRip.1080p.HEVC.HDR.TrueHD.DD5.1.Gerald torrent
The.Room.2019.1080p.WEB-DL.x264.AAC-ETRG torrent

ETTV Recommended UHD
10 Things I Hate About You 1999.UHD.2160p.HDR.WEBRip.DTS-HD MA 5.1.HEVC-DDR torrent
Pirates of the Caribbean - The Curse of the Black Pearl 2003.MULTi.UHD.2160p.HDR.WEBRip.DTS-HD MA 5.1.HEVC-DDR torrent
The Report 2019.UHD.2160p.HDR.WEBRip.DDP.5.1.HEVC-DDR torrent
The Muppet Christmas Carol 1992.UHD.2160p.HDR.WEBRip.DTS-HDMA.5.1.HEVC-DDR torrent

ETTV Recommended Cam
Dark Waters 2019 HDCAM x264-ETRG torrent
Blue Story 2019 HDCAM x264 AC3-ETRG torrent
Jay and Silent Bob Reboot 2019 HDCAM x264-ETRG torrent
Jumanji.The.Next.Level.2019.NEW.HDCAM.x264.AC3-ETRG torrent

ETTV Recommended Foreign
The Sky Is Pink (2019) Hindi 720p HDRip x264 AAC ESubs - Downloadhub torrent
Raid.2019.Hindi.Zee5.1080p.WEB-DL.x264.AAC.Esub -DDR[EtHD] torrent
The Pineville Heist (2016) 720p WEBRip x264 [Dual Audio] [Hindi 2.0 - English 2.0] Exclusive By -=!Dr.STAR!=- torrent
War 2019.MULTi.Bluray.1080p.Atmos.7.1.HEVC-DDR torrent


Download Torrent "Stuber (2019) (1080p BluRay x265 HEVC 10bit AAC 7.1 Q22 Joy) [UTR]"

IMDB Details
Description:

N/A

Genre:

N/A

Download Torrent (Magnet)
Download Torrent (File)
Seeds: 180
Leechers: 100
Completed: 1,149 
Last Checked: 09-10-2019 14:02:35


Loading...
Details
Title:Stuber (2019) (1080p BluRay x265 HEVC 10bit AAC 7.1 Q22 Joy) [UTR]
Description:





Media Information
General
Format                                   : Matroska
Format version                           : Version 4 / Version 2
File size                                : 1.00 GiB
Duration                                 : 1 h 33 min
Overall bit rate                         : 1 537 kb/s
Movie name                               : Stuber 2019  (1080p x265 q22 S84 Joy) [UTR]
Encoded date                             : UTC 2019-10-09 04:10:00
Writing application                      : mkvmerge v32.0.0 ('Astral Progressions') 64-bit
Writing library                          : libebml v1.3.7 + libmatroska v1.5.0
Cover                                    : Yes
Attachments                              : cover.jpg
Writing frontend                         : StaxRip v2.0.2.0, Encoded by JoyBell

Video
ID                                       : 1
Format                                   : HEVC
Format/Info                              : High Efficiency Video Coding
Format profile                           : Main [email protected]@Main
Codec ID                                 : V_MPEGH/ISO/HEVC
Duration                                 : 1 h 33 min
Bit rate                                 : 996 kb/s
Width                                    : 1 920 pixels
Height                                   : 800 pixels
Display aspect ratio                     : 2.40:1
Frame rate mode                          : Constant
Frame rate                               : 23.976 (24000/1001) FPS
Color space                              : YUV
Chroma subsampling                       : 4:2:0
Bit depth                                : 10 bits
Bits/(Pixel*Frame)                       : 0.027
Stream size                              : 665 MiB (65%)
Writing library                          : x265 3.0_Au+24-4217e691387c:[Windows][GCC 9.1.1][64 bit] 10bit
Encoding settings                        : rc=crf / crf=21.5000 / qcomp=0.60 / qpstep=4 / stats-write=0 / stats-read=0 / qpmax=69 / qpmin=0 / no-lossless / no-cu-lossless / hevc-aq / no-aq-motion / aq-mode=1 / aq-strength=1.00 / cbqpoffs=0 / crqpoffs=0 / ipratio=1.40 / pbratio=1.30 / psy-rd=2.10 / psy-rdoq=1.20 / no-deblock / ref=4 / limit-refs=3 / limit-modes / bframes=8 / b-adapt=2 / bframe-bias=40 / b-pyramid / no-b-intra / weightp / no-weightb / keyint=250 / min-keyint=23 / rc-lookahead=80 / gop-lookahead=0 / scenecut=40 / scenecut-bias=0.05 / ctu=64 / min-cu-size=8 / me=3 / subme=5 / merange=57 / rd=4 / no-rd-refine / ssim-rd / dynamic-rd=0.00 / rdoq-level=2 / rdpenalty=0 / cutree / sao / no-limit-sao / no-sao-non-deblock / rect / no-amp / open-gop / max-tu-size=32 / tu-inter-depth=1 / tu-intra-depth=1 / limit-tu=0 / qg-size=32 / wpp / no-pmode / no-pme / no-psnr / ssim / no-tskip / constrained-intra / strong-intra-smoothing / max-merge=5 / nr-intra=0 / nr-inter=0 / input-csp=1 / input-res=1920x800 / interlace=0 / total-frames=134363 / level-idc=0 / high-tier=1cpuid=1111039 / frame-threads=3 / numa-pools=12 / log-level=2 / uhd-bd=0 / lookahead-slices=4 / radl=0 / no-splice / no-intra-refresh / signhide / temporal-mvp / no-analyze-src-pics / early-skip / rskip / no-fast-intra / no-tskip-fast / no-splitrd-skip / zone-count=0 / no-strict-cbr / no-rc-grain / no-const-vbv / no-allow-non-conformance / no-repeat-headers / annexb / no-aud / no-hrd / info / hash=0 / no-temporal-layers / sar=0 / overscan=0 / videoformat=5 / range=0 / colorprim=2 / transfer=2 / colormatrix=2 / chromaloc=0 / display-window=0 / max-cll=0,0 / min-luma=0 / max-luma=1023 / log2-max-poc-lsb=8 / vui-timing-info / vui-hrd-info / slices=1 / no-opt-qp-pps / no-opt-ref-list-length-pps / no-multi-pass-opt-rps / no-opt-cu-delta-qp / no-hdr / no-hdr-opt / no-dhdr10-opt / no-idr-recovery-sei / analysis-reuse-level=5 / scale-factor=0 / refine-intra=0 / refine-inter=0 / refine-mv=0 / refine-ctu-distortion=0 / ctu-info=0 / no-lowpass-dct / refine-analysis-type=0 / copy-pic=1 / max-ausize-factor=1.0 / no-dynamic-refine / no-single-sei / no-svt / qp-adaptation-range=1.00
Default                                  : Yes
Forced                                   : No

Audio
ID                                       : 2
Format                                   : AAC
Format/Info                              : Advanced Audio Codec
Format profile                           : LC
Codec ID                                 : A_AAC
Duration                                 : 1 h 33 min
Bit rate                                 : 416 kb/s
Channel(s)                               : 8 channels
Channel positions                        : Front: L C R, Side: L R, Back: L R, LFE
Sampling rate                            : 48.0 kHz
Frame rate                               : 46.875 FPS (1024 spf)
Compression mode                         : Lossy
Delay relative to video                  : 9 ms
Stream size                              : 278 MiB (27%)
Language                                 : English
Default                                  : No
Forced                                   : No

Subtitle #1
ID                                       : 3
Format                                   : PGS
Muxing mode                              : zlib
Codec ID                                 : S_HDMV/PGS
Codec ID/Info                            : Picture based subtitle format used on BDs/HD-DVDs
Duration                                 : 1 h 27 min
Bit rate                                 : 62.4 kb/s
Count of elements                        : 4306
Stream size                              : 38.9 MiB (4%)
Language                                 : English
Default                                  : No
Forced                                   : No

Subtitle #2
ID                                       : 4
Format                                   : UTF-8
Codec ID                                 : S_TEXT/UTF8
Codec ID/Info                            : UTF-8 Plain Text
Duration                                 : 1 h 26 min
Bit rate                                 : 84 b/s
Count of elements                        : 1967
Stream size                              : 54.0 KiB (0%)
Language                                 : English
Default                                  : No
Forced                                   : No

Subtitle #3
ID                                       : 5
Format                                   : VobSub
Muxing mode                              : zlib
Codec ID                                 : S_VOBSUB
Codec ID/Info                            : Picture based subtitle format used on DVDs
Duration                                 : 1 h 32 min
Bit rate                                 : 12.6 kb/s
Count of elements                        : 1796
Stream size                              : 8.35 MiB (1%)
Language                                 : Spanish
Default                                  : No
Forced                                   : No

Subtitle #4
ID                                       : 6
Format                                   : VobSub
Muxing mode                              : zlib
Codec ID                                 : S_VOBSUB
Codec ID/Info                            : Picture based subtitle format used on DVDs
Duration                                 : 1 h 32 min
Bit rate                                 : 11.6 kb/s
Count of elements                        : 1786
Stream size                              : 7.68 MiB (1%)
Language                                 : French
Default                                  : No
Forced                                   : No

Subtitle #5
ID                                       : 7
Format                                   : VobSub
Muxing mode                              : zlib
Codec ID                                 : S_VOBSUB
Codec ID/Info                            : Picture based subtitle format used on DVDs
Duration                                 : 1 h 32 min
Bit rate                                 : 11.7 kb/s
Count of elements                        : 1631
Stream size                              : 7.74 MiB (1%)
Language                                 : Spanish
Default                                  : No
Forced                                   : No

Subtitle #6
ID                                       : 8
Format                                   : VobSub
Muxing mode                              : zlib
Codec ID                                 : S_VOBSUB
Codec ID/Info                            : Picture based subtitle format used on DVDs
Duration                                 : 1 h 32 min
Bit rate                                 : 11.5 kb/s
Count of elements                        : 1117
Stream size                              : 7.64 MiB (1%)
Language                                 : Danish
Default                                  : No
Forced                                   : No

Subtitle #7
ID                                       : 9
Format                                   : VobSub
Muxing mode                              : zlib
Codec ID                                 : S_VOBSUB
Codec ID/Info                            : Picture based subtitle format used on DVDs
Duration                                 : 1 h 32 min
Bit rate                                 : 10.6 kb/s
Count of elements                        : 1181
Stream size                              : 7.03 MiB (1%)
Language                                 : Dutch
Default                                  : No
Forced                                   : No

Subtitle #8
ID                                       : 10
Format                                   : VobSub
Muxing mode                              : zlib
Codec ID                                 : S_VOBSUB
Codec ID/Info                            : Picture based subtitle format used on DVDs
Duration                                 : 1 h 32 min
Bit rate                                 : 11.2 kb/s
Count of elements                        : 1792
Stream size                              : 7.42 MiB (1%)
Language                                 : Finnish
Default                                  : No
Forced                                   : No

Subtitle #9
ID                                       : 11
Format                                   : VobSub
Muxing mode                              : zlib
Codec ID                                 : S_VOBSUB
Codec ID/Info                            : Picture based subtitle format used on DVDs
Duration                                 : 1 h 32 min
Bit rate                                 : 12.5 kb/s
Count of elements                        : 1693
Stream size                              : 8.28 MiB (1%)
Language                                 : German
Default                                  : No
Forced                                   : No

Subtitle #10
ID                                       : 12
Format                                   : VobSub
Muxing mode                              : zlib
Codec ID                                 : S_VOBSUB
Codec ID/Info                            : Picture based subtitle format used on DVDs
Duration                                 : 1 h 32 min
Bit rate                                 : 11.0 kb/s
Count of elements                        : 1812
Stream size                              : 7.31 MiB (1%)
Language                                 : Italian
Default                                  : No
Forced                                   : No

Subtitle #11
ID                                       : 13
Format                                   : VobSub
Muxing mode                              : zlib
Codec ID                                 : S_VOBSUB
Codec ID/Info                            : Picture based subtitle format used on DVDs
Duration                                 : 1 h 32 min
Bit rate                                 : 11.9 kb/s
Count of elements                        : 1811
Stream size                              : 7.90 MiB (1%)
Language                                 : Norwegian Bokmal
Default                                  : No
Forced                                   : No

Subtitle #12
ID                                       : 14
Format                                   : VobSub
Muxing mode                              : zlib
Codec ID                                 : S_VOBSUB
Codec ID/Info                            : Picture based subtitle format used on DVDs
Duration                                 : 1 h 32 min
Bit rate                                 : 11.6 kb/s
Count of elements                        : 1810
Stream size                              : 7.69 MiB (1%)
Language                                 : Swedish
Default                                  : No
Forced                                   : No

Subtitle #13
ID                                       : 15
Format                                   : VobSub
Muxing mode                              : zlib
Codec ID                                 : S_VOBSUB
Codec ID/Info                            : Picture based subtitle format used on DVDs
Duration                                 : 1 h 32 min
Bit rate                                 : 11.5 kb/s
Count of elements                        : 1813
Stream size                              : 7.64 MiB (1%)
Language                                 : Czech
Default                                  : No
Forced                                   : No

Subtitle #14
ID                                       : 16
Format                                   : VobSub
Muxing mode                              : zlib
Codec ID                                 : S_VOBSUB
Codec ID/Info                            : Picture based subtitle format used on DVDs
Duration                                 : 1 h 32 min
Bit rate                                 : 11.7 kb/s
Count of elements                        : 1794
Stream size                              : 7.73 MiB (1%)
Language                                 : Hungarian
Default                                  : No
Forced                                   : No

Subtitle #15
ID                                       : 17
Format                                   : VobSub
Muxing mode                              : zlib
Codec ID                                 : S_VOBSUB
Codec ID/Info                            : Picture based subtitle format used on DVDs
Duration                                 : 1 h 32 min
Bit rate                                 : 8 494 b/s
Count of elements                        : 1813
Stream size                              : 5.62 MiB (1%)
Language                                 : Korean
Default                                  : No
Forced                                   : No

Subtitle #16
ID                                       : 18
Format                                   : VobSub
Muxing mode                              : zlib
Codec ID                                 : S_VOBSUB
Codec ID/Info                            : Picture based subtitle format used on DVDs
Duration                                 : 1 h 33 min
Bit rate                                 : 13.3 kb/s
Count of elements                        : 1988
Stream size                              : 8.87 MiB (1%)
Language                                 : Korean
Default                                  : No
Forced                                   : No

Subtitle #17
ID                                       : 19
Format                                   : UTF-8
Codec ID                                 : S_TEXT/UTF8
Codec ID/Info                            : UTF-8 Plain Text
Duration                                 : 1 h 32 min
Bit rate                                 : 126 b/s
Count of elements                        : 1162
Stream size                              : 85.6 KiB (0%)
Language                                 : Arabic
Default                                  : No
Forced                                   : No

Subtitle #18
ID                                       : 20
Format                                   : UTF-8
Codec ID                                 : S_TEXT/UTF8
Codec ID/Info                            : UTF-8 Plain Text
Duration                                 : 1 h 27 min
Bit rate                                 : 132 b/s
Count of elements                        : 1931
Stream size                              : 85.1 KiB (0%)
Language                                 : Persian
Default                                  : No
Forced                                   : No

Subtitle #19
ID                                       : 21
Format                                   : UTF-8
Codec ID                                 : S_TEXT/UTF8
Codec ID/Info                            : UTF-8 Plain Text
Duration                                 : 1 h 33 min
Bit rate                                 : 77 b/s
Count of elements                        : 1807
Stream size                              : 52.8 KiB (0%)
Language                                 : Indonesian
Default                                  : No
Forced                                   : No

Subtitle #20
ID                                       : 22
Format                                   : UTF-8
Codec ID                                 : S_TEXT/UTF8
Codec ID/Info                            : UTF-8 Plain Text
Duration                                 : 1 h 28 min
Bit rate                                 : 88 b/s
Count of elements                        : 1766
Stream size                              : 57.1 KiB (0%)
Language                                 : Malay
Default                                  : No
Forced                                   : No

Subtitle #21
ID                                       : 23
Format                                   : UTF-8
Codec ID                                 : S_TEXT/UTF8
Codec ID/Info                            : UTF-8 Plain Text
Duration                                 : 1 h 32 min
Bit rate                                 : 73 b/s
Count of elements                        : 1804
Stream size                              : 49.5 KiB (0%)
Language                                 : Turkish
Default                                  : No
Forced                                   : No

Menu
00:00:00.000                             : en:Chapter 01
00:05:52.643                             : en:Chapter 02
00:09:56.846                             : en:Chapter 03
00:14:14.854                             : en:Chapter 04
00:17:30.591                             : en:Chapter 05
00:19:46.059                             : en:Chapter 06
00:22:40.275                             : en:Chapter 07
00:27:33.401                             : en:Chapter 08
00:31:30.680                             : en:Chapter 09
00:33:18.955                             : en:Chapter 10
00:35:39.887                             : en:Chapter 11
00:40:13.035                             : en:Chapter 12
00:45:05.202                             : en:Chapter 13
00:49:10.113                             : en:Chapter 14
00:52:36.987                             : en:Chapter 15
00:56:46.111                             : en:Chapter 16
01:01:54.001                             : en:Chapter 17
01:05:43.397                             : en:Chapter 18
01:08:37.196                             : en:Chapter 19
01:13:31.156                             : en:Chapter 20
01:16:44.516                             : en:Chapter 21
01:19:07.200                             : en:Chapter 22
01:23:54.779                             : en:Chapter 23
01:27:49.597                             : en:Chapter 24



Source Information
Release: Stuber.2019.2160p.BluRay.x265.10bit.SDR.DTS-HD.MA.TrueHD.7.1.Atmos-SWTYBLZ.mkv (27.65 GBs)



Note From UTR
Whilst we are happy for our releases to be re-posted on a platform we aren't on, please do so in an 'as-is' format. We ask that you do not create a new torrent, include all descriptions you see above including the UTR logo, tags, notes and screenshots. If you'd like to become a permanent poster on a website we don't post to, feel free to get in contact with a UTR member.
If possible please donate: BTC 1QA5fum5AyXvWzdVCkQzUNvw3Ef15fHRaR




Category:Movies > HEVC/x265
Lang:English  English
Total Size:1.00 GB
Info Hash:d20985ec3df395068b75dc525f3f9a940b0f99f1
Added By:UTR
Date Added:09-10-2019 14:02:32

Files

File List: 
 File Size
Stuber 2019 (1080p x265 q22 S84 Joy).mkv1.00 GB



Loading...
Comments

There are currently no comments. Be the first one to write something !