gemini man 2019 the flash ford v ferrari 2019 rq.mp4 arrow español Batwoman s01e09 frozen ii 2019 yts zombieland double tap 2019 watchmen s01e08 ettv The Flash s00e05 Rick and Morty s04e04 terminator dark fate 2019 ad astra 2019 castle rock the flash s06e09 etrg Crisis on Infinite Earths Supergirl s05e09 doctor sleep 2019 flash s06e09 Emergence S01E09 emergence joker The Flash s00e05 720p queen slim 2019 Batwoman s00e01 mr robot ethd ddr angel has fallen 2019 rick and morty Watchmen 21 bridges 2019 the mandalorian s01e05 FROZEN 2 ad astra jumanji the next level 2019 see treadstone s01e09 crisis the curse of oak island the purge s02e09 evo flash treadstone once upon a time in hollywood 2019 wwe arrow black lightning s03e09 batwoman the purge black lightning the mandalorian his dark materials hustlers 2019 hindi proper knives out 2019 ncis rambo last blood 2019 mandalorian silicon valley the curse of oak island s07e06 Vikings etmovies supergirl XXX oak island joker 2019 the irishman 2019 
Warning! Use a V.P.N When Downloading Torrents!
Your IP Address is 3.215.182.36. Location is United States
Your Internet Provider is tracking your torrent activity! Hide your IP ADDRESS with a V.P.N!
We strongly recommend using ExpressV.P.N to anonymize your torrenting. 30 Day Money Back Guarantee!
Try it Now!
ETTV Recommended TV Shows
S.W.A.T.2017.S03E10.HDTV.x264-KILLERS[ettv] torrent
SEAL.Team.S03E10.HDTV.x264-SVA[ettv] torrent
Nancy.Drew.2019.S01E09.HDTV.x264-SVA[ettv] torrent
South.Park.S23E10.HDTV.x264-SVA[ettv] torrent
Stumptown.S01E09.HDTV.x264-SVA[ettv] torrent
Vikings.S06E03.HDTV.x264-SVA[ettv] torrent

ETTV Recommended SD
The.Final.Level.Escaping.Rancala.2019.HDRip.XviD.AC3-EVO torrent
5.Galaxies.2019.HDRip.XviD.AC3-EVO torrent
The.Room.2019.HDRip.XviD.AC3-EVO[EtMovies] torrent
Take.Home.Pay.2019.HDRip.XviD.AC3-EVO[EtMovies] torrent

ETTV Recommended HD
Killerman.2019.1080p.BluRay.X264-AMIABLE[EtHD] torrent
Animals.2019.1080p.WEB-DL.H264.AC3-EVO[EtHD] torrent
John.Wick.Chapter.2.2017.BDRip.1080p.HEVC.HDR.TrueHD.DD5.1.Gerald torrent
The.Room.2019.1080p.WEB-DL.x264.AAC-ETRG torrent

ETTV Recommended UHD
10 Things I Hate About You 1999.UHD.2160p.HDR.WEBRip.DTS-HD MA 5.1.HEVC-DDR torrent
Pirates of the Caribbean - The Curse of the Black Pearl 2003.MULTi.UHD.2160p.HDR.WEBRip.DTS-HD MA 5.1.HEVC-DDR torrent
The Report 2019.UHD.2160p.HDR.WEBRip.DDP.5.1.HEVC-DDR torrent
The Muppet Christmas Carol 1992.UHD.2160p.HDR.WEBRip.DTS-HDMA.5.1.HEVC-DDR torrent

ETTV Recommended Cam
Dark Waters 2019 HDCAM x264-ETRG torrent
Blue Story 2019 HDCAM x264 AC3-ETRG torrent
Jay and Silent Bob Reboot 2019 HDCAM x264-ETRG torrent
Jumanji.The.Next.Level.2019.NEW.HDCAM.x264.AC3-ETRG torrent

ETTV Recommended Foreign
The Sky Is Pink (2019) Hindi 720p HDRip x264 AAC ESubs - Downloadhub torrent
Raid.2019.Hindi.Zee5.1080p.WEB-DL.x264.AAC.Esub -DDR[EtHD] torrent
The Pineville Heist (2016) 720p WEBRip x264 [Dual Audio] [Hindi 2.0 - English 2.0] Exclusive By -=!Dr.STAR!=- torrent
War 2019.MULTi.Bluray.1080p.Atmos.7.1.HEVC-DDR torrent


Download Torrent "Rambo (2008) EXTENDED (2160p BluRay x265 HEVC 10bit AAC 7.1 Joy) [UTR]"

IMDB Details
Description:

In Thailand, John Rambo joins a group of mercenaries to venture into war-torn Burma, and rescue a group of Christian aid workers who were kidnapped by the ruthless local infantry unit.

Genre:

Action, Thriller

Download Torrent (Magnet)
Download Torrent (File)
Seeds: 420
Leechers: 235
Completed: 2,369 
Last Checked: 09-10-2019 14:13:47


Loading...
Details
Title:Rambo (2008) EXTENDED (2160p BluRay x265 HEVC 10bit AAC 7.1 Joy) [UTR]
Description:




Media Information

General
Format                                   : Matroska
Format version                           : Version 4 / Version 2
File size                                : 4.57 GiB
Duration                                 : 1 h 39 min
Overall bit rate                         : 6 584 kb/s
Movie name                               : Rambo 2008 EXTENDED  (2160p x265 10bit FS85 Joy) [UTR]
Encoded date                             : UTC 2019-10-08 07:18:08
Writing application                      : mkvmerge v32.0.0 ('Astral Progressions') 64-bit
Writing library                          : libebml v1.3.7 + libmatroska v1.5.0
Cover                                    : Yes
Attachments                              : cover.jpg
Writing frontend                         : StaxRip v2.0.2.0, Encoded by JoyBell

Video
ID                                       : 1
Format                                   : HEVC
Format/Info                              : High Efficiency Video Coding
Format profile                           : Main [email protected]@Main
Codec ID                                 : V_MPEGH/ISO/HEVC
Duration                                 : 1 h 39 min
Bit rate                                 : 5 994 kb/s
Width                                    : 3 840 pixels
Height                                   : 1 632 pixels
Display aspect ratio                     : 2.35:1
Frame rate mode                          : Constant
Frame rate                               : 23.976 (24000/1001) FPS
Color space                              : YUV
Chroma subsampling                       : 4:2:0
Bit depth                                : 10 bits
Bits/(Pixel*Frame)                       : 0.040
Stream size                              : 4.16 GiB (91%)
Writing library                          : x265 3.0_Au+24-4217e691387c:[Windows][GCC 9.1.1][64 bit] 10bit
Encoding settings                        : rc=abr / bitrate=6000 / qcomp=0.60 / qpstep=4 / stats-write=0 / stats-read=2 / cplxblur=20.0 / qblur=0.5 / qpmax=69 / qpmin=0 / no-lossless / no-cu-lossless / no-hevc-aq / no-aq-motion / aq-mode=3 / aq-strength=0.80 / cbqpoffs=0 / crqpoffs=0 / ipratio=1.40 / pbratio=1.30 / psy-rd=2.20 / psy-rdoq=1.15 / deblock=0:0 / ref=4 / limit-refs=3 / limit-modes / bframes=8 / b-adapt=2 / bframe-bias=20 / b-pyramid / no-b-intra / weightp / no-weightb / keyint=250 / min-keyint=23 / rc-lookahead=80 / gop-lookahead=0 / scenecut=40 / scenecut-bias=0.05 / ctu=64 / min-cu-size=8 / me=3 / subme=3 / merange=57 / rd=4 / no-rd-refine / ssim-rd / dynamic-rd=0.00 / rdoq-level=2 / rdpenalty=0 / cutree / sao / limit-sao / no-sao-non-deblock / no-rect / no-amp / open-gop / max-tu-size=32 / tu-inter-depth=1 / tu-intra-depth=1 / limit-tu=0 / qg-size=32 / wpp / no-pmode / no-pme / no-psnr / ssim / no-tskip / constrained-intra / strong-intra-smoothing / max-merge=3 / nr-intra=0 / nr-inter=0 / input-csp=1 / input-res=3840x1632 / interlace=0 / total-frames=142825 / level-idc=0 / high-tier=1cpuid=1111039 / frame-threads=3 / numa-pools=12 / log-level=2 / uhd-bd=0 / lookahead-slices=4 / radl=0 / no-splice / no-intra-refresh / signhide / temporal-mvp / no-analyze-src-pics / early-skip / rskip / no-fast-intra / no-tskip-fast / splitrd-skip / zone-count=0 / no-strict-cbr / no-rc-grain / no-const-vbv / no-allow-non-conformance / no-repeat-headers / annexb / no-aud / no-hrd / info / hash=0 / no-temporal-layers / sar=0 / overscan=0 / videoformat=5 / range=0 / colorprim=2 / transfer=2 / colormatrix=2 / chromaloc=0 / display-window=0 / max-cll=0,0 / min-luma=0 / max-luma=1023 / log2-max-poc-lsb=8 / vui-timing-info / vui-hrd-info / slices=1 / no-opt-qp-pps / no-opt-ref-list-length-pps / multi-pass-opt-rps / no-opt-cu-delta-qp / no-hdr / no-hdr-opt / no-dhdr10-opt / no-idr-recovery-sei / analysis-reuse-level=10 / scale-factor=0 / refine-intra=0 / refine-inter=0 / refine-mv=0 / refine-ctu-distortion=0 / ctu-info=0 / no-lowpass-dct / refine-analysis-type=0 / copy-pic=1 / max-ausize-factor=1.0 / no-dynamic-refine / no-single-sei / no-svt / qp-adaptation-range=1.00
Default                                  : Yes
Forced                                   : No

Audio
ID                                       : 2
Format                                   : AAC
Format/Info                              : Advanced Audio Codec
Format profile                           : LC
Codec ID                                 : A_AAC
Duration                                 : 1 h 39 min
Bit rate                                 : 576 kb/s
Channel(s)                               : 8 channels
Channel positions                        : Front: L C R, Side: L R, Back: L R, LFE
Sampling rate                            : 48.0 kHz
Frame rate                               : 46.875 FPS (1024 spf)
Compression mode                         : Lossy
Delay relative to video                  : 9 ms
Stream size                              : 409 MiB (9%)
Language                                 : English
Default                                  : No
Forced                                   : No

Subtitle #1
ID                                       : 3
Format                                   : PGS
Muxing mode                              : zlib
Codec ID                                 : S_HDMV/PGS
Codec ID/Info                            : Picture based subtitle format used on BDs/HD-DVDs
Duration                                 : 1 h 25 min
Bit rate                                 : 19.1 kb/s
Count of elements                        : 1124
Stream size                              : 11.7 MiB (0%)
Language                                 : English
Default                                  : No
Forced                                   : No

Subtitle #2
ID                                       : 4
Format                                   : UTF-8
Codec ID                                 : S_TEXT/UTF8
Codec ID/Info                            : UTF-8 Plain Text
Duration                                 : 1 h 25 min
Bit rate                                 : 29 b/s
Count of elements                        : 562
Stream size                              : 18.3 KiB (0%)
Language                                 : English
Default                                  : No
Forced                                   : No

Subtitle #3
ID                                       : 5
Format                                   : VobSub
Muxing mode                              : zlib
Codec ID                                 : S_VOBSUB
Codec ID/Info                            : Picture based subtitle format used on DVDs
Duration                                 : 1 h 25 min
Bit rate                                 : 6 132 b/s
Count of elements                        : 714
Stream size                              : 3.75 MiB (0%)
Language                                 : English
Default                                  : No
Forced                                   : No

Subtitle #4
ID                                       : 6
Format                                   : VobSub
Muxing mode                              : zlib
Codec ID                                 : S_VOBSUB
Codec ID/Info                            : Picture based subtitle format used on DVDs
Duration                                 : 1 h 25 min
Bit rate                                 : 4 953 b/s
Count of elements                        : 661
Stream size                              : 3.03 MiB (0%)
Language                                 : Spanish
Default                                  : No
Forced                                   : No

Subtitle #5
ID                                       : 7
Format                                   : UTF-8
Codec ID                                 : S_TEXT/UTF8
Codec ID/Info                            : UTF-8 Plain Text
Duration                                 : 1 h 19 min
Bit rate                                 : 39 b/s
Count of elements                        : 596
Stream size                              : 22.8 KiB (0%)
Language                                 : Arabic
Default                                  : No
Forced                                   : No

Subtitle #6
ID                                       : 8
Format                                   : UTF-8
Codec ID                                 : S_TEXT/UTF8
Codec ID/Info                            : UTF-8 Plain Text
Duration                                 : 1 h 16 min
Bit rate                                 : 21 b/s
Count of elements                        : 459
Stream size                              : 11.9 KiB (0%)
Language                                 : Chinese
Default                                  : No
Forced                                   : No

Subtitle #7
ID                                       : 9
Format                                   : UTF-8
Codec ID                                 : S_TEXT/UTF8
Codec ID/Info                            : UTF-8 Plain Text
Duration                                 : 1 h 20 min
Bit rate                                 : 27 b/s
Count of elements                        : 491
Stream size                              : 16.3 KiB (0%)
Language                                 : Portuguese
Default                                  : No
Forced                                   : No

Subtitle #8
ID                                       : 10
Format                                   : UTF-8
Codec ID                                 : S_TEXT/UTF8
Codec ID/Info                            : UTF-8 Plain Text
Duration                                 : 1 h 17 min
Bit rate                                 : 25 b/s
Count of elements                        : 368
Stream size                              : 14.4 KiB (0%)
Language                                 : Danish
Default                                  : No
Forced                                   : No

Subtitle #9
ID                                       : 11
Format                                   : UTF-8
Codec ID                                 : S_TEXT/UTF8
Codec ID/Info                            : UTF-8 Plain Text
Duration                                 : 1 h 13 min
Bit rate                                 : 28 b/s
Count of elements                        : 414
Stream size                              : 15.6 KiB (0%)
Language                                 : Dutch
Default                                  : No
Forced                                   : No

Subtitle #10
ID                                       : 12
Format                                   : UTF-8
Codec ID                                 : S_TEXT/UTF8
Codec ID/Info                            : UTF-8 Plain Text
Duration                                 : 1 h 28 min
Bit rate                                 : 47 b/s
Count of elements                        : 621
Stream size                              : 30.9 KiB (0%)
Language                                 : Persian
Default                                  : No
Forced                                   : No

Subtitle #11
ID                                       : 13
Format                                   : UTF-8
Codec ID                                 : S_TEXT/UTF8
Codec ID/Info                            : UTF-8 Plain Text
Duration                                 : 1 h 20 min
Bit rate                                 : 26 b/s
Count of elements                        : 366
Stream size                              : 15.6 KiB (0%)
Language                                 : Finnish
Default                                  : No
Forced                                   : No

Subtitle #12
ID                                       : 14
Format                                   : UTF-8
Codec ID                                 : S_TEXT/UTF8
Codec ID/Info                            : UTF-8 Plain Text
Duration                                 : 1 h 30 min
Bit rate                                 : 20 b/s
Count of elements                        : 534
Stream size                              : 13.5 KiB (0%)
Language                                 : French
Default                                  : No
Forced                                   : No

Subtitle #13
ID                                       : 15
Format                                   : UTF-8
Codec ID                                 : S_TEXT/UTF8
Codec ID/Info                            : UTF-8 Plain Text
Duration                                 : 1 h 17 min
Bit rate                                 : 34 b/s
Count of elements                        : 496
Stream size                              : 19.8 KiB (0%)
Language                                 : German
Default                                  : No
Forced                                   : No

Subtitle #14
ID                                       : 16
Format                                   : UTF-8
Codec ID                                 : S_TEXT/UTF8
Codec ID/Info                            : UTF-8 Plain Text
Duration                                 : 1 h 20 min
Bit rate                                 : 47 b/s
Count of elements                        : 477
Stream size                              : 28.1 KiB (0%)
Language                                 : Greek
Default                                  : No
Forced                                   : No

Subtitle #15
ID                                       : 17
Format                                   : UTF-8
Codec ID                                 : S_TEXT/UTF8
Codec ID/Info                            : UTF-8 Plain Text
Duration                                 : 1 h 20 min
Bit rate                                 : 35 b/s
Count of elements                        : 391
Stream size                              : 20.7 KiB (0%)
Language                                 : Hebrew
Default                                  : No
Forced                                   : No

Subtitle #16
ID                                       : 18
Format                                   : UTF-8
Codec ID                                 : S_TEXT/UTF8
Codec ID/Info                            : UTF-8 Plain Text
Duration                                 : 1 h 25 min
Bit rate                                 : 34 b/s
Count of elements                        : 600
Stream size                              : 21.4 KiB (0%)
Language                                 : Indonesian
Default                                  : No
Forced                                   : No

Subtitle #17
ID                                       : 19
Format                                   : UTF-8
Codec ID                                 : S_TEXT/UTF8
Codec ID/Info                            : UTF-8 Plain Text
Duration                                 : 1 h 25 min
Bit rate                                 : 38 b/s
Count of elements                        : 531
Stream size                              : 23.7 KiB (0%)
Language                                 : Vietnamese
Default                                  : No
Forced                                   : No

Menu
00:00:00.000                             : en:Chapter 01
00:06:04.573                             : en:Chapter 02
00:11:33.651                             : en:Chapter 03
00:22:41.735                             : en:Chapter 04
00:28:31.376                             : en:Chapter 05
00:33:17.621                             : en:Chapter 06
00:42:32.216                             : en:Chapter 07
00:47:26.135                             : en:Chapter 08
00:52:06.999                             : en:Chapter 09
00:59:18.013                             : en:Chapter 10
01:03:30.849                             : en:Chapter 11
01:08:03.246                             : en:Chapter 12
01:13:43.461                             : en:Chapter 13
01:19:02.529                             : en:Chapter 14
01:24:37.239                             : en:Chapter 15
01:27:17.232                             : en:Chapter 16



Source Information
Release: Rambo.2008.EXTENDED.2160p.BluRay.x265.10bit.SDR.DTS-HD.MA.TrueHD.7.1.Atmos-SWTYBLZ.mkv (32.86 GBs)



Note From UTR
Whilst we are happy for our releases to be re-posted on a platform we aren't on, please do so in an 'as-is' format. We ask that you do not create a new torrent, include all descriptions you see above including the UTR logo, tags, notes and screenshots. If you'd like to become a permanent poster on a website we don't post to, feel free to get in contact with a UTR member.
If possible please donate: BTC 1QA5fum5AyXvWzdVCkQzUNvw3Ef15fHRaR




Category:Movies > HEVC/x265
Lang:English  English
Total Size:4.57 GB
Info Hash:c6612b67d318799a34d3484310ba2a3b3f0d6e3c
Added By:UTR
Date Added:09-10-2019 14:13:44

  

Files

File List: 
 File Size
Rambo 2008 EXTENDED (2160p x265 10bit FS85 Joy).mkv4.57 GB



Loading...
Comments

There are currently no comments. Be the first one to write something !