Chicago Fire DDR legacies american horror story s09e05 el camino a breaking bad movie 2019 the good place s04e04 greys anatomy s16e04 how to get away with murder s06e04 modern family south park chicago med s05e04 the lion king 2019 Titans S02E07 maleficent mistress of evil 2019 Limetown  etmovies SEAL Team ettv fast furious presents hobbs shaw 2019 ethd supernatural 幼女 hindi mr mercedes mom s07e04 chicago med young sheldon Mr Robot toy story 4 2019 supernatural s15e02 greys anatomy zombieland double tap 2019 angel has fallen 2019 the addams family None the flash s06e02 it chapter two 2019 the walking dead 0 ddr creepshow young sheldon s03e04 evil the irishman 2019 xxx titans evo evil s01e04 The Good Place 浆果儿 once upon a time in hollywood 2019 how to get away with murder The Flash arrow Supergirl Legacies S02E02 American horror story  Joker etrg Ncis yts chicago pd s07e04 spider man far from home 2019 modern family s11e04 Impulse hustlers 2019 this is us rambo last blood 2019 joker 2019 chicago fire s08e04 gemini man 2019 
Warning! Use a VPN,When Downloading Torrents!
Your IP Address is 3.209.80.87. Location is United States
Your Internet Provider is tracking your torrent activity! Hide your IP ADDRESS with a VPN!
We strongly recommend using ExpressVPN to anonymize your torrenting. 30 Day Money Back Guarantee!
Try it Now!
ETTV Recommended TV Shows
Hawaii.Five-0.2010.S10E04.HDTV.x264-SVA[ettv] torrent
Magnum.P.I.2018.S02E04.HDTV.x264-SVA[ettv] torrent
Blue.Bloods.S10E04.HDTV.x264-SVA[ettv] torrent
Van.Helsing.S04E04.HDTV.x264-SVA[ettv] torrent
WWE Friday Night SmackDown 2019 10 18 HDTV x264-NWCHD [TJET] torrent
UFC on ESPN 6 WEB-DL H264 Fight-BB torrent

ETTV Recommended SD
Miss.Virginia.2019.HDRip.XviD.AC3-EVO torrent
William.2019.HDRip.XviD.AC3-EVO torrent
Eli.2019.HDRip.XviD.AC3-EVO torrent
Extra Ordinary.2019.HDRip.XviD.AC3-EVO torrent

ETTV Recommended HD
Wounds.2019.REPACK.1080p.HULU.WEB-DL.DDP5.1.H.264-NTG[EtHD] torrent
The.Laundromat.2019.1080p.NF.WEB-DL.DDP5.1.x264-NTG[EtHD] torrent
Passengers.2016.BDRip.1080p.x264.Multilang.DTS.DD5.1.Gerald torrent
The.Wolf.of.Wall.Street.2013.1080p.NF.WEB-DL.H264-ETRG[EtHD] torrent

ETTV Recommended UHD
The.Secret.Life.of.Pets.2.2019.4K.HDR.2160p.BDRip Ita Eng x265-NAHOM torrent
Alita.Battle.Angel.2019.4K.HDR10+.2160p.BDRip Ita Eng x265-NAHOM torrent
Casino.Royale.2006.2160p.UHD.BluRay.X265-IAMABLE torrent
Hellboy.2004.DC.4K.HDR.2160p.BDRip Ita Eng x265-NAHOM torrent

ETTV Recommended Cam
Joker.2019.HDTS.x264.AC3-ETRG torrent
Maleficent Mistress of Evil 2019 720p HDCAM-GETB8 torrent
The Lighthouse 2019 720p HDCAM-GETB8 torrent
Jojo Rabbit 2019 720p HDCAM-GETB8 torrent

ETTV Recommended Foreign
Infernal (2015) x264 720p UNRATED WEB-DL {Dual Audio} [Hindi ORG DD 2.0 + English 2.0] Exclusive By DREDD torrent
Thadam (2019) 720p UNCUT HDRip x264 Eng Subs [Dual Audio] [Hindi DD 2.0 - Tamil 5.1] Exclusive By -=!Dr.STAR!=- torrent
Qahwat.Bursat.Misr.2019.1080p.HDTV.Arabic.قهوة بورصة مصر-Holly[ETArabia] torrent
Saaho.2019.Hindi.1080p.AMZN.WeB.DL.AVC.MP3.Line.Audio.DusIcTv torrent


Download Torrent "The Aviator (2004)Mp-4 X264 1080p AAC[DSD]"

IMDB Details
Description:

A biopic depicting the early years of legendary Director and aviator Howard Hughes' career from the late 1920s to the mid 1940s.

Genre:

Biography, Drama

Download Torrent (Magnet)
Download Torrent (File)
Seeds: 41
Leechers: 5
Completed: 248 
Last Checked: 10-10-2019 13:06:55


Details
Title:The Aviator (2004)Mp-4 X264 1080p AAC[DSD]
Description:
Seedboxed!

Wide Screen!




General

Complete name                            : AVIATOR.mp4

Format                                   : MPEG-4

Format profile                           : Base Media / Version 2

Codec ID                                 : mp42 (mp42/isom/avc1)

File size                                : 2.72 GiB

Duration                                 : 2 h 50 min

Overall bit rate mode                    : Variable

Overall bit rate                         : 2 292 kb/s

Movie name                               : 08063295_AVIATOR.Title0

Encoded date                             : UTC 2019-10-09 20:27:24

Tagged date                              : UTC 2019-10-09 23:43:02

Writing application                      : DVDFab 11.0.5.4

Cover                                    : Yes


Video

ID                                       : 1

Format                                   : AVC

Format/Info                              : Advanced Video Codec

Format profile                           : [email protected]

Format settings                          : CABAC / 2 Ref Frames

Format settings, CABAC                   : Yes

Format settings, RefFrames               : 2 frames

Format settings, GOP                     : M=1, N=24

Codec ID                                 : avc1

Codec ID/Info                            : Advanced Video Coding

Duration                                 : 2 h 50 min

Bit rate mode                            : Variable

Bit rate                                 : 1 819 kb/s

Maximum bit rate                         : 2 818 kb/s

Width                                    : 1 920 pixels

Height                                   : 816 pixels

Display aspect ratio                     : 2.35:1

Frame rate mode                          : Constant

Frame rate                               : 23.976 (24000/1001) FPS

Color space                              : YUV

Chroma subsampling                       : 4:2:0

Bit depth                                : 8 bits

Scan type                                : Progressive

Bits/(Pixel*Frame)                       : 0.048

Stream size                              : 2.16 GiB (79%)

Encoded date                             : UTC 2019-10-09 20:27:24

Tagged date                              : UTC 2019-10-09 23:43:02

Color primaries                          : BT.709

Transfer characteristics                 : BT.709

Matrix coefficients                      : BT.709

Menus                                    : 5


Audio

ID                                       : 2

Format                                   : AAC

Format/Info                              : Advanced Audio Codec

Format profile                           : LC

Codec ID                                 : mp4a-40-2

Duration                                 : 2 h 50 min

Bit rate mode                            : Variable

Bit rate                                 : 448 kb/s

Maximum bit rate                         : 453 kb/s

Channel(s)                               : 6 channels

Channel positions                        : Front: L C R, Side: L R, LFE

Sampling rate                            : 48.0 kHz

Frame rate                               : 46.875 FPS (1024 SPF)

Compression mode                         : Lossy

Stream size                              : 545 MiB (20%)

Title                                    : English (aac 5.1)

Language                                 : English

Default                                  : Yes

Alternate group                          : 1

Encoded date                             : UTC 2019-10-09 20:27:24

Tagged date                              : UTC 2019-10-09 23:43:02


Text #1

ID                                       : 3

Format                                   : VobSub

Codec ID                                 : mp4s-E0

Codec ID/Info                            : The same subtitle format used on DVDs

Duration                                 : 2 h 50 min

Bit rate mode                            : Variable

Bit rate                                 : 10.8 kb/s

Maximum bit rate                         : 4 249 Mb/s

Stream size                              : 13.1 MiB (0%)

Language                                 : English

Default                                  : Yes

Forced                                   : No

Alternate group                          : 2

Encoded date                             : UTC 2019-10-09 20:27:24


Tagged date                              : UTC 2019-10-09 23:43:00

Category:Movies > HD 1080p
Lang:English  English
Total Size:2.72 GB
Info Hash:c206f40e5c7ebada3da5bb9138cf3a4173549a98
Added By:DaScubaDude
Date Added:10-10-2019 13:06:53

  

Files

File List: 
 File Size
AVIATOR.mp42.72 GB



Loading...
Comments

There are currently no comments. Be the first one to write something !