swat s03e08 south park 0 the mandalorian s01e01 charlies angels 2019 gemini man 2019 aew seal team s03e07 ford v ferrari 2019 DC Week marvel week zombieland double tap 2019 ethd Chicago Fire Supergirl watchmen riverdale maleficent mistress of evil 2019 Chicago Med seal team WWE joker 2019 Dream girl  ncis s17e08 Chicago PD s07e09 READY OR NOT Joker frozen ii 2019 always sunny His Dark Materials angel has fallen 2019 The flash evo hindi The Mandalorian s01e02 titans riverdale s04e07 xxx the flash s06e06 stumptown Mandalorian Arrow once upon a time in hollywood 2019 ncis Chicago Fire s08e09 the irishman 2019 SURVIVOR yts etmovies The Mandalorian Silicon Valley stumptown s01e07 Conan the walking dead modern family s11e07 treadstone s01e06 ettv fast furious presents hobbs shaw 2019 rick and morty chicago med s05e09 Treadstone rambo last blood 2019 terminator dark fate 2019 see Once Upon A Time In Hollywood arrow s08e05 gemini man nancy drew ddr Chicago PD etrg Modern Family 
Warning! Use a V.P.N When Downloading Torrents!
Your IP Address is 35.173.234.140. Location is United States
Your Internet Provider is tracking your torrent activity! Hide your IP ADDRESS with a V.P.N!
We strongly recommend using ExpressV.P.N to anonymize your torrenting. 30 Day Money Back Guarantee!
Try it Now!
ETTV Recommended TV Shows
Evil.S01E08.HDTV.x264-SVA[ettv] torrent
See (2019) S01E06 Silk (1080p ATVP Webrip x265 10bit EAC3 5.1 - Goki).mkv torrent
The.Mandalorian.S01E03.1080p.WEB.H264-PETRiFiED[EtHD] torrent
Titans.S02E12.WEBRip.x264-ION10 torrent

ETTV Recommended SD
Ready.or.Not.2019.BDRip.XviD.AC3-EVO torrent
Rambo.Last.Blood.2019.HC.HDRip.XViD-ETRG torrent
Overcomer.2019.HDRip.XviD.AC3-EVO[EtMovies] torrent
The.Courier.2019.HDRip.XViD-ETRG torrent

ETTV Recommended HD
Ready.or.Not.2019.1080p.Bluray.DTS-HD.MA.5.1.X264-EVO[EtHD] torrent
Rambo.Last.Blood.2019.HC.1080p.HDRip.X264.AC3-EVO[EtHD] torrent
Once.Upon.a.Time.in.Hollywood.2019.1080p.WEB-DL.DD5.1.H264-CMRG[EtHD] torrent
Daddys.Home.2015.BDRip.1080p.x264.Multilang.DTS.DD5.1.Gerald torrent

ETTV Recommended UHD
Three.Billboards.Outside.Ebbing.Missouri.2017.MULTi.UHD.Blu-ray.2160p.HDR.DTS-HDMA.5.1.HEVC-DDR torrent
Angel.Has.Fallen.2019.MULTi.UHD.BluRay.2160p.HDR.Atmos.7.1.HEVC-DDR torrent
Midsommar.2019.MULTi.UHD.Bluray.2160p.HDR.DTS-HDMA.5.1.HEVC-DDR torrent
Independence Day.1996.EXTENDED.4K.HDR.2160p.BDRip Ita Eng x265-NAHOM torrent

ETTV Recommended Cam
Ford v Ferrari 2019 NEW HDCAM X264-ETRG torrent
Charlies Angels 2019 NEW HD-TS  x264-ETRG torrent
Frozen 2 2019 720p HDCAM-GETB8 torrent
21 Bridges 2019 720p HDCAM-GETB8 torrent

ETTV Recommended Foreign
Keshava (2017) 720p UNCUT HDRip x264 [Dual Audio] [Hindi DD 2.0 - Telugu 2.0] Exclusive By -=!Dr.STAR!=- torrent
The.Climbers.2019.HC.HDRip.XviD.AC3-EVO[EtMovies] torrent
Fredrick.2016.Hindi.1080p.WEB-DL.x264.AAC -DDR[EtHD] torrent
Pagalpanti (2019) Hindi 720p PreDVD Rip x264 AAC 1.2GB CineVood Exclusive torrent


Download Torrent "Rambo (2008) (1080p BluRay x265 HEVC 10bit TrueHD 7.1 Qman) [UTR]"

IMDB Details
Description:

In Thailand, John Rambo joins a group of mercenaries to venture into war-torn Burma, and rescue a group of Christian aid workers who were kidnapped by the ruthless local infantry unit.

Genre:

Action, Thriller

Download Torrent (Magnet)
Download Torrent (File)
Seeds: 93
Leechers: 63
Completed: 481 
Last Checked: 10-10-2019 17:50:01


Loading...
Details
Title:Rambo (2008) (1080p BluRay x265 HEVC 10bit TrueHD 7.1 Qman) [UTR]
Description:




Media Information

General
Format                                   : Matroska
Format version                           : Version 4 / Version 2
File size                                : 10.4 GiB
Duration                                 : 1 h 39 min
Overall bit rate mode                    : Variable
Overall bit rate                         : 15.0 Mb/s
Encoded date                             : UTC 2019-10-10 02:02:32
Writing application                      : mkvmerge v30.1.0 ('Forever And More') 64-bit
Writing library                          : libebml v1.3.6 + libmatroska v1.4.9

Video
ID                                       : 1
Format                                   : HEVC
Format/Info                              : High Efficiency Video Coding
Format profile                           : Main [email protected]@Main
Codec ID                                 : V_MPEGH/ISO/HEVC
Duration                                 : 1 h 39 min
Bit rate                                 : 9 225 kb/s
Width                                    : 1 920 pixels
Height                                   : 816 pixels
Display aspect ratio                     : 2.35:1
Frame rate mode                          : Constant
Frame rate                               : 23.976 (24000/1001) FPS
Color space                              : YUV
Chroma subsampling                       : 4:2:0
Bit depth                                : 10 bits
Bits/(Pixel*Frame)                       : 0.246
Stream size                              : 6.40 GiB (62%)
Writing library                          : x265 3.0_Au+24-4217e691387c:[Windows][GCC 9.1.1][64 bit] 10bit
Encoding settings                        : rc=crf / crf=18.0000 / qcomp=0.60 / qpstep=4 / stats-write=0 / stats-read=0 / qpmax=69 / qpmin=0 / no-lossless / no-cu-lossless / no-hevc-aq / no-aq-motion / aq-mode=3 / aq-strength=1.00 / cbqpoffs=0 / crqpoffs=0 / ipratio=1.40 / pbratio=1.30 / psy-rd=2.50 / psy-rdoq=1.50 / no-deblock / ref=4 / limit-refs=3 / limit-modes / bframes=8 / b-adapt=2 / bframe-bias=20 / b-pyramid / no-b-intra / weightp / no-weightb / keyint=250 / min-keyint=23 / rc-lookahead=80 / gop-lookahead=0 / scenecut=40 / scenecut-bias=0.05 / ctu=64 / min-cu-size=8 / me=3 / subme=7 / merange=57 / rd=4 / no-rd-refine / ssim-rd / dynamic-rd=0.00 / rdoq-level=2 / rdpenalty=0 / cutree / no-sao / no-limit-sao / no-sao-non-deblock / rect / no-amp / open-gop / max-tu-size=32 / tu-inter-depth=1 / tu-intra-depth=1 / limit-tu=0 / qg-size=32 / wpp / no-pmode / no-pme / no-psnr / ssim / no-tskip / constrained-intra / strong-intra-smoothing / max-merge=5 / nr-intra=0 / nr-inter=0 / input-csp=1 / input-res=1920x816 / interlace=0 / total-frames=142825 / level-idc=0 / high-tier=1cpuid=1111039 / frame-threads=3 / numa-pools=12 / log-level=2 / uhd-bd=0 / lookahead-slices=4 / radl=0 / no-splice / no-intra-refresh / signhide / temporal-mvp / no-analyze-src-pics / early-skip / rskip / no-fast-intra / no-tskip-fast / no-splitrd-skip / zone-count=0 / no-strict-cbr / no-rc-grain / no-const-vbv / no-allow-non-conformance / no-repeat-headers / annexb / no-aud / no-hrd / info / hash=0 / no-temporal-layers / sar=0 / overscan=0 / videoformat=5 / range=0 / colorprim=2 / transfer=2 / colormatrix=2 / chromaloc=0 / display-window=0 / max-cll=0,0 / min-luma=0 / max-luma=1023 / log2-max-poc-lsb=8 / vui-timing-info / vui-hrd-info / slices=1 / no-opt-qp-pps / no-opt-ref-list-length-pps / no-multi-pass-opt-rps / no-opt-cu-delta-qp / no-hdr / no-hdr-opt / no-dhdr10-opt / no-idr-recovery-sei / analysis-reuse-level=5 / scale-factor=0 / refine-intra=0 / refine-inter=0 / refine-mv=0 / refine-ctu-distortion=0 / ctu-info=0 / no-lowpass-dct / refine-analysis-type=0 / copy-pic=1 / max-ausize-factor=1.0 / no-dynamic-refine / no-single-sei / no-svt / qp-adaptation-range=1.00
Language                                 : English
Default                                  : Yes
Forced                                   : No

Audio
ID                                       : 2
Format                                   : Atmos / TrueHD
Codec ID                                 : A_TRUEHD
Duration                                 : 1 h 39 min
Bit rate mode                            : Variable
Bit rate                                 : 5 671 kb/s
Maximum bit rate                         : 8 955 kb/s
Channel(s)                               : Object Based / 8 channels
Channel positions                        : Object Based / Front: L C R, Side: L R, Back: L R, LFE
Sampling rate                            :  / 48.0 kHz
Frame rate                               : 1 200.000 FPS (40 spf)
Compression mode                         : Lossless
Stream size                              : 3.93 GiB (38%)
Language                                 : English
Default                                  : Yes
Forced                                   : No

Subtitle #1
ID                                       : 3
Format                                   : PGS
Muxing mode                              : zlib
Codec ID                                 : S_HDMV/PGS
Codec ID/Info                            : Picture based subtitle format used on BDs/HD-DVDs
Duration                                 : 1 h 25 min
Bit rate                                 : 19.1 kb/s
Count of elements                        : 1124
Stream size                              : 11.7 MiB (0%)
Language                                 : English
Default                                  : Yes
Forced                                   : No

Subtitle #2
ID                                       : 4
Format                                   : UTF-8
Codec ID                                 : S_TEXT/UTF8
Codec ID/Info                            : UTF-8 Plain Text
Duration                                 : 1 h 20 min
Bit rate                                 : 47 b/s
Count of elements                        : 477
Stream size                              : 28.1 KiB (0%)
Language                                 : Greek
Default                                  : No
Forced                                   : No

Menu
00:00:00.000                             : en:Chapter 01
00:06:04.573                             : en:Chapter 02
00:11:33.651                             : en:Chapter 03
00:22:41.735                             : en:Chapter 04
00:28:31.376                             : en:Chapter 05
00:33:17.621                             : en:Chapter 06
00:42:32.216                             : en:Chapter 07
00:47:26.135                             : en:Chapter 08
00:52:06.999                             : en:Chapter 09
00:59:18.013                             : en:Chapter 10
01:03:30.849                             : en:Chapter 11
01:08:03.246                             : en:Chapter 12
01:13:43.461                             : en:Chapter 13
01:19:02.529                             : en:Chapter 14
01:24:37.239                             : en:Chapter 15
01:27:17.232                             : en:Chapter 16

Source Information
Release:
Unknown Source/NO-GROUP



Category:Movies > HEVC/x265
Lang:English  English
Total Size:10.38 GB
Info Hash:1a3bb4930ce6a348958d05f0cd3b34c53645460b
Added By:UTR
Date Added:10-10-2019 17:49:58

Files

File List: 
 File Size
Rambo.(2008).1080p.BluRay.10-bit.x265.TrueHD.7.1 Qman[UTR].mkv10.38 GB



Loading...
Comments

There are currently no comments. Be the first one to write something !