nancy drew aew evo Rick and Morty S04E04 silicon valley knives out 2019 seal team s03e09 survivor gemini man 2019 the mandalorian s01e04 Christmas The Irishman queen slim 2019 etrg ethd see Titans v wars survivor s39e11 angel has fallen 2019 mr robot arrow seal team vikings s06e02 wwe modern family s11e08 stumptown The Morning Show the irishman 2019 hustlers 2019 joker 2019 Vikings nancy drew s01e08 stumptown s01e08 frozen ii 2019 the flash terminator dark fate 2019 rambo last blood 2019 the flash s06e08 supernatural ford v ferrari 2019 xxx marvel week mandalorian maleficent mistress of evil 2019 21 bridges 2019 yts Ad Astra  ncis castle rock south park s23e09 vikings s06e01 etmovies ad astra 2019 batwoman joker the mandalorian treadstone ettv South Park dc week modern family supergirl watchmen proper rick and morty RIVERDALE the walking dead Hindi His Dark Materials ddr arrow s08e07 
Warning! Use a V.P.N When Downloading Torrents!
Your IP Address is 18.207.238.169. Location is United States
Your Internet Provider is tracking your torrent activity! Hide your IP ADDRESS with a V.P.N!
We strongly recommend using ExpressV.P.N to anonymize your torrenting. 30 Day Money Back Guarantee!
Try it Now!
ETTV Recommended TV Shows
Nancy.Drew.2019.S01E08.HDTV.x264-SVA[ettv] torrent
Stumptown.S01E08.HDTV.x264-SVA[ettv] torrent
Vikings.S06E01.HDTV.x264-SVA[ettv] torrent
SEAL.Team.S03E09.HDTV.x264-KILLERS[ettv] torrent

ETTV Recommended SD
Amundsen.2019.BDRip.XviD.AC3-EVO[EtMovies] torrent
A.Holiday.Boyfriend.2019.HDRip.XviD.AC3-EVO[EtMovies] torrent
Downton Abbey.2019.BRRip.XviD.AC3-EVO[EtMovies] torrent
The.Dunes.2019.HDRip.XviD.AC3-EVO torrent

ETTV Recommended HD
The.Reliant.2019.1080p.AMZN.WEB-DL.DDP5.1.H.264-NTG[EtHD] torrent
X-Men.Apocalypse.2016.BDRip.1080p.x264.Multilang.TrueHD.DTS.DD5.1.Gerald torrent
Downton.Abbey.2019.BluRay.720p.x264.DTS-HDChina[EtHD] torrent
Ad.Astra.2019.1080p.Bluray.DTS-HD.MA.7.1.X264-EVO[EtHD] torrent

ETTV Recommended UHD
Hustlers.2019.2160p.UHD.BluRay.X265.10bit.HDR.TrueHD.7.1.Atmos-AAAUHD torrent
It.Chapter.Two.2019.2160p.UHD.BluRay.X265.10bit.HDR.TrueHD.7.1.Atmos-AAAUHD torrent
John.Wick.2014.BDRip.2160p.UHD.HDR.Eng.Fre.Spa.TrueHD.DD5.1.Gerald torrent
X-Men.Apocalypse.2016.BDRip.2160p.UHD.HDR.Multilang.TrueHD.DTS.DD5.1.Gerald torrent

ETTV Recommended Cam
Last Christmas 2019 HDCAM x264 AC3-ETRG torrent
Dark Waters 2019 HDCAM x264-ETRG torrent
Blue Story 2019 HDCAM x264 AC3-ETRG torrent
Jay and Silent Bob Reboot 2019 HDCAM x264-ETRG torrent

ETTV Recommended Foreign
Allegiant (2016) 720p BluRay x264 Eng Subs [Dual Audio] [Hindi DD 2.0 - English 2.0] Exclusive By -=!Dr.STAR!=- torrent
Line of Descent.2019.Hindi.1080p.WEB-DL.x264.AAC.Esub -DDR[EtHD] torrent
Kala Shah Kala (2019) Punjabi 720p HDRip x264 AAC - Downloadhub torrent
The Spy Who Dumped Me 2018 x264 720p Esub BluRay Dual Audio English Hindi GOPISAHI torrent


Download Torrent "El.Camino.A.Breaking.Bad.Movie.2019.HDRip.XviD.AC3.LLG"

IMDB Details
Description:

After escaping Jack and his gang, Jesse Pinkman goes on the run from the police and tries to escape his own inner turmoil.

Genre:

Action, Drama

Download Torrent (Magnet)
Download Torrent (File)
Seeds: 259
Leechers: 152
Completed: 2,176 
Last Checked: 12-10-2019 14:16:43


Loading...
Details
Title:El.Camino.A.Breaking.Bad.Movie.2019.HDRip.XviD.AC3.LLG
Description:




******************************Thumbnail:**********************




******************************Screenshots:******************** 

Screenshot 1

Screenshot 2

Screenshot 3

Screenshot 4

Screenshot 5

Screenshot 6

Screenshot 7

Screenshot 8

Screenshot 9

Screenshot 0

********************************************************** 
General
El.Camino.A.Breaking.Bad.Movie.2019.HDRip.XviD.AC3.LLG.mp4
Format                                   : MPEG-4
Format profile                           : Base Media
Codec ID                                 : isom (isom/iso2/avc1/mp41)
File size                                : 1.10 GiB
Duration                                 : 2 h 2 min
Overall bit rate mode                    : Variable
Overall bit rate                         : 1 282 kb/s

Video
ID                                       : 1
Format                                   : AVC
Format/Info                              : Advanced Video Codec
Format profile                           : [email protected]
Format settings                          : CABAC / 1 Ref Frames
Format settings, CABAC                   : Yes
Format settings, Reference frames        : 1 frame
Codec ID                                 : avc1
Codec ID/Info                            : Advanced Video Coding
Duration                                 : 2 h 2 min
Bit rate mode                            : Variable
Bit rate                                 : 894 kb/s
Maximum bit rate                         : 2 700 kb/s
Width                                    : 720 pixels
Height                                   : 302 pixels
Display aspect ratio                     : 2.40:1
Frame rate mode                          : Constant
Frame rate                               : 24.000 FPS
Color space                              : YUV
Chroma subsampling                       : 4:2:0
Bit depth                                : 8 bits
Scan type                                : Progressive
Bits/(Pixel*Frame)                       : 0.171
Stream size                              : 785 MiB (70%)

Audio
ID                                       : 2
Format                                   : AC-3
Format/Info                              : Audio Coding 3
Commercial name                          : Dolby Digital
Codec ID                                 : ac-3
Duration                                 : 2 h 2 min
Bit rate mode                            : Constant
Bit rate                                 : 384 kb/s
Channel(s)                               : 6 channels
Channel layout                           : L R C LFE Ls Rs
Sampling rate                            : 48.0 kHz
Frame rate                               : 31.250 FPS (1536 SPF)
Bit depth                                : 16 bits
Compression mode                         : Lossy
Stream size                              : 337 MiB (30%)
Title                                    : Surround
Language                                 : English
Service kind                             : Complete Main
Default                                  : Yes
Alternate group                          : 1


********************************************************** 




Category:Movies > XviD
Lang:English  English
Total Size:1.15 GB
Info Hash:cf79f8f0e11be5743706519e3f980e8bc4650633
Added By:LifeLongg
Date Added:12-10-2019 14:16:39

  

Files

File List: 
 File Size
El.Camino.A.Breaking.Bad.Movie.2019.HDRip.XviD.AC3.LLG.mp41.10 GB
Sample.ts50 MB



Loading...
Comments

There are currently no comments. Be the first one to write something !