swat s03e08 south park 0 the mandalorian s01e01 charlies angels 2019 gemini man 2019 aew seal team s03e07 ford v ferrari 2019 DC Week marvel week zombieland double tap 2019 ethd Chicago Fire Supergirl watchmen riverdale maleficent mistress of evil 2019 Chicago Med seal team WWE joker 2019 Dream girl  ncis s17e08 Chicago PD s07e09 READY OR NOT Joker frozen ii 2019 always sunny His Dark Materials angel has fallen 2019 The flash evo hindi The Mandalorian s01e02 titans riverdale s04e07 xxx the flash s06e06 stumptown Mandalorian Arrow once upon a time in hollywood 2019 ncis Chicago Fire s08e09 the irishman 2019 SURVIVOR yts etmovies The Mandalorian Silicon Valley stumptown s01e07 Conan the walking dead modern family s11e07 treadstone s01e06 ettv fast furious presents hobbs shaw 2019 rick and morty chicago med s05e09 Treadstone rambo last blood 2019 terminator dark fate 2019 see Once Upon A Time In Hollywood arrow s08e05 gemini man nancy drew ddr Chicago PD etrg Modern Family 
Warning! Use a V.P.N When Downloading Torrents!
Your IP Address is 35.173.234.140. Location is United States
Your Internet Provider is tracking your torrent activity! Hide your IP ADDRESS with a V.P.N!
We strongly recommend using ExpressV.P.N to anonymize your torrenting. 30 Day Money Back Guarantee!
Try it Now!
ETTV Recommended TV Shows
Evil.S01E08.HDTV.x264-SVA[ettv] torrent
See (2019) S01E06 Silk (1080p ATVP Webrip x265 10bit EAC3 5.1 - Goki).mkv torrent
The.Mandalorian.S01E03.1080p.WEB.H264-PETRiFiED[EtHD] torrent
Titans.S02E12.WEBRip.x264-ION10 torrent

ETTV Recommended SD
Ready.or.Not.2019.BDRip.XviD.AC3-EVO torrent
Rambo.Last.Blood.2019.HC.HDRip.XViD-ETRG torrent
Overcomer.2019.HDRip.XviD.AC3-EVO[EtMovies] torrent
The.Courier.2019.HDRip.XViD-ETRG torrent

ETTV Recommended HD
Ready.or.Not.2019.1080p.Bluray.DTS-HD.MA.5.1.X264-EVO[EtHD] torrent
Rambo.Last.Blood.2019.HC.1080p.HDRip.X264.AC3-EVO[EtHD] torrent
Once.Upon.a.Time.in.Hollywood.2019.1080p.WEB-DL.DD5.1.H264-CMRG[EtHD] torrent
Daddys.Home.2015.BDRip.1080p.x264.Multilang.DTS.DD5.1.Gerald torrent

ETTV Recommended UHD
Three.Billboards.Outside.Ebbing.Missouri.2017.MULTi.UHD.Blu-ray.2160p.HDR.DTS-HDMA.5.1.HEVC-DDR torrent
Angel.Has.Fallen.2019.MULTi.UHD.BluRay.2160p.HDR.Atmos.7.1.HEVC-DDR torrent
Midsommar.2019.MULTi.UHD.Bluray.2160p.HDR.DTS-HDMA.5.1.HEVC-DDR torrent
Independence Day.1996.EXTENDED.4K.HDR.2160p.BDRip Ita Eng x265-NAHOM torrent

ETTV Recommended Cam
Charlies Angels 2019 NEW HD-TS  x264-ETRG torrent
Frozen 2 2019 720p HDCAM-GETB8 torrent
21 Bridges 2019 720p HDCAM-GETB8 torrent
A Beautiful Day in the Neighborhood 2019 720p HDCAM-GETB8 torrent

ETTV Recommended Foreign
Keshava (2017) 720p UNCUT HDRip x264 [Dual Audio] [Hindi DD 2.0 - Telugu 2.0] Exclusive By -=!Dr.STAR!=- torrent
The.Climbers.2019.HC.HDRip.XviD.AC3-EVO[EtMovies] torrent
Fredrick.2016.Hindi.1080p.WEB-DL.x264.AAC -DDR[EtHD] torrent
Pagalpanti (2019) Hindi 720p PreDVD Rip x264 AAC 1.2GB CineVood Exclusive torrent


Download Torrent "The Dark Crystal - Age of Resistance (2019) Season 01 S01 (1080p NF WEBRip ..."

IMDB Details
Description:

Returns to the world of Thra, where three Gelfling discover the horrifying secret behind the Skeksis' power, and set out to ignite the fires of rebellion and save their world.

Genre:

Adventure, Drama, Family, Fantasy, Sci-Fi

Download Torrent (Magnet)
Download Torrent (File)
Seeds: 284
Leechers: 121
Completed: 3,128 
Last Checked: 12-10-2019 14:37:08


Loading...
Details
Title:The Dark Crystal - Age of Resistance (2019) Season 01 S01 (1080p NF WEBRip ...
Description:




Media Information
General
Format                                   : Matroska
Format version                           : Version 4 / Version 2
File size                                : 606 MiB
Duration                                 : 1 h 1 min
Overall bit rate                         : 1 385 kb/s
Movie name                               : The Dark Crystal-Age of Resistance S01E01 End. Begin. All the Same.  (1080p x265 10bit Joy)[UTR]
Encoded date                             : UTC 2019-10-08 23:37:02
Writing application                      : mkvmerge v34.0.0 ('Sight and Seen') 64-bit
Writing library                          : libebml v1.3.7 + libmatroska v1.5.0
Writing frontend                         : StaxRip v2.0.2.0, a JoyBell Encode

Video
ID                                       : 1
Format                                   : HEVC
Format/Info                              : High Efficiency Video Coding
Format profile                           : Main [email protected]@Main
Codec ID                                 : V_MPEGH/ISO/HEVC
Duration                                 : 1 h 0 min
Bit rate                                 : 1 204 kb/s
Width                                    : 1 920 pixels
Height                                   : 864 pixels
Display aspect ratio                     : 2.222
Frame rate mode                          : Constant
Frame rate                               : 23.976 (24000/1001) FPS
Color space                              : YUV
Chroma subsampling                       : 4:2:0
Bit depth                                : 10 bits
Bits/(Pixel*Frame)                       : 0.030
Stream size                              : 521 MiB (86%)
Writing library                          : x265 3.0_Au+24-4217e691387c:[Windows][GCC 9.1.1][64 bit] 10bit
Encoding settings                        : rc=abr / bitrate=1200 / qcomp=0.60 / qpstep=4 / stats-write=0 / stats-read=2 / cplxblur=20.0 / qblur=0.5 / qpmax=69 / qpmin=0 / no-lossless / no-cu-lossless / no-hevc-aq / no-aq-motion / aq-mode=2 / aq-strength=0.80 / cbqpoffs=0 / crqpoffs=0 / ipratio=1.40 / pbratio=1.30 / psy-rd=2.45 / psy-rdoq=1.50 / deblock=0:0 / ref=4 / limit-refs=3 / limit-modes / bframes=8 / b-adapt=2 / bframe-bias=40 / b-pyramid / no-b-intra / weightp / no-weightb / keyint=250 / min-keyint=23 / rc-lookahead=80 / gop-lookahead=0 / scenecut=40 / scenecut-bias=0.05 / ctu=64 / min-cu-size=8 / me=3 / subme=3 / merange=57 / rd=4 / no-rd-refine / ssim-rd / dynamic-rd=0.00 / rdoq-level=2 / rdpenalty=0 / cutree / sao / limit-sao / no-sao-non-deblock / no-rect / no-amp / open-gop / max-tu-size=32 / tu-inter-depth=1 / tu-intra-depth=1 / limit-tu=0 / qg-size=32 / wpp / no-pmode / no-pme / no-psnr / ssim / no-tskip / constrained-intra / strong-intra-smoothing / max-merge=3 / nr-intra=0 / nr-inter=0 / input-csp=1 / input-res=1920x864 / interlace=0 / total-frames=87098 / level-idc=0 / high-tier=1cpuid=1111039 / frame-threads=3 / numa-pools=12 / log-level=2 / uhd-bd=0 / lookahead-slices=4 / radl=0 / no-splice / no-intra-refresh / signhide / temporal-mvp / no-analyze-src-pics / early-skip / rskip / no-fast-intra / no-tskip-fast / splitrd-skip / zone-count=0 / no-strict-cbr / no-rc-grain / no-const-vbv / no-allow-non-conformance / no-repeat-headers / annexb / no-aud / no-hrd / info / hash=0 / no-temporal-layers / sar=0 / overscan=0 / videoformat=5 / range=0 / colorprim=2 / transfer=2 / colormatrix=2 / chromaloc=0 / display-window=0 / max-cll=0,0 / min-luma=0 / max-luma=1023 / log2-max-poc-lsb=8 / vui-timing-info / vui-hrd-info / slices=1 / no-opt-qp-pps / no-opt-ref-list-length-pps / multi-pass-opt-rps / no-opt-cu-delta-qp / no-hdr / no-hdr-opt / no-dhdr10-opt / no-idr-recovery-sei / analysis-reuse-level=10 / scale-factor=0 / refine-intra=0 / refine-inter=0 / refine-mv=0 / refine-ctu-distortion=0 / ctu-info=0 / no-lowpass-dct / refine-analysis-type=0 / copy-pic=1 / max-ausize-factor=1.0 / no-dynamic-refine / no-single-sei / no-svt / qp-adaptation-range=1.00
Default                                  : Yes
Forced                                   : No

Audio
ID                                       : 2
Format                                   : AAC
Format/Info                              : Advanced Audio Codec
Format profile                           : HE-AAC / LC
Codec ID                                 : A_AAC
Duration                                 : 1 h 1 min
Bit rate                                 : 187 kb/s
Channel(s)                               : 6 channels
Channel positions                        : Front: L C R, Side: L R, LFE
Sampling rate                            : 48.0 kHz / 24.0 kHz
Frame rate                               : 23.438 FPS (1024 spf)
Compression mode                         : Lossy
Delay relative to video                  : 31 ms
Stream size                              : 81.7 MiB (13%)
Language                                 : English
Default                                  : No
Forced                                   : No

Subtitle #1
ID                                       : 3
Format                                   : UTF-8
Codec ID                                 : S_TEXT/UTF8
Codec ID/Info                            : UTF-8 Plain Text
Duration                                 : 57 min 58 s
Bit rate                                 : 52 b/s
Count of elements                        : 788
Stream size                              : 22.2 KiB (0%)
Language                                 : English
Default                                  : No
Forced                                   : No

Subtitle #2
ID                                       : 4
Format                                   : UTF-8
Codec ID                                 : S_TEXT/UTF8
Codec ID/Info                            : UTF-8 Plain Text
Duration                                 : 58 min 27 s
Bit rate                                 : 68 b/s
Count of elements                        : 1049
Stream size                              : 29.2 KiB (0%)
Language                                 : English
Default                                  : No
Forced                                   : No

Subtitle #3
ID                                       : 5
Format                                   : UTF-8
Codec ID                                 : S_TEXT/UTF8
Codec ID/Info                            : UTF-8 Plain Text
Duration                                 : 59 min 42 s
Bit rate                                 : 84 b/s
Count of elements                        : 730
Stream size                              : 37.0 KiB (0%)
Language                                 : Arabic
Default                                  : No
Forced                                   : No

Subtitle #4
ID                                       : 6
Format                                   : UTF-8
Codec ID                                 : S_TEXT/UTF8
Codec ID/Info                            : UTF-8 Plain Text
Duration                                 : 59 min 43 s
Bit rate                                 : 49 b/s
Count of elements                        : 729
Stream size                              : 21.8 KiB (0%)
Language                                 : Czech
Default                                  : No
Forced                                   : No

Subtitle #5
ID                                       : 7
Format                                   : UTF-8
Codec ID                                 : S_TEXT/UTF8
Codec ID/Info                            : UTF-8 Plain Text
Duration                                 : 59 min 42 s
Bit rate                                 : 49 b/s
Count of elements                        : 715
Stream size                              : 21.8 KiB (0%)
Language                                 : Danish
Default                                  : No
Forced                                   : No

Subtitle #6
ID                                       : 8
Format                                   : UTF-8
Codec ID                                 : S_TEXT/UTF8
Codec ID/Info                            : UTF-8 Plain Text
Duration                                 : 58 min 46 s
Bit rate                                 : 52 b/s
Count of elements                        : 710
Stream size                              : 22.4 KiB (0%)
Language                                 : German
Default                                  : No
Forced                                   : No

Subtitle #7
ID                                       : 9
Format                                   : UTF-8
Codec ID                                 : S_TEXT/UTF8
Codec ID/Info                            : UTF-8 Plain Text
Duration                                 : 59 min 42 s
Bit rate                                 : 86 b/s
Count of elements                        : 758
Stream size                              : 37.8 KiB (0%)
Language                                 : Greek
Default                                  : No
Forced                                   : No

Subtitle #8
ID                                       : 10
Format                                   : UTF-8
Codec ID                                 : S_TEXT/UTF8
Codec ID/Info                            : UTF-8 Plain Text
Duration                                 : 59 min 42 s
Bit rate                                 : 51 b/s
Count of elements                        : 730
Stream size                              : 22.4 KiB (0%)
Language                                 : Spanish
Default                                  : No
Forced                                   : No

Subtitle #9
ID                                       : 11
Format                                   : UTF-8
Codec ID                                 : S_TEXT/UTF8
Codec ID/Info                            : UTF-8 Plain Text
Duration                                 : 59 min 43 s
Bit rate                                 : 52 b/s
Count of elements                        : 723
Stream size                              : 22.9 KiB (0%)
Language                                 : Spanish
Default                                  : No
Forced                                   : No

Subtitle #10
ID                                       : 12
Format                                   : UTF-8
Codec ID                                 : S_TEXT/UTF8
Codec ID/Info                            : UTF-8 Plain Text
Duration                                 : 59 min 43 s
Bit rate                                 : 49 b/s
Count of elements                        : 601
Stream size                              : 21.8 KiB (0%)
Language                                 : Finnish
Default                                  : No
Forced                                   : No

Subtitle #11
ID                                       : 13
Format                                   : UTF-8
Codec ID                                 : S_TEXT/UTF8
Codec ID/Info                            : UTF-8 Plain Text
Duration                                 : 59 min 43 s
Bit rate                                 : 52 b/s
Count of elements                        : 725
Stream size                              : 22.8 KiB (0%)
Language                                 : French
Default                                  : No
Forced                                   : No

Subtitle #12
ID                                       : 14
Format                                   : UTF-8
Codec ID                                 : S_TEXT/UTF8
Codec ID/Info                            : UTF-8 Plain Text
Duration                                 : 59 min 42 s
Bit rate                                 : 73 b/s
Count of elements                        : 735
Stream size                              : 32.1 KiB (0%)
Language                                 : Hebrew
Default                                  : No
Forced                                   : No

Subtitle #13
ID                                       : 15
Format                                   : UTF-8
Codec ID                                 : S_TEXT/UTF8
Codec ID/Info                            : UTF-8 Plain Text
Duration                                 : 59 min 42 s
Bit rate                                 : 52 b/s
Count of elements                        : 731
Stream size                              : 23.0 KiB (0%)
Language                                 : Hungarian
Default                                  : No
Forced                                   : No

Subtitle #14
ID                                       : 16
Format                                   : UTF-8
Codec ID                                 : S_TEXT/UTF8
Codec ID/Info                            : UTF-8 Plain Text
Duration                                 : 59 min 42 s
Bit rate                                 : 49 b/s
Count of elements                        : 733
Stream size                              : 21.6 KiB (0%)
Language                                 : Indonesian
Default                                  : No
Forced                                   : No

Subtitle #15
ID                                       : 17
Format                                   : UTF-8
Codec ID                                 : S_TEXT/UTF8
Codec ID/Info                            : UTF-8 Plain Text
Duration                                 : 59 min 43 s
Bit rate                                 : 52 b/s
Count of elements                        : 739
Stream size                              : 22.9 KiB (0%)
Language                                 : Italian
Default                                  : No
Forced                                   : No

Subtitle #16
ID                                       : 18
Format                                   : UTF-8
Codec ID                                 : S_TEXT/UTF8
Codec ID/Info                            : UTF-8 Plain Text
Duration                                 : 59 min 42 s
Bit rate                                 : 62 b/s
Count of elements                        : 770
Stream size                              : 27.3 KiB (0%)
Language                                 : Japanese
Default                                  : No
Forced                                   : No

Subtitle #17
ID                                       : 19
Format                                   : UTF-8
Codec ID                                 : S_TEXT/UTF8
Codec ID/Info                            : UTF-8 Plain Text
Duration                                 : 59 min 43 s
Bit rate                                 : 60 b/s
Count of elements                        : 740
Stream size                              : 26.5 KiB (0%)
Language                                 : Korean
Default                                  : No
Forced                                   : No

Subtitle #18
ID                                       : 20
Format                                   : UTF-8
Codec ID                                 : S_TEXT/UTF8
Codec ID/Info                            : UTF-8 Plain Text
Duration                                 : 59 min 42 s
Bit rate                                 : 48 b/s
Count of elements                        : 726
Stream size                              : 21.0 KiB (0%)
Language                                 : Norwegian Bokmal
Default                                  : No
Forced                                   : No

Subtitle #19
ID                                       : 21
Format                                   : UTF-8
Codec ID                                 : S_TEXT/UTF8
Codec ID/Info                            : UTF-8 Plain Text
Duration                                 : 59 min 42 s
Bit rate                                 : 44 b/s
Count of elements                        : 704
Stream size                              : 19.5 KiB (0%)
Language                                 : Dutch
Default                                  : No
Forced                                   : No

Subtitle #20
ID                                       : 22
Format                                   : UTF-8
Codec ID                                 : S_TEXT/UTF8
Codec ID/Info                            : UTF-8 Plain Text
Duration                                 : 59 min 42 s
Bit rate                                 : 48 b/s
Count of elements                        : 725
Stream size                              : 21.3 KiB (0%)
Language                                 : Polish
Default                                  : No
Forced                                   : No

Subtitle #21
ID                                       : 23
Format                                   : UTF-8
Codec ID                                 : S_TEXT/UTF8
Codec ID/Info                            : UTF-8 Plain Text
Duration                                 : 59 min 42 s
Bit rate                                 : 51 b/s
Count of elements                        : 722
Stream size                              : 22.6 KiB (0%)
Language                                 : Portuguese
Default                                  : No
Forced                                   : No

Subtitle #22
ID                                       : 24
Format                                   : UTF-8
Codec ID                                 : S_TEXT/UTF8
Codec ID/Info                            : UTF-8 Plain Text
Duration                                 : 59 min 42 s
Bit rate                                 : 49 b/s
Count of elements                        : 707
Stream size                              : 21.6 KiB (0%)
Language                                 : Portuguese
Default                                  : No
Forced                                   : No

Subtitle #23
ID                                       : 25
Format                                   : UTF-8
Codec ID                                 : S_TEXT/UTF8
Codec ID/Info                            : UTF-8 Plain Text
Duration                                 : 58 min 32 s
Bit rate                                 : 56 b/s
Count of elements                        : 712
Stream size                              : 24.4 KiB (0%)
Language                                 : Romanian
Default                                  : No
Forced                                   : No

Subtitle #24
ID                                       : 26
Format                                   : UTF-8
Codec ID                                 : S_TEXT/UTF8
Codec ID/Info                            : UTF-8 Plain Text
Duration                                 : 59 min 42 s
Bit rate                                 : 74 b/s
Count of elements                        : 746
Stream size                              : 32.5 KiB (0%)
Language                                 : Russian
Default                                  : No
Forced                                   : No

Subtitle #25
ID                                       : 27
Format                                   : UTF-8
Codec ID                                 : S_TEXT/UTF8
Codec ID/Info                            : UTF-8 Plain Text
Duration                                 : 59 min 42 s
Bit rate                                 : 50 b/s
Count of elements                        : 619
Stream size                              : 22.0 KiB (0%)
Language                                 : Swedish
Default                                  : No
Forced                                   : No

Subtitle #26
ID                                       : 28
Format                                   : UTF-8
Codec ID                                 : S_TEXT/UTF8
Codec ID/Info                            : UTF-8 Plain Text
Duration                                 : 59 min 42 s
Bit rate                                 : 135 b/s
Count of elements                        : 732
Stream size                              : 59.2 KiB (0%)
Language                                 : Thai
Default                                  : No
Forced                                   : No

Subtitle #27
ID                                       : 29
Format                                   : UTF-8
Codec ID                                 : S_TEXT/UTF8
Codec ID/Info                            : UTF-8 Plain Text
Duration                                 : 59 min 42 s
Bit rate                                 : 51 b/s
Count of elements                        : 732
Stream size                              : 22.4 KiB (0%)
Language                                 : Turkish
Default                                  : No
Forced                                   : No

Subtitle #28
ID                                       : 30
Format                                   : UTF-8
Codec ID                                 : S_TEXT/UTF8
Codec ID/Info                            : UTF-8 Plain Text
Duration                                 : 59 min 42 s
Bit rate                                 : 67 b/s
Count of elements                        : 734
Stream size                              : 29.4 KiB (0%)
Language                                 : Vietnamese
Default                                  : No
Forced                                   : No

Subtitle #29
ID                                       : 31
Format                                   : UTF-8
Codec ID                                 : S_TEXT/UTF8
Codec ID/Info                            : UTF-8 Plain Text
Duration                                 : 59 min 42 s
Bit rate                                 : 51 b/s
Count of elements                        : 728
Stream size                              : 22.6 KiB (0%)
Language                                 : Chinese
Default                                  : No
Forced                                   : No

Subtitle #30
ID                                       : 32
Format                                   : UTF-8
Codec ID                                 : S_TEXT/UTF8
Codec ID/Info                            : UTF-8 Plain Text
Duration                                 : 59 min 42 s
Bit rate                                 : 51 b/s
Count of elements                        : 732
Stream size                              : 22.5 KiB (0%)
Language                                 : Chinese
Default                                  : No
Forced                                   : No



Source InformationRelease: The.Dark.Crystal.Age.of.Resistance.S01.2160p.NF.WEBRip.x265.10bit.HDR.DDP5.1.Atmos-TrollUHD [69.5 GB]



Note From UTR
Whilst we are happy for our releases to be re-posted on a platform we aren't on, please do so in an 'as-is' format. We ask that you do not create a new torrent, include all descriptions you see above including the UTR logo, tags, notes and screenshots. If you'd like to become a permanent poster on a website we don't post to, feel free to get in contact with a UTR member.
If possible please donate: BTC 1QA5fum5AyXvWzdVCkQzUNvw3Ef15fHRaR




Category:TV > HEVC/x265
Lang:English  English
Total Size:4.85 GB
Info Hash:de4df73f89ed442510edcbd08df19db1c13d4818
Added By:UTR
Date Added:12-10-2019 14:37:04

Files

File List: 
 File Size
Encoded by JoyBell (UTR).txt3.20 kB
folder.jpg152.66 kB
How to play HEVC (THIS FILE).txt3.82 kB
Ninite K-Lite Codecs Unattended Silent Installer and Updater.website561.00 B
The Dark Crystal-Age of Resistance S01E01 End. Begin. All the Same. (1080p x265 10bit Joy).mkv606 MB
The Dark Crystal-Age of Resistance S01E02 Nothing is Simple Anymore (1080p x265 10bit Joy).mkv477 MB
The Dark Crystal-Age of Resistance S01E03 What Was Sundered and Undone (1080p x265 10bit Joy).mkv510 MB
The Dark Crystal-Age of Resistance S01E04 The First Thing I Remember Is Fire (1080p x265 10bit Joy).mkv477 MB
The Dark Crystal-Age of Resistance S01E05 She Knows All the Secrets (1080p x265 10bit Joy).mkv489 MB
The Dark Crystal-Age of Resistance S01E06 By Gelfling Hand... (1080p x265 10bit Joy).mkv511 MB
The Dark Crystal-Age of Resistance S01E07 Time to Make... My Move (1080p x265 10bit Joy).mkv458 MB
The Dark Crystal-Age of Resistance S01E08 Prophets Don't Know Everything (1080p x265 10bit Joy).mkv489 MB
The Dark Crystal-Age of Resistance S01E09 The Crystal Calls (1080p x265 10bit Joy).mkv455 MB
The Dark Crystal-Age of Resistance S01E10 A Single Piece Was Lost (1080p x265 10bit Joy).mkv496 MB



Loading...
Comments

There are currently no comments. Be the first one to write something !