swat s03e08 south park 0 the mandalorian s01e01 charlies angels 2019 gemini man 2019 aew seal team s03e07 ford v ferrari 2019 DC Week marvel week zombieland double tap 2019 ethd Chicago Fire Supergirl watchmen riverdale maleficent mistress of evil 2019 Chicago Med seal team WWE joker 2019 Dream girl  ncis s17e08 Chicago PD s07e09 READY OR NOT Joker frozen ii 2019 always sunny His Dark Materials angel has fallen 2019 The flash evo hindi The Mandalorian s01e02 titans riverdale s04e07 xxx the flash s06e06 stumptown Mandalorian Arrow once upon a time in hollywood 2019 ncis Chicago Fire s08e09 the irishman 2019 SURVIVOR yts etmovies The Mandalorian Silicon Valley stumptown s01e07 Conan the walking dead modern family s11e07 treadstone s01e06 ettv fast furious presents hobbs shaw 2019 rick and morty chicago med s05e09 Treadstone rambo last blood 2019 terminator dark fate 2019 see Once Upon A Time In Hollywood arrow s08e05 gemini man nancy drew ddr Chicago PD etrg Modern Family 
Warning! Use a V.P.N When Downloading Torrents!
Your IP Address is 35.173.234.140. Location is United States
Your Internet Provider is tracking your torrent activity! Hide your IP ADDRESS with a V.P.N!
We strongly recommend using ExpressV.P.N to anonymize your torrenting. 30 Day Money Back Guarantee!
Try it Now!
ETTV Recommended TV Shows
Evil.S01E08.HDTV.x264-SVA[ettv] torrent
See (2019) S01E06 Silk (1080p ATVP Webrip x265 10bit EAC3 5.1 - Goki).mkv torrent
The.Mandalorian.S01E03.1080p.WEB.H264-PETRiFiED[EtHD] torrent
Titans.S02E12.WEBRip.x264-ION10 torrent

ETTV Recommended SD
Ready.or.Not.2019.BDRip.XviD.AC3-EVO torrent
Rambo.Last.Blood.2019.HC.HDRip.XViD-ETRG torrent
Overcomer.2019.HDRip.XviD.AC3-EVO[EtMovies] torrent
The.Courier.2019.HDRip.XViD-ETRG torrent

ETTV Recommended HD
Ready.or.Not.2019.1080p.Bluray.DTS-HD.MA.5.1.X264-EVO[EtHD] torrent
Rambo.Last.Blood.2019.HC.1080p.HDRip.X264.AC3-EVO[EtHD] torrent
Once.Upon.a.Time.in.Hollywood.2019.1080p.WEB-DL.DD5.1.H264-CMRG[EtHD] torrent
Daddys.Home.2015.BDRip.1080p.x264.Multilang.DTS.DD5.1.Gerald torrent

ETTV Recommended UHD
Three.Billboards.Outside.Ebbing.Missouri.2017.MULTi.UHD.Blu-ray.2160p.HDR.DTS-HDMA.5.1.HEVC-DDR torrent
Angel.Has.Fallen.2019.MULTi.UHD.BluRay.2160p.HDR.Atmos.7.1.HEVC-DDR torrent
Midsommar.2019.MULTi.UHD.Bluray.2160p.HDR.DTS-HDMA.5.1.HEVC-DDR torrent
Independence Day.1996.EXTENDED.4K.HDR.2160p.BDRip Ita Eng x265-NAHOM torrent

ETTV Recommended Cam
Ford v Ferrari 2019 NEW HDCAM X264-ETRG torrent
Charlies Angels 2019 NEW HD-TS  x264-ETRG torrent
Frozen 2 2019 720p HDCAM-GETB8 torrent
21 Bridges 2019 720p HDCAM-GETB8 torrent

ETTV Recommended Foreign
Keshava (2017) 720p UNCUT HDRip x264 [Dual Audio] [Hindi DD 2.0 - Telugu 2.0] Exclusive By -=!Dr.STAR!=- torrent
The.Climbers.2019.HC.HDRip.XviD.AC3-EVO[EtMovies] torrent
Fredrick.2016.Hindi.1080p.WEB-DL.x264.AAC -DDR[EtHD] torrent
Pagalpanti (2019) Hindi 720p PreDVD Rip x264 AAC 1.2GB CineVood Exclusive torrent


Download Torrent "El Camino A Breaking Bad Movie (2019) (1080p NF WEB-DL x265 HEVC 10bit AC3 ..."

IMDB Details
Description:

After escaping Jack and his gang, Jesse Pinkman goes on the run from the police and tries to escape his own inner turmoil.

Genre:

Action, Drama

Download Torrent (Magnet)
Download Torrent (File)
Seeds: 334
Leechers: 117
Completed: 3,517 
Last Checked: 13-10-2019 05:52:03


Loading...
Details
Title:El Camino A Breaking Bad Movie (2019) (1080p NF WEB-DL x265 HEVC 10bit AC3 ...
Description:





Media Information
General
Format                                   : Matroska
Format version                           : Version 4 / Version 2
File size                                : 2.62 GiB
Duration                                 : 2 h 2 min
Overall bit rate                         : 3 060 kb/s
Encoded date                             : UTC 2019-10-12 12:03:40
Writing application                      : mkvmerge v30.1.0 ('Forever And More') 64-bit
Writing library                          : libebml v1.3.6 + libmatroska v1.4.9

Video
ID                                       : 1
Format                                   : HEVC
Format/Info                              : High Efficiency Video Coding
Format profile                           : Main [email protected]@Main
Codec ID                                 : V_MPEGH/ISO/HEVC
Duration                                 : 2 h 2 min
Bit rate                                 : 2 290 kb/s
Width                                    : 1 920 pixels
Height                                   : 1 080 pixels
Display aspect ratio                     : 16:9
Frame rate mode                          : Constant
Frame rate                               : 24.000 FPS
Color space                              : YUV
Chroma subsampling                       : 4:2:0
Bit depth                                : 10 bits
Bits/(Pixel*Frame)                       : 0.046
Stream size                              : 1.96 GiB (75%)
Writing library                          : x265 3.1+14-f08461fdae33:[Windows][MSVC 1922][64 bit] 10bit
Encoding settings                        : cpuid=1111039 / frame-threads=2 / numa-pools=4 / wpp / no-pmode / no-pme / no-psnr / no-ssim / log-level=2 / input-csp=1 / input-res=1920x1080 / interlace=0 / total-frames=176697 / level-idc=0 / high-tier=1 / uhd-bd=0 / ref=4 / no-allow-non-conformance / no-repeat-headers / annexb / no-aud / no-hrd / info / hash=0 / no-temporal-layers / open-gop / min-keyint=24 / keyint=250 / gop-lookahead=0 / bframes=8 / b-adapt=2 / b-pyramid / bframe-bias=0 / rc-lookahead=80 / lookahead-slices=4 / scenecut=40 / radl=0 / no-splice / no-intra-refresh / ctu=64 / min-cu-size=8 / no-rect / no-amp / max-tu-size=32 / tu-inter-depth=1 / tu-intra-depth=1 / limit-tu=0 / rdoq-level=2 / dynamic-rd=0.00 / no-ssim-rd / signhide / no-tskip / nr-intra=0 / nr-inter=0 / no-constrained-intra / no-strong-intra-smoothing / max-merge=3 / limit-refs=3 / limit-modes / me=3 / subme=3 / merange=57 / temporal-mvp / no-hme / weightp / no-weightb / no-analyze-src-pics / deblock=-1:-1 / no-sao / no-sao-non-deblock / rd=4 / no-early-skip / no-rskip / no-fast-intra / no-tskip-fast / no-cu-lossless / b-intra / no-splitrd-skip / rdpenalty=0 / psy-rd=1.00 / psy-rdoq=2.50 / no-rd-refine / no-lossless / cbqpoffs=0 / crqpoffs=0 / rc=crf / crf=21.0 / qcomp=0.60 / qpstep=4 / stats-write=0 / stats-read=0 / ipratio=1.40 / pbratio=1.30 / aq-mode=3 / aq-strength=0.60 / cutree / zone-count=0 / no-strict-cbr / qg-size=32 / no-rc-grain / qpmax=69 / qpmin=0 / no-const-vbv / sar=0 / overscan=0 / videoformat=5 / range=0 / colorprim=2 / transfer=2 / colormatrix=2 / chromaloc=0 / display-window=0cll=0,0 / min-luma=0 / max-luma=1023 / log2-max-poc-lsb=8 / vui-timing-info / vui-hrd-info / slices=1 / no-opt-qp-pps / no-opt-ref-list-length-pps / no-multi-pass-opt-rps / scenecut-bias=0.05 / no-opt-cu-delta-qp / no-aq-motion / no-hdr / no-hdr-opt / no-dhdr10-opt / no-idr-recovery-sei / analysis-reuse-level=5 / scale-factor=0 / refine-intra=0 / refine-inter=0 / refine-mv=0 / refine-ctu-distortion=0 / no-limit-sao / ctu-info=0 / no-lowpass-dct / refine-analysis-type=0 / copy-pic=1 / max-ausize-factor=1.0 / no-dynamic-refine / no-single-sei / no-hevc-aq / no-svt / no-field / qp-adaptation-range=1.00
Language                                 : English
Default                                  : Yes
Forced                                   : No

Audio
ID                                       : 2
Format                                   : E-AC-3
Format/Info                              : Enhanced Audio Coding 3
Format settings, Endianness              : Big
Codec ID                                 : A_EAC3
Duration                                 : 2 h 2 min
Bit rate mode                            : Constant
Bit rate                                 : 768 kb/s
Channel(s)                               : 6 channels
Channel positions                        : Front: L C R, Side: L R, LFE
Sampling rate                            : 48.0 kHz
Frame rate                               : 187.500 FPS (256 spf)
Compression mode                         : Lossy
Stream size                              : 674 MiB (25%)
Language                                 : English
Default                                  : Yes
Forced                                   : No

Subtitle #1
ID                                       : 3
Format                                   : UTF-8
Codec ID                                 : S_TEXT/UTF8
Codec ID/Info                            : UTF-8 Plain Text
Duration                                 : 2 h 0 min
Bit rate                                 : 46 b/s
Count of elements                        : 1344
Stream size                              : 41.3 KiB (0%)
Language                                 : English
Default                                  : Yes
Forced                                   : No

Subtitle #2
ID                                       : 4
Format                                   : UTF-8
Codec ID                                 : S_TEXT/UTF8
Codec ID/Info                            : UTF-8 Plain Text
Duration                                 : 2 h 1 min
Bit rate                                 : 61 b/s
Count of elements                        : 1211
Stream size                              : 54.6 KiB (0%)
Language                                 : Greek
Default                                  : No
Forced                                   : No



Source InformationRelease: Unknown Source/NO-GROUP



Note From UTR
Whilst we are happy for our releases to be re-posted on a platform we aren't on, please do so in an 'as-is' format. We ask that you do not create a new torrent, include all descriptions you see above including the UTR logo, tags, notes and screenshots. If you'd like to become a permanent poster on a website we don't post to, feel free to get in contact with a UTR member.
If possible please donate: BTC 1QA5fum5AyXvWzdVCkQzUNvw3Ef15fHRaR



Category:Movies > HEVC/x265
Lang:English  English
Total Size:2.62 GB
Info Hash:d2c4ca36294dc13475efdf1f1717a39d3cdb424b
Added By:UTR
Date Added:13-10-2019 05:52:00

Files

File List: 
 File Size
El.Camino.A.Breaking.Bad.Movie.(2019).1080p.NF.WEB-DL.10-bit.x265.EAC3.15.0 Qman[UTR].mkv2.62 GB



Loading...
Comments

There are currently no comments. Be the first one to write something !