homeland Doctor Who Yts manifest S02E07 Bull S04E15 ddr picard ncis All Rise S01E16 Good Girls S03E01 etrg The Outsider S01E07 Prodigal Son S01E15 knives out Outlander s05e01 Bad Boys for Life 2020 The Good Doctor S03E15 parasite 2019 birds of prey (and the fantabulous emancipation of one harley quinn) 2020 Frozen II 2019 evo jumanji the next level 2019 The Bachelor S24E08 The Gentlemen 2020 the outsider yts Family Guy s18e11 Midway 2019 vikings jumanji 0 Dolittle 2020 Jojo Rabbit 2019 homeland s08e02 1917 2019 sonic the hedgehog 2020 star wars etmovies batwoman avenue 5 s01e05 bull the good doctor Joker 2019 supergirl NCIS Los Angeles S11E14 ford v ferrari 2019 outlander Manifest Hindi prodigal son Endeavour supergirl s05e12 Star Trek Picard S01E04 Ettv The Neighborhood S02E16 Underwater 2020 xxx Fantasy Island 2020 rq.mp4 nascar knives out 2019 parasite WWE Avenue 5 charlies angels 2019 Terminator Dark Fate 2019 Star Wars The Rise of Skywalker 2019 9-1-1 Lone Star S01E06 the gentlemen 2019 21 bridges 2019 batwoman s01e12 ethd 
Warning! Use a V.P.N When Downloading Torrents!
Your IP Address is 34.204.191.0. Location is United States
Your Internet Provider is tracking your torrent activity! Hide your IP ADDRESS with a V.P.N!
We strongly recommend using ExpressV.P.N to anonymize your torrenting. 30 Day Money Back Guarantee!
Try it Now!
ETTV Recommended TV Shows
The.Resident.S03E15.WEB.x264-XLF[ettv] torrent
FBI.Most.Wanted.S01E06.HDTV.x264-SVA[ettv] torrent
NCIS.S17E16.HDTV.x264-KILLERS[ettv] torrent
The.Flash.2014.S06E12.HDTV.x264-SVA[ettv] torrent
DCs.Legends.of.Tomorrow.S05E05.HDTV.x264-SVA[ettv] torrent
FBI.S02E16.HDTV.x264-KILLERS[ettv] torrent
This.Is.Us.S04E14.HDTV.x264-KILLERS[ettv] torrent
New.Amsterdam.2018.S02E14.HDTV.x264-KILLERS[ettv] torrent

ETTV Recommended SD
Queen.and.Slim.2019.HDRip.XViD.AC3-ETRG torrent
Hollywould.2019.HDRip.XviD.AC3-EVO torrent
Sunday.Girl.2019.HDRip.XviD.AC3-EVO torrent
A.Prayer.For.The.Damned.2019.HDRip.XviD.AC3-EVO torrent

ETTV Recommended HD
Hollywould.2019.1080p.WEB-DL.H264.AC3-EVO[EtHD] torrent
Dark.Waters.2019.1080p.AMZN.WEB-DL.DDP5.1.H.264-NTG[EtHD] torrent
Chop.Chop.Chang.Operation.C.H.I.M.P.2019.1080p.AMZN.WEB-DL.DDP2.0.H.264-TEPES[EtHD] torrent
The.Dustwalker.2020.1080p.WEB-DL.H264.AC3-EVO[EtHD] torrent

ETTV Recommended UHD
Frozen.II.2019.2160p.UHD.BluRay.x265-TERMiNAL torrent
Rogue.One.A.Star Wars Story 2016.4K.HDR.2160p.WEBDL Ita Eng x265-NAHOM torrent
Abominable.2019.4K.HDR.2160p.BDRip Ita Eng x265-NAHOM torrent
Star.Wars.The.Last.Jedi.2017.BDRip.UHD.HDR.Eng.Spa.TrueHD.ETRG torrent

ETTV Recommended Cam
Fantasy Island 2020 HDCAM x264-ETRG torrent
The Photograph 2020 720p HDCAM-C1NEM4 torrent
Emma 2020 720p HDCAM-C1NEM4 torrent
Sonic the Hedgehog.2020.READNFO.HDCAM.x264-ETRG torrent

ETTV Recommended Foreign
The Last Full Measure (2019) BRRip 720p [Hindi-Dub] Dual-Audio x264 - 1XCinema torrent
Sacrifice (2020) HDRip 720p [Hindi-Dub] Dual-Audio x264 - 1XCinema torrent
Valhalla.2019.NORDiC.1080p.WEB-DL.H.264-RAPiDCOWS[EtHD] torrent
Liberation.2019.HDRip.1080p.x264.AAC.Mandarin.HC.CHI-ENG.Mp4Ba torrent


Download Torrent "The Shining (1980) US Director's Cut (1080p BluRay x265 HEVC 10bit AAC..."

IMDB Details
Description:

A family heads to an isolated hotel for the winter where a sinister presence influences the father into violence, while his psychic son sees horrific forebodings from both past and future.

Genre:

Drama, Horror

Download Torrent (Magnet)
Download Torrent (File)
Seeds: 759
Leechers: 327
Completed: 6,524 
Last Checked: 13-10-2019 11:19:39


Loading...
Details
Title:The Shining (1980) US Director's Cut (1080p BluRay x265 HEVC 10bit AAC...
Description:



Media Information

General
Format                                   : Matroska
Format version                           : Version 4 / Version 2
File size                                : 3.06 GiB
Duration                                 : 2 h 23 min
Overall bit rate                         : 3 050 kb/s
Movie name                               : The Shining 1980 US DC  (1080p x265 q22 FS88 Joy) [UTR]
Encoded date                             : UTC 2019-10-13 02:55:35
Writing application                      : mkvmerge v32.0.0 ('Astral Progressions') 64-bit
Writing library                          : libebml v1.3.7 + libmatroska v1.5.0
Cover                                    : Yes
Attachments                              : cover.jpg
Writing frontend                         : StaxRip v2.0.2.0, Encoded by JoyBell

Video
ID                                       : 1
Format                                   : HEVC
Format/Info                              : High Efficiency Video Coding
Format profile                           : Main [email protected]@Main
Codec ID                                 : V_MPEGH/ISO/HEVC
Duration                                 : 2 h 23 min
Bit rate                                 : 2 614 kb/s
Width                                    : 1 920 pixels
Height                                   : 1 080 pixels
Display aspect ratio                     : 16:9
Frame rate mode                          : Constant
Frame rate                               : 23.976 (24000/1001) FPS
Color space                              : YUV
Chroma subsampling                       : 4:2:0
Bit depth                                : 10 bits
Bits/(Pixel*Frame)                       : 0.053
Stream size                              : 2.63 GiB (86%)
Writing library                          : x265 3.1.2+1-76650bab70f9:[Windows][MSVC 1922][64 bit] 10bit
Encoding settings                        : cpuid=1111039 / frame-threads=4 / numa-pools=16 / wpp / no-pmode / no-pme / no-psnr / ssim / log-level=2 / input-csp=1 / input-res=1920x1080 / interlace=0 / total-frames=206811 / level-idc=0 / high-tier=1 / uhd-bd=0 / ref=4 / no-allow-non-conformance / no-repeat-headers / annexb / no-aud / no-hrd / info / hash=0 / no-temporal-layers / open-gop / min-keyint=23 / keyint=250 / gop-lookahead=0 / bframes=8 / b-adapt=2 / b-pyramid / bframe-bias=20 / rc-lookahead=80 / lookahead-slices=4 / scenecut=40 / radl=0 / no-splice / no-intra-refresh / ctu=64 / min-cu-size=8 / rect / no-amp / max-tu-size=32 / tu-inter-depth=1 / tu-intra-depth=1 / limit-tu=0 / rdoq-level=2 / dynamic-rd=0.00 / ssim-rd / signhide / no-tskip / nr-intra=0 / nr-inter=0 / constrained-intra / strong-intra-smoothing / max-merge=5 / limit-refs=3 / limit-modes / me=3 / subme=5 / merange=57 / temporal-mvp / weightp / no-weightb / no-analyze-src-pics / deblock=-2:-2 / sao / sao-non-deblock / rd=4 / early-skip / rskip / no-fast-intra / no-tskip-fast / no-cu-lossless / no-b-intra / splitrd-skip / rdpenalty=0 / psy-rd=2.50 / psy-rdoq=1.50 / no-rd-refine / no-lossless / cbqpoffs=0 / crqpoffs=0 / rc=crf / crf=21.5 / qcomp=0.60 / qpstep=4 / stats-write=0 / stats-read=0 / ipratio=1.40 / pbratio=1.30 / aq-mode=1 / aq-strength=1.00 / cutree / zone-count=0 / no-strict-cbr / qg-size=32 / no-rc-grain / qpmax=69 / qpmin=0 / no-const-vbv / sar=0 / overscan=0 / videoformat=5 / range=0 / colorprim=2 / transfer=2 / colormatrix=2 / chromaloc=0 / display-window=0cll=0,0 / min-luma=0 / max-luma=1023 / log2-max-poc-lsb=8 / vui-timing-info / vui-hrd-info / slices=1 / no-opt-qp-pps / no-opt-ref-list-length-pps / no-multi-pass-opt-rps / scenecut-bias=0.05 / no-opt-cu-delta-qp / no-aq-motion / no-hdr / no-hdr-opt / no-dhdr10-opt / no-idr-recovery-sei / analysis-reuse-level=5 / scale-factor=0 / refine-intra=0 / refine-inter=0 / refine-mv=0 / refine-ctu-distortion=0 / no-limit-sao / ctu-info=0 / no-lowpass-dct / refine-analysis-type=0 / copy-pic=1 / max-ausize-factor=1.0 / no-dynamic-refine / no-single-sei / no-hevc-aq / no-svt / no-field / qp-adaptation-range=1.00
Default                                  : Yes
Forced                                   : No

Audio #1
ID                                       : 2
Format                                   : AAC
Format/Info                              : Advanced Audio Codec
Format profile                           : LC
Codec ID                                 : A_AAC
Duration                                 : 2 h 23 min
Bit rate                                 : 302 kb/s
Channel(s)                               : 6 channels
Channel positions                        : Front: L C R, Side: L R, LFE
Sampling rate                            : 48.0 kHz
Frame rate                               : 46.875 FPS (1024 spf)
Compression mode                         : Lossy
Delay relative to video                  : 9 ms
Stream size                              : 311 MiB (10%)
Language                                 : English
Default                                  : No
Forced                                   : No

Audio #2
ID                                       : 27
Format                                   : AAC
Format/Info                              : Advanced Audio Codec
Format profile                           : HE-AAC / LC
Codec ID                                 : A_AAC
Duration                                 : 2 h 23 min
Bit rate                                 : 44.9 kb/s
Channel(s)                               : 2 channels
Channel positions                        : Front: L R
Sampling rate                            : 48.0 kHz / 24.0 kHz
Frame rate                               : 23.438 FPS (1024 spf)
Compression mode                         : Lossy
Delay relative to video                  : 31 ms
Stream size                              : 46.1 MiB (1%)
Title                                    : Commentary
Language                                 : English
Default                                  : No
Forced                                   : No

Subtitle #1
ID                                       : 3
Format                                   : PGS
Muxing mode                              : zlib
Codec ID                                 : S_HDMV/PGS
Codec ID/Info                            : Picture based subtitle format used on BDs/HD-DVDs
Duration                                 : 2 h 16 min
Bit rate                                 : 23.4 kb/s
Count of elements                        : 3042
Stream size                              : 22.8 MiB (1%)
Language                                 : English
Default                                  : No
Forced                                   : No

Subtitle #2
ID                                       : 4
Format                                   : UTF-8
Codec ID                                 : S_TEXT/UTF8
Codec ID/Info                            : UTF-8 Plain Text
Duration                                 : 2 h 14 min
Bit rate                                 : 41 b/s
Count of elements                        : 1453
Stream size                              : 40.4 KiB (0%)
Language                                 : English
Default                                  : No
Forced                                   : No

Subtitle #3
ID                                       : 5
Format                                   : VobSub
Muxing mode                              : zlib
Codec ID                                 : S_VOBSUB
Codec ID/Info                            : Picture based subtitle format used on DVDs
Duration                                 : 2 h 20 min
Bit rate                                 : 5 895 b/s
Count of elements                        : 1189
Stream size                              : 5.93 MiB (0%)
Language                                 : French
Default                                  : No
Forced                                   : No

Subtitle #4
ID                                       : 6
Format                                   : VobSub
Muxing mode                              : zlib
Codec ID                                 : S_VOBSUB
Codec ID/Info                            : Picture based subtitle format used on DVDs
Duration                                 : 2 h 18 min
Bit rate                                 : 7 920 b/s
Count of elements                        : 1531
Stream size                              : 7.83 MiB (0%)
Language                                 : German
Default                                  : No
Forced                                   : No

Subtitle #5
ID                                       : 7
Format                                   : VobSub
Muxing mode                              : zlib
Codec ID                                 : S_VOBSUB
Codec ID/Info                            : Picture based subtitle format used on DVDs
Duration                                 : 2 h 18 min
Bit rate                                 : 7 699 b/s
Count of elements                        : 1525
Stream size                              : 7.61 MiB (0%)
Language                                 : Italian
Default                                  : No
Forced                                   : No

Subtitle #6
ID                                       : 8
Format                                   : VobSub
Muxing mode                              : zlib
Codec ID                                 : S_VOBSUB
Codec ID/Info                            : Picture based subtitle format used on DVDs
Duration                                 : 2 h 18 min
Bit rate                                 : 5 812 b/s
Count of elements                        : 1210
Stream size                              : 5.75 MiB (0%)
Language                                 : Dutch
Default                                  : No
Forced                                   : No

Subtitle #7
ID                                       : 9
Format                                   : VobSub
Muxing mode                              : zlib
Codec ID                                 : S_VOBSUB
Codec ID/Info                            : Picture based subtitle format used on DVDs
Duration                                 : 2 h 19 min
Bit rate                                 : 5 818 b/s
Count of elements                        : 1349
Stream size                              : 5.82 MiB (0%)
Language                                 : Chinese
Default                                  : No
Forced                                   : No

Subtitle #8
ID                                       : 10
Format                                   : VobSub
Muxing mode                              : zlib
Codec ID                                 : S_VOBSUB
Codec ID/Info                            : Picture based subtitle format used on DVDs
Duration                                 : 2 h 19 min
Bit rate                                 : 5 072 b/s
Count of elements                        : 1319
Stream size                              : 5.07 MiB (0%)
Language                                 : Korean
Default                                  : No
Forced                                   : No

Subtitle #9
ID                                       : 11
Format                                   : VobSub
Muxing mode                              : zlib
Codec ID                                 : S_VOBSUB
Codec ID/Info                            : Picture based subtitle format used on DVDs
Duration                                 : 2 h 18 min
Bit rate                                 : 5 822 b/s
Count of elements                        : 1314
Stream size                              : 5.76 MiB (0%)
Language                                 : Spanish
Default                                  : No
Forced                                   : No

Subtitle #10
ID                                       : 12
Format                                   : VobSub
Muxing mode                              : zlib
Codec ID                                 : S_VOBSUB
Codec ID/Info                            : Picture based subtitle format used on DVDs
Duration                                 : 2 h 19 min
Bit rate                                 : 3 454 b/s
Count of elements                        : 1312
Stream size                              : 3.45 MiB (0%)
Language                                 : Arabic
Default                                  : No
Forced                                   : No

Subtitle #11
ID                                       : 13
Format                                   : VobSub
Muxing mode                              : zlib
Codec ID                                 : S_VOBSUB
Codec ID/Info                            : Picture based subtitle format used on DVDs
Duration                                 : 2 h 19 min
Bit rate                                 : 5 780 b/s
Count of elements                        : 1354
Stream size                              : 5.77 MiB (0%)
Language                                 : Czech
Default                                  : No
Forced                                   : No

Subtitle #12
ID                                       : 14
Format                                   : VobSub
Muxing mode                              : zlib
Codec ID                                 : S_VOBSUB
Codec ID/Info                            : Picture based subtitle format used on DVDs
Duration                                 : 2 h 20 min
Bit rate                                 : 6 322 b/s
Count of elements                        : 1247
Stream size                              : 6.36 MiB (0%)
Language                                 : Danish
Default                                  : No
Forced                                   : No

Subtitle #13
ID                                       : 15
Format                                   : VobSub
Muxing mode                              : zlib
Codec ID                                 : S_VOBSUB
Codec ID/Info                            : Picture based subtitle format used on DVDs
Duration                                 : 2 h 19 min
Bit rate                                 : 5 029 b/s
Count of elements                        : 989
Stream size                              : 5.02 MiB (0%)
Language                                 : Finnish
Default                                  : No
Forced                                   : No

Subtitle #14
ID                                       : 16
Format                                   : VobSub
Muxing mode                              : zlib
Codec ID                                 : S_VOBSUB
Codec ID/Info                            : Picture based subtitle format used on DVDs
Duration                                 : 2 h 19 min
Bit rate                                 : 6 352 b/s
Count of elements                        : 1351
Stream size                              : 6.34 MiB (0%)
Language                                 : Hungarian
Default                                  : No
Forced                                   : No

Subtitle #15
ID                                       : 17
Format                                   : VobSub
Muxing mode                              : zlib
Codec ID                                 : S_VOBSUB
Codec ID/Info                            : Picture based subtitle format used on DVDs
Duration                                 : 2 h 19 min
Bit rate                                 : 5 638 b/s
Count of elements                        : 1126
Stream size                              : 5.63 MiB (0%)
Language                                 : Norwegian Bokmal
Default                                  : No
Forced                                   : No

Subtitle #16
ID                                       : 18
Format                                   : VobSub
Muxing mode                              : zlib
Codec ID                                 : S_VOBSUB
Codec ID/Info                            : Picture based subtitle format used on DVDs
Duration                                 : 2 h 19 min
Bit rate                                 : 5 521 b/s
Count of elements                        : 1281
Stream size                              : 5.51 MiB (0%)
Language                                 : Polish
Default                                  : No
Forced                                   : No

Subtitle #17
ID                                       : 19
Format                                   : VobSub
Muxing mode                              : zlib
Codec ID                                 : S_VOBSUB
Codec ID/Info                            : Picture based subtitle format used on DVDs
Duration                                 : 2 h 18 min
Bit rate                                 : 6 347 b/s
Count of elements                        : 1355
Stream size                              : 6.27 MiB (0%)
Language                                 : Romanian
Default                                  : No
Forced                                   : No

Subtitle #18
ID                                       : 20
Format                                   : VobSub
Muxing mode                              : zlib
Codec ID                                 : S_VOBSUB
Codec ID/Info                            : Picture based subtitle format used on DVDs
Duration                                 : 2 h 19 min
Bit rate                                 : 6 670 b/s
Count of elements                        : 1317
Stream size                              : 6.66 MiB (0%)
Language                                 : Russian
Default                                  : No
Forced                                   : No

Subtitle #19
ID                                       : 21
Format                                   : VobSub
Muxing mode                              : zlib
Codec ID                                 : S_VOBSUB
Codec ID/Info                            : Picture based subtitle format used on DVDs
Duration                                 : 2 h 18 min
Bit rate                                 : 5 456 b/s
Count of elements                        : 1169
Stream size                              : 5.39 MiB (0%)
Language                                 : Swedish
Default                                  : No
Forced                                   : No

Subtitle #20
ID                                       : 22
Format                                   : VobSub
Muxing mode                              : zlib
Codec ID                                 : S_VOBSUB
Codec ID/Info                            : Picture based subtitle format used on DVDs
Duration                                 : 2 h 18 min
Bit rate                                 : 6 157 b/s
Count of elements                        : 1358
Stream size                              : 6.09 MiB (0%)
Language                                 : Thai
Default                                  : No
Forced                                   : No

Subtitle #21
ID                                       : 23
Format                                   : VobSub
Muxing mode                              : zlib
Codec ID                                 : S_VOBSUB
Codec ID/Info                            : Picture based subtitle format used on DVDs
Duration                                 : 2 h 21 min
Bit rate                                 : 12.1 kb/s
Count of elements                        : 1968
Stream size                              : 12.2 MiB (0%)
Language                                 : Chinese
Default                                  : No
Forced                                   : No

Subtitle #22
ID                                       : 24
Format                                   : UTF-8
Codec ID                                 : S_TEXT/UTF8
Codec ID/Info                            : UTF-8 Plain Text
Duration                                 : 2 h 18 min
Bit rate                                 : 33 b/s
Count of elements                        : 1210
Stream size                              : 33.8 KiB (0%)
Language                                 : Dutch
Default                                  : No
Forced                                   : No

Subtitle #23
ID                                       : 25
Format                                   : UTF-8
Codec ID                                 : S_TEXT/UTF8
Codec ID/Info                            : UTF-8 Plain Text
Duration                                 : 2 h 14 min
Bit rate                                 : 61 b/s
Count of elements                        : 1302
Stream size                              : 60.8 KiB (0%)
Language                                 : Persian
Default                                  : No
Forced                                   : No

Subtitle #24
ID                                       : 26
Format                                   : UTF-8
Codec ID                                 : S_TEXT/UTF8
Codec ID/Info                            : UTF-8 Plain Text
Duration                                 : 2 h 21 min
Bit rate                                 : 53 b/s
Count of elements                        : 1433
Stream size                              : 55.5 KiB (0%)
Language                                 : Vietnamese
Default                                  : No
Forced                                   : No

Menu
00:00:00.000                             : en:Chapter 01
00:03:00.388                             : en:Chapter 02
00:05:04.846                             : en:Chapter 03
00:10:33.799                             : en:Chapter 04
00:12:08.394                             : en:Chapter 05
00:14:24.280                             : en:Chapter 06
00:17:37.556                             : en:Chapter 07
00:20:30.896                             : en:Chapter 08
00:24:58.622                             : en:Chapter 09
00:28:51.563                             : en:Chapter 10
00:34:10.089                             : en:Chapter 11
00:40:28.801                             : en:Chapter 12
00:46:00.924                             : en:Chapter 13
00:46:52.226                             : en:Chapter 14
00:49:17.079                             : en:Chapter 15
00:51:16.198                             : en:Chapter 16
00:57:01.876                             : en:Chapter 17
00:58:36.846                             : en:Chapter 18
01:02:37.086                             : en:Chapter 19
01:06:05.753                             : en:Chapter 20
01:09:00.469                             : en:Chapter 21
01:16:52.107                             : en:Chapter 22
01:22:18.558                             : en:Chapter 23
01:25:29.582                             : en:Chapter 24
01:31:41.120                             : en:Chapter 25
01:34:03.804                             : en:Chapter 26
01:35:48.576                             : en:Chapter 27
01:39:30.547                             : en:Chapter 28
01:43:49.806                             : en:Chapter 29
01:49:26.059                             : en:Chapter 30
01:54:24.440                             : en:Chapter 31
01:58:44.617                             : en:Chapter 32
02:01:09.553                             : en:Chapter 33
02:05:29.980                             : en:Chapter 34
02:07:32.561                             : en:Chapter 35
02:10:23.482                             : en:Chapter 36
02:12:10.047                             : en:Chapter 37
02:15:03.345                             : en:Chapter 38
02:18:56.745                             : en:Chapter 39
02:21:16.301                             : en:Chapter 40



Source Information
Release:
The.Shining.1980.US.DC.2160p.BluRay.x265.10bit.SDR.DTS-HD.MA.5.1-SWTYBLZ.mkv (61.88 GBs)



Note From UTR
Whilst we are happy for our releases to be re-posted on a platform we aren't on, please do so in an 'as-is' format. We ask that you do not create a new torrent, include all descriptions you see above including the UTR logo, tags, notes and screenshots. If you'd like to become a permanent poster on a website we don't post to, feel free to get in contact with a UTR member.
If possible please donate: BTC 1QA5fum5AyXvWzdVCkQzUNvw3Ef15fHRaR




Category:Movies > HEVC/x265
Lang:English  English
Total Size:3.06 GB
Info Hash:6b2071d3b0844318fe39dd4e9dc567cce9098d36
Added By:UTR
Date Added:13-10-2019 11:19:36

  

Files

File List: 
 File Size
The Shining 1980 US DC (1080p x265 q22 FS88 Joy).mkv3.06 GB



Loading...
Comments

There are currently no comments. Be the first one to write something !