nancy drew aew evo Rick and Morty S04E04 silicon valley knives out 2019 seal team s03e09 survivor gemini man 2019 the mandalorian s01e04 Christmas The Irishman queen slim 2019 etrg ethd see Titans v wars survivor s39e11 angel has fallen 2019 mr robot arrow seal team vikings s06e02 wwe modern family s11e08 stumptown The Morning Show the irishman 2019 hustlers 2019 joker 2019 Vikings nancy drew s01e08 stumptown s01e08 frozen ii 2019 the flash terminator dark fate 2019 rambo last blood 2019 the flash s06e08 supernatural ford v ferrari 2019 xxx marvel week mandalorian maleficent mistress of evil 2019 21 bridges 2019 yts Ad Astra  ncis castle rock south park s23e09 vikings s06e01 etmovies ad astra 2019 batwoman joker the mandalorian treadstone ettv South Park dc week modern family supergirl watchmen proper rick and morty RIVERDALE the walking dead Hindi His Dark Materials ddr arrow s08e07 
Warning! Use a V.P.N When Downloading Torrents!
Your IP Address is 18.207.238.169. Location is United States
Your Internet Provider is tracking your torrent activity! Hide your IP ADDRESS with a V.P.N!
We strongly recommend using ExpressV.P.N to anonymize your torrenting. 30 Day Money Back Guarantee!
Try it Now!
ETTV Recommended TV Shows
Nancy.Drew.2019.S01E08.HDTV.x264-SVA[ettv] torrent
Stumptown.S01E08.HDTV.x264-SVA[ettv] torrent
Vikings.S06E01.HDTV.x264-SVA[ettv] torrent
SEAL.Team.S03E09.HDTV.x264-KILLERS[ettv] torrent

ETTV Recommended SD
Amundsen.2019.BDRip.XviD.AC3-EVO[EtMovies] torrent
A.Holiday.Boyfriend.2019.HDRip.XviD.AC3-EVO[EtMovies] torrent
Downton Abbey.2019.BRRip.XviD.AC3-EVO[EtMovies] torrent
The.Dunes.2019.HDRip.XviD.AC3-EVO torrent

ETTV Recommended HD
The.Reliant.2019.1080p.AMZN.WEB-DL.DDP5.1.H.264-NTG[EtHD] torrent
X-Men.Apocalypse.2016.BDRip.1080p.x264.Multilang.TrueHD.DTS.DD5.1.Gerald torrent
Downton.Abbey.2019.BluRay.720p.x264.DTS-HDChina[EtHD] torrent
Ad.Astra.2019.1080p.Bluray.DTS-HD.MA.7.1.X264-EVO[EtHD] torrent

ETTV Recommended UHD
Hustlers.2019.2160p.UHD.BluRay.X265.10bit.HDR.TrueHD.7.1.Atmos-AAAUHD torrent
It.Chapter.Two.2019.2160p.UHD.BluRay.X265.10bit.HDR.TrueHD.7.1.Atmos-AAAUHD torrent
John.Wick.2014.BDRip.2160p.UHD.HDR.Eng.Fre.Spa.TrueHD.DD5.1.Gerald torrent
X-Men.Apocalypse.2016.BDRip.2160p.UHD.HDR.Multilang.TrueHD.DTS.DD5.1.Gerald torrent

ETTV Recommended Cam
Last Christmas 2019 HDCAM x264 AC3-ETRG torrent
Dark Waters 2019 HDCAM x264-ETRG torrent
Blue Story 2019 HDCAM x264 AC3-ETRG torrent
Jay and Silent Bob Reboot 2019 HDCAM x264-ETRG torrent

ETTV Recommended Foreign
Allegiant (2016) 720p BluRay x264 Eng Subs [Dual Audio] [Hindi DD 2.0 - English 2.0] Exclusive By -=!Dr.STAR!=- torrent
Line of Descent.2019.Hindi.1080p.WEB-DL.x264.AAC.Esub -DDR[EtHD] torrent
Kala Shah Kala (2019) Punjabi 720p HDRip x264 AAC - Downloadhub torrent
The Spy Who Dumped Me 2018 x264 720p Esub BluRay Dual Audio English Hindi GOPISAHI torrent


Download Torrent "El Camino - A Breaking Bad Movie 2019 (2160p NV 10bit Joy).mkv"

IMDB Details
Description:

After escaping Jack and his gang, Jesse Pinkman goes on the run from the police and tries to escape his own inner turmoil.

Genre:

Action, Drama

Download Torrent (Magnet)
Download Torrent (File)
Seeds: 1,849
Leechers: 545
Completed: 19,735 
Last Checked: 13-10-2019 13:18:55


Loading...
Details
Title:El Camino - A Breaking Bad Movie 2019 (2160p NV 10bit Joy).mkv
Description:







Media Information


Media Information

Code:
General
Format                                   : Matroska
Format version                           : Version 4 / Version 2
File size                                : 4.83 GiB
Duration                                 : 2 h 2 min
Overall bit rate                         : 5 636 kb/s
Movie name                               : El Camino - A Breaking Bad Movie 2019  (2160p NV 10bit Joy) [UTR]
Encoded date                             : UTC 2019-10-13 00:50:17
Writing application                      : mkvmerge v32.0.0 ('Astral Progressions') 64-bit
Writing library                          : libebml v1.3.7 + libmatroska v1.5.0
Cover                                    : Yes
Attachments                              : cover.jpg
Writing frontend                         : StaxRip v2.0.2.0, a JoyBell Encode

Video
ID                                       : 1
Format                                   : HEVC
Format/Info                              : High Efficiency Video Coding
Format profile                           : Main [email protected]@High
Codec ID                                 : V_MPEGH/ISO/HEVC
Duration                                 : 2 h 2 min
Bit rate                                 : 4 864 kb/s
Width                                    : 3 840 pixels
Height                                   : 1 600 pixels
Display aspect ratio                     : 2.40:1
Frame rate mode                          : Constant
Frame rate                               : 24.000 FPS
Color space                              : YUV
Chroma subsampling                       : 4:2:0
Bit depth                                : 10 bits
Bits/(Pixel*Frame)                       : 0.033
Stream size                              : 4.17 GiB (86%)
Default                                  : Yes
Forced                                   : No
Color range                              : Limited
Matrix coefficients                      : BT.709

Audio
ID                                       : 2
Format                                   : E-AC-3
Format/Info                              : Enhanced Audio Coding 3
Format settings, Endianness              : Big
Codec ID                                 : A_EAC3
Duration                                 : 2 h 2 min
Bit rate mode                            : Constant
Bit rate                                 : 768 kb/s
Channel(s)                               : 6 channels
Channel positions                        : Front: L C R, Side: L R, LFE
Sampling rate                            : 48.0 kHz
Frame rate                               : 187.500 FPS (256 spf)
Compression mode                         : Lossy
Stream size                              : 674 MiB (14%)
Language                                 : English
Default                                  : No
Forced                                   : No

Subtitle #1
ID                                       : 3
Format                                   : UTF-8
Codec ID                                 : S_TEXT/UTF8
Codec ID/Info                            : UTF-8 Plain Text
Duration                                 : 2 h 1 min
Bit rate                                 : 51 b/s
Count of elements                        : 1544
Stream size                              : 46.2 KiB (0%)
Language                                 : English
Default                                  : No
Forced                                   : No

Subtitle #2
ID                                       : 4
Format                                   : UTF-8
Codec ID                                 : S_TEXT/UTF8
Codec ID/Info                            : UTF-8 Plain Text
Duration                                 : 2 h 1 min
Bit rate                                 : 63 b/s
Count of elements                        : 1210
Stream size                              : 56.4 KiB (0%)
Language                                 : Arabic
Default                                  : No
Forced                                   : No

Subtitle #3
ID                                       : 5
Format                                   : UTF-8
Codec ID                                 : S_TEXT/UTF8
Codec ID/Info                            : UTF-8 Plain Text
Duration                                 : 2 h 1 min
Bit rate                                 : 35 b/s
Count of elements                        : 1168
Stream size                              : 31.8 KiB (0%)
Language                                 : Czech
Default                                  : No
Forced                                   : No

Subtitle #4
ID                                       : 6
Format                                   : UTF-8
Codec ID                                 : S_TEXT/UTF8
Codec ID/Info                            : UTF-8 Plain Text
Duration                                 : 2 h 1 min
Bit rate                                 : 36 b/s
Count of elements                        : 970
Stream size                              : 33.0 KiB (0%)
Language                                 : Danish
Default                                  : No
Forced                                   : No

Subtitle #5
ID                                       : 7
Format                                   : UTF-8
Codec ID                                 : S_TEXT/UTF8
Codec ID/Info                            : UTF-8 Plain Text
Duration                                 : 2 h 1 min
Bit rate                                 : 36 b/s
Count of elements                        : 1139
Stream size                              : 32.6 KiB (0%)
Language                                 : German
Default                                  : No
Forced                                   : No

Subtitle #6
ID                                       : 8
Format                                   : UTF-8
Codec ID                                 : S_TEXT/UTF8
Codec ID/Info                            : UTF-8 Plain Text
Duration                                 : 2 h 1 min
Bit rate                                 : 61 b/s
Count of elements                        : 1211
Stream size                              : 54.6 KiB (0%)
Language                                 : Greek
Default                                  : No
Forced                                   : No

Subtitle #7
ID                                       : 9
Format                                   : UTF-8
Codec ID                                 : S_TEXT/UTF8
Codec ID/Info                            : UTF-8 Plain Text
Duration                                 : 2 h 1 min
Bit rate                                 : 36 b/s
Count of elements                        : 1183
Stream size                              : 32.9 KiB (0%)
Language                                 : Spanish
Default                                  : No
Forced                                   : No

Subtitle #8
ID                                       : 10
Format                                   : UTF-8
Codec ID                                 : S_TEXT/UTF8
Codec ID/Info                            : UTF-8 Plain Text
Duration                                 : 2 h 1 min
Bit rate                                 : 35 b/s
Count of elements                        : 1170
Stream size                              : 31.6 KiB (0%)
Language                                 : Spanish
Default                                  : No
Forced                                   : No

Subtitle #9
ID                                       : 11
Format                                   : UTF-8
Codec ID                                 : S_TEXT/UTF8
Codec ID/Info                            : UTF-8 Plain Text
Duration                                 : 2 h 1 min
Bit rate                                 : 34 b/s
Count of elements                        : 978
Stream size                              : 30.9 KiB (0%)
Language                                 : Finnish
Default                                  : No
Forced                                   : No

Subtitle #10
ID                                       : 12
Format                                   : UTF-8
Codec ID                                 : S_TEXT/UTF8
Codec ID/Info                            : UTF-8 Plain Text
Duration                                 : 2 h 1 min
Bit rate                                 : 35 b/s
Count of elements                        : 1182
Stream size                              : 31.4 KiB (0%)
Language                                 : French
Default                                  : No
Forced                                   : No

Subtitle #11
ID                                       : 13
Format                                   : UTF-8
Codec ID                                 : S_TEXT/UTF8
Codec ID/Info                            : UTF-8 Plain Text
Duration                                 : 2 h 1 min
Bit rate                                 : 58 b/s
Count of elements                        : 1213
Stream size                              : 52.6 KiB (0%)
Language                                 : Hebrew
Default                                  : No
Forced                                   : No

Subtitle #12
ID                                       : 14
Format                                   : UTF-8
Codec ID                                 : S_TEXT/UTF8
Codec ID/Info                            : UTF-8 Plain Text
Duration                                 : 2 h 1 min
Bit rate                                 : 36 b/s
Count of elements                        : 1177
Stream size                              : 32.3 KiB (0%)
Language                                 : Hungarian
Default                                  : No
Forced                                   : No

Subtitle #13
ID                                       : 15
Format                                   : UTF-8
Codec ID                                 : S_TEXT/UTF8
Codec ID/Info                            : UTF-8 Plain Text
Duration                                 : 2 h 1 min
Bit rate                                 : 34 b/s
Count of elements                        : 1210
Stream size                              : 30.6 KiB (0%)
Language                                 : Indonesian
Default                                  : No
Forced                                   : No

Subtitle #14
ID                                       : 16
Format                                   : UTF-8
Codec ID                                 : S_TEXT/UTF8
Codec ID/Info                            : UTF-8 Plain Text
Duration                                 : 2 h 1 min
Bit rate                                 : 33 b/s
Count of elements                        : 1160
Stream size                              : 29.7 KiB (0%)
Language                                 : Italian
Default                                  : No
Forced                                   : No

Subtitle #15
ID                                       : 17
Format                                   : UTF-8
Codec ID                                 : S_TEXT/UTF8
Codec ID/Info                            : UTF-8 Plain Text
Duration                                 : 2 h 1 min
Bit rate                                 : 36 b/s
Count of elements                        : 1151
Stream size                              : 32.2 KiB (0%)
Language                                 : Japanese
Default                                  : No
Forced                                   : No

Subtitle #16
ID                                       : 18
Format                                   : UTF-8
Codec ID                                 : S_TEXT/UTF8
Codec ID/Info                            : UTF-8 Plain Text
Duration                                 : 2 h 1 min
Bit rate                                 : 43 b/s
Count of elements                        : 1190
Stream size                              : 39.3 KiB (0%)
Language                                 : Korean
Default                                  : No
Forced                                   : No

Subtitle #17
ID                                       : 19
Format                                   : UTF-8
Codec ID                                 : S_TEXT/UTF8
Codec ID/Info                            : UTF-8 Plain Text
Duration                                 : 2 h 1 min
Bit rate                                 : 37 b/s
Count of elements                        : 911
Stream size                              : 33.3 KiB (0%)
Language                                 : Norwegian Bokmal
Default                                  : No
Forced                                   : No

Subtitle #18
ID                                       : 20
Format                                   : UTF-8
Codec ID                                 : S_TEXT/UTF8
Codec ID/Info                            : UTF-8 Plain Text
Duration                                 : 2 h 1 min
Bit rate                                 : 37 b/s
Count of elements                        : 1011
Stream size                              : 33.1 KiB (0%)
Language                                 : Dutch
Default                                  : No
Forced                                   : No

Subtitle #19
ID                                       : 21
Format                                   : UTF-8
Codec ID                                 : S_TEXT/UTF8
Codec ID/Info                            : UTF-8 Plain Text
Duration                                 : 2 h 1 min
Bit rate                                 : 34 b/s
Count of elements                        : 1199
Stream size                              : 30.8 KiB (0%)
Language                                 : Polish
Default                                  : No
Forced                                   : No

Subtitle #20
ID                                       : 22
Format                                   : UTF-8
Codec ID                                 : S_TEXT/UTF8
Codec ID/Info                            : UTF-8 Plain Text
Duration                                 : 2 h 1 min
Bit rate                                 : 38 b/s
Count of elements                        : 1202
Stream size                              : 34.3 KiB (0%)
Language                                 : Portuguese
Default                                  : No
Forced                                   : No

Subtitle #21
ID                                       : 23
Format                                   : UTF-8
Codec ID                                 : S_TEXT/UTF8
Codec ID/Info                            : UTF-8 Plain Text
Duration                                 : 1 h 55 min
Bit rate                                 : 36 b/s
Count of elements                        : 1205
Stream size                              : 30.9 KiB (0%)
Language                                 : Portuguese
Default                                  : No
Forced                                   : No

Subtitle #22
ID                                       : 24
Format                                   : UTF-8
Codec ID                                 : S_TEXT/UTF8
Codec ID/Info                            : UTF-8 Plain Text
Duration                                 : 2 h 1 min
Bit rate                                 : 41 b/s
Count of elements                        : 1149
Stream size                              : 37.0 KiB (0%)
Language                                 : Romanian
Default                                  : No
Forced                                   : No

Subtitle #23
ID                                       : 25
Format                                   : UTF-8
Codec ID                                 : S_TEXT/UTF8
Codec ID/Info                            : UTF-8 Plain Text
Duration                                 : 2 h 1 min
Bit rate                                 : 60 b/s
Count of elements                        : 1175
Stream size                              : 54.1 KiB (0%)
Language                                 : Russian
Default                                  : No
Forced                                   : No

Subtitle #24
ID                                       : 26
Format                                   : UTF-8
Codec ID                                 : S_TEXT/UTF8
Codec ID/Info                            : UTF-8 Plain Text
Duration                                 : 2 h 1 min
Bit rate                                 : 35 b/s
Count of elements                        : 1081
Stream size                              : 31.6 KiB (0%)
Language                                 : Swedish
Default                                  : No
Forced                                   : No

Subtitle #25
ID                                       : 27
Format                                   : UTF-8
Codec ID                                 : S_TEXT/UTF8
Codec ID/Info                            : UTF-8 Plain Text
Duration                                 : 2 h 1 min
Bit rate                                 : 97 b/s
Count of elements                        : 1213
Stream size                              : 87.5 KiB (0%)
Language                                 : Thai
Default                                  : No
Forced                                   : No

Subtitle #26
ID                                       : 28
Format                                   : UTF-8
Codec ID                                 : S_TEXT/UTF8
Codec ID/Info                            : UTF-8 Plain Text
Duration                                 : 2 h 1 min
Bit rate                                 : 36 b/s
Count of elements                        : 1143
Stream size                              : 32.2 KiB (0%)
Language                                 : Turkish
Default                                  : No
Forced                                   : No

Subtitle #27
ID                                       : 29
Format                                   : UTF-8
Codec ID                                 : S_TEXT/UTF8
Codec ID/Info                            : UTF-8 Plain Text
Duration                                 : 2 h 1 min
Bit rate                                 : 48 b/s
Count of elements                        : 1210
Stream size                              : 43.4 KiB (0%)
Language                                 : Vietnamese
Default                                  : No
Forced                                   : No

Subtitle #28
ID                                       : 30
Format                                   : UTF-8
Codec ID                                 : S_TEXT/UTF8
Codec ID/Info                            : UTF-8 Plain Text
Duration                                 : 2 h 1 min
Bit rate                                 : 39 b/s
Count of elements                        : 1194
Stream size                              : 35.5 KiB (0%)
Language                                 : Chinese
Default                                  : No
Forced                                   : No

Subtitle #29
ID                                       : 31
Format                                   : UTF-8
Codec ID                                 : S_TEXT/UTF8
Codec ID/Info                            : UTF-8 Plain Text
Duration                                 : 2 h 1 min
Bit rate                                 : 34 b/s
Count of elements                        : 1215
Stream size                              : 30.8 KiB (0%)
Language                                 : Chinese
Default                                  : No
Forced                                   : No





Source Information

Code:
Release:
El.Camino.A.Breaking.Bad.Movie.2019.2160p.NF.WEBRip.DDP5.1.x264-NTb.mkv (33.44 GBs)
Category:Movies > HEVC/x265
Lang:English  English
Total Size:4.83 GB
Info Hash:344ddd9c5cd93f8e210b0d9dd2af3ada36941c5a
Added By:FreeExchange
Date Added:13-10-2019 13:18:52

Files

File List: 
 File Size
El Camino - A Breaking Bad Movie 2019 (2160p NV 10bit Joy).mkv4.83 GB



Loading...
Comments

There are currently no comments. Be the first one to write something !